VERSION	0.00.00	1.04.00
FES_MODE	0
BPM_DEF	135.000	135.000	135.000	135.000
MET_DEF	4	4
RESOLUTION	384
CLK_DEF	384
COMPATIBLE_CODE	MA2

BPM	0	0	135.000
MET	0	0	4	4

BXTAP	2	0	1
BXTAP	2	0	4
BXTAP	2	72	3
BXTAP	2	72	6
BXTAP	2	144	4
BXTAP	2	144	5
NMTAP	2	288	6
NMTAP	2	336	6
NMHLD	3	0	0	72
NMHLD	3	0	7	72
NMTAP	3	192	0
NMTAP	3	240	0
NMTAP	3	288	7
NMTAP	3	336	7
NMTAP	4	0	0
NMTAP	4	0	7
NMTAP	4	96	1
NMTAP	4	96	3
NMTAP	4	192	2
NMTAP	4	240	2
NMTAP	4	288	2
NMTAP	4	288	3
NMTAP	5	0	5
NMTAP	5	96	4
NMTAP	5	96	5
NMTAP	5	192	6
NMTAP	5	240	6
NMTAP	5	288	4
NMTAP	5	288	6
NMTAP	6	0	3
NMTAP	6	96	2
NMTAP	6	96	3
NMTAP	6	192	1
NMTAP	6	240	1
NMTAP	6	288	1
NMTAP	6	288	3
NMTAP	7	0	4
NMTAP	7	96	3
NMTAP	7	96	5
NMTAP	7	192	5
NMTAP	7	240	5
NMTAP	7	288	4
NMTAP	7	288	6
NMTAP	8	0	3
NMTAP	8	0	4
NMTAP	8	96	1
NMTAP	8	96	3
NMTAP	8	192	2
NMTAP	8	240	2
NMTAP	8	288	1
NMTAP	8	288	3
NMTAP	9	0	3
NMTAP	9	0	4
NMTAP	9	96	4
NMTAP	9	96	6
NMTAP	9	192	5
NMTAP	9	240	5
NMTAP	9	288	4
NMTAP	9	288	5
NMSTR	10	0	3
NMSXR	10	0	3	96	240	6
NMTAP	10	0	6
EXTAP	11	48	6
EXTAP	11	48	7
EXTAP	11	120	0
EXTAP	11	120	7
EXTAP	11	192	0
EXTAP	11	192	1
EXTAP	11	264	2
EXSTR	11	264	7
NMSCL	11	264	7	96	168	0
BXTAP	12	240	1
BXTAP	12	240	6
NMHLD	13	0	1	528
NMTAP	13	0	4
NMTAP	13	96	3
NMTAP	13	144	3
NMTAP	13	240	4
NMTAP	13	336	3
NMTAP	14	48	2
NMSTR	14	144	3
NMSV_	14	144	3	96	96	0
NMHLD	15	0	1	336
NMTAP	15	96	3
NMTAP	15	144	3
NMTAP	15	240	4
NMSTR	15	336	5
NMSV_	15	336	5	96	96	0
NMTAP	16	240	1
NMTAP	16	288	1
NMTAP	16	336	0
NMTAP	17	48	2
NMTAP	17	96	2
NMTAP	17	144	3
NMTAP	17	240	5
NMTAP	17	288	5
NMTAP	17	336	4
NMTAP	18	48	6
NMTAP	18	48	7
NMTAP	18	96	6
NMTAP	18	96	7
NMTAP	18	192	3
NMTAP	18	192	5
NMHLD	18	240	3	96
NMHLD	18	240	5	96
NMTAP	19	0	3
NMTAP	19	0	5
NMTAP	19	72	2
NMTAP	19	72	4
NMSTR	19	144	1
NMSUL	19	144	1	96	120	4
NMSTR	19	144	5
NMSUR	19	144	5	96	120	2
NMTAP	20	48	2
NMTAP	20	48	3
NMTAP	20	96	2
NMTAP	20	96	3
NMTAP	20	192	0
NMTAP	20	192	1
NMTAP	20	264	0
NMTAP	20	264	7
NMTAP	20	336	6
NMTAP	20	336	7
NMHLD	21	0	6	432
NMTAP	21	0	7
NMTAP	21	96	7
NMTAP	21	144	7
NMTAP	21	240	5
NMTAP	21	336	4
NMSTR	22	48	5
NMSSR	22	48	5	96	144	1
NMHLD	23	0	5	336
NMTAP	23	96	4
NMTAP	23	144	4
NMTAP	23	240	3
NMSTR	23	336	4
NMSUR	23	336	4	96	96	1
NMTAP	24	240	3
NMTAP	24	240	4
NMTAP	24	288	3
NMTAP	24	288	4
EXTAP	25	0	2
EXTAP	25	24	3
EXTAP	25	72	5
EXTAP	25	96	4
EXTAP	25	144	2
EXTAP	25	168	3
NMTAP	25	240	1
NMTAP	25	288	1
NMTAP	25	336	0
NMHLD	25	336	1	192
NMTAP	26	48	7
NMTAP	26	96	7
NMTAP	26	144	6
NMHLD	26	240	5	72
NMHLD	26	312	4	72
NMHLD	27	0	3	144
NMTHO	27	144	0	192	C	1	M1
NMTAP	28	96	6
NMTAP	28	96	7
NMTAP	28	192	0
NMTAP	28	192	5
NMTAP	28	288	1
NMTAP	28	288	4
NMTAP	29	0	2
NMTAP	29	0	3
NMTAP	29	144	2
NMTAP	29	144	4
NMTAP	29	192	2
NMTAP	29	192	4
NMTAP	29	336	5
NMTAP	30	0	4
NMTAP	30	0	5
NMTAP	30	72	3
NMTAP	30	72	4
NMTAP	30	144	2
NMTAP	30	144	3
NMTAP	30	192	2
NMTAP	30	192	3
NMTTP	30	288	2	E	0	M1
NMTTP	30	288	4	E	0	M1
NMTAP	31	0	3
NMTAP	31	0	5
NMTAP	31	144	4
NMTAP	31	144	6
NMTAP	31	192	4
NMTAP	31	192	6
NMTAP	31	336	2
NMTAP	32	0	2
NMTAP	32	0	3
NMTAP	32	72	3
NMTAP	32	72	4
NMTAP	32	144	4
NMTAP	32	144	5
NMTAP	32	192	4
NMTAP	32	192	5
NMTTP	32	288	4	E	0	M1
NMTTP	32	288	6	E	0	M1
NMTAP	33	0	2
NMTAP	33	0	6
NMTAP	33	96	1
NMTAP	33	96	5
NMTAP	33	192	2
NMHLD	33	240	2	96
NMTAP	33	336	3
NMTAP	34	48	2
NMTAP	34	96	4
NMTAP	34	144	3
NMTAP	34	144	5
NMTAP	34	240	5
NMTAP	34	288	3
NMTAP	34	336	2
NMTAP	34	336	4
NMHLD	35	48	1	96
NMHLD	35	144	7	96
NMTAP	35	240	0
NMSTR	35	288	0
NMSCL	35	288	0	96	240	4
NMSTR	35	288	7
NMSCR	35	288	7	96	240	3
NMTAP	36	336	2
NMTAP	36	336	3
NMTAP	37	48	4
NMTAP	37	48	5
NMTAP	37	144	3
NMTAP	37	144	4
NMTAP	37	240	1
NMTAP	37	240	6
NMTAP	37	288	1
NMTAP	37	288	6
BRSTR	38	0	2
BRSCL	38	0	2	96	96	5
BRSUL	38	0	2	96	96	5
BRTAP	38	0	4
NMTAP	38	288	7
NMTAP	38	336	7
NMSTR	39	48	0
NMSI_	39	48	0	96	48	4
NMSTR	39	48	1
NMSI_	39	48	1	96	48	4
NMTAP	39	240	5
NMTAP	39	288	4
NMTAP	39	288	5
NMTAP	40	0	6
NMTAP	40	0	7
NMTAP	40	96	0
NMTAP	40	96	1
NMTAP	40	192	2
NMTAP	40	192	3
NMTAP	40	288	4
NMTAP	40	288	5
NMSTR	40	336	4
NMSUR	40	336	4	96	96	1
NMSTR	40	336	5
NMSUL	40	336	5	96	96	0
NMTAP	41	240	0
NMTAP	41	288	0
NMTAP	41	336	1
NMTAP	41	336	7
NMTAP	42	48	5
NMTAP	42	96	5
NMTAP	42	144	4
NMTAP	42	144	6
NMTAP	42	240	2
NMTAP	42	288	2
NMTAP	42	336	1
NMTAP	42	336	3
NMTAP	43	48	0
NMTAP	43	48	6
NMTAP	43	96	0
NMTAP	43	96	6
NMTAP	43	192	7
NMTAP	43	240	6
NMTAP	43	288	4
NMTAP	43	288	5
NMTAP	44	0	4
NMTAP	44	0	5
NMTAP	44	72	2
NMTAP	44	72	3
NMTAP	44	144	0
NMTAP	44	144	7
NMTAP	44	240	6
NMTAP	44	240	7
NMTAP	44	288	0
NMTAP	44	288	5
NMTAP	44	336	1
NMTAP	44	336	4
NMHLD	45	96	2	96
NMHLD	45	192	3	96
NMHLD	45	288	1	288
NMSTR	46	0	2
NMSLL	46	0	2	96	96	4
NMSTR	46	288	2
NMSV_	46	288	2	96	96	1
NMSTR	46	288	6
NMSV_	46	288	6	96	96	5
NMTAP	47	240	2
NMTAP	47	240	3
NMTAP	47	288	1
NMTAP	47	288	4
NMTAP	48	0	1
NMTAP	48	48	1
NMTAP	48	96	3
NMTAP	48	144	3
NMTAP	48	192	2
NMTAP	48	192	4
BRTAP	49	0	6
BRTAP	49	0	7
BRTAP	49	72	0
BRTAP	49	72	7
BRTAP	49	144	0
BRTAP	49	144	1
NMTAP	49	240	2
NMTAP	49	288	2
NMTAP	49	288	3
NMTAP	50	0	4
NMTAP	50	0	5
NMTAP	50	96	6
NMTAP	50	96	7
NMTAP	50	192	0
NMTAP	50	192	1
NMTAP	50	288	2
NMTAP	50	288	3
NMSTR	50	336	2
NMSI_	50	336	2	96	48	6
NMSTR	50	336	3
NMSI_	50	336	3	96	48	7
NMSTR	51	144	4
NMSI_	51	144	4	96	48	0
NMSTR	51	144	5
NMSI_	51	144	5	96	48	1
EXTAP	52	0	2
EXTAP	52	24	3
EXTAP	52	72	5
EXTAP	52	96	4
EXTAP	52	144	2
EXTAP	52	168	3
NMTAP	52	240	1
NMTAP	52	288	1
NMTAP	52	336	0
NMTAP	52	336	2
NMTAP	53	48	0
NMTAP	53	48	7
NMTAP	53	144	5
NMTAP	53	144	7
NMTAP	53	240	3
NMTAP	53	240	4
NMSTR	53	288	3
BRSCL	53	288	3	96	384	4
NMTAP	53	288	4
NMTTP	54	0	0	C	1	M1
NMTAP	55	192	4
NMTAP	55	240	4
NMTAP	55	288	3
NMTAP	55	288	5
NMTAP	56	0	2
NMTAP	56	0	3
NMTAP	56	96	1
NMTAP	56	96	4
NMTAP	56	192	1
NMTAP	56	240	0
NMTAP	56	288	2
NMTAP	56	288	7
NMTAP	57	0	4
NMTAP	57	0	5
NMTAP	57	96	3
NMTAP	57	96	6
NMTAP	57	192	6
NMTAP	57	240	7
NMTAP	57	288	0
BRSTR	57	336	1
NMSI_	57	336	1	96	48	4
NMTAP	58	96	5
NMTAP	58	192	5
NMTAP	58	240	4
NMTAP	58	288	3
NMTAP	58	288	6
NMTAP	59	0	1
NMTAP	59	0	7
NMTAP	59	96	0
NMTAP	59	96	6
NMTAP	59	192	2
NMTAP	59	240	2
NMTAP	59	288	1
NMTAP	59	288	3
EXTAP	60	0	3
EXTAP	60	24	4
NMTAP	60	72	2
NMTAP	60	72	5
NMTAP	60	120	1
NMTAP	60	120	6
NMHLD	60	168	1	72
NMHLD	60	168	6	72
NMTAP	60	288	0
NMTAP	60	312	7
BRTAP	60	360	1
BRTAP	60	360	6

T_REC_TAP	284
T_REC_BRK	9
T_REC_XTP	21
T_REC_BXX	8
T_REC_HLD	20
T_REC_XHO	0
T_REC_BHO	0
T_REC_BXH	0
T_REC_STR	21
T_REC_BST	2
T_REC_XST	1
T_REC_XBS	0
T_REC_TTP	5
T_REC_THO	1
T_REC_SLD	22
T_REC_BSL	3
T_REC_ALL	397
T_NUM_TAP	332
T_NUM_BRK	22
T_NUM_HLD	21
T_NUM_SLD	22
T_NUM_ALL	397
T_JUDGE_TAP	351
T_JUDGE_HLD	77
T_JUDGE_SLD	25
T_JUDGE_ALL	453
TTM_EACHPAIRS	122
TTM_SCR_TAP	166000
TTM_SCR_BRK	57200
TTM_SCR_HLD	21000
TTM_SCR_SLD	33000
TTM_SCR_ALL	277200
TTM_SCR_S	266750
TTM_SCR_SS	275000
TTM_RAT_ACV	10080

