VERSION	0.00.00	1.04.00
FES_MODE	0
BPM_DEF	130.000	130.000	130.000	130.000
MET_DEF	4	4
RESOLUTION	384
CLK_DEF	384
COMPATIBLE_CODE	MA2

BPM	0	0	130.000
MET	0	0	4	4

NMSTR	1	0	7
NMSCL	1	0	7	96	96	4
NMSTR	1	192	0
NMSCR	1	192	0	96	96	3
NMTAP	2	0	5
NMTAP	2	96	3
NMSTR	2	192	1
NMSV_	2	192	1	96	48	2
NMTAP	2	288	4
CNSI_	2	336	2	0	48	4
NMHLD	3	0	5	96
NMHLD	3	96	7	96
NMHLD	3	192	0	96
NMSTR	3	288	2
NMSUR	3	288	2	96	144	4
NMTTP	4	0	0	C	1	M1
CNSCR	4	144	4	0	144	1
EXTAP	4	288	4
NMTAP	5	0	3
NMTAP	5	0	5
NMTAP	5	48	6
NMTAP	5	96	2
NMTAP	5	96	4
NMTAP	5	144	1
NMTAP	5	192	3
NMTAP	5	192	5
NMTAP	5	240	6
NMTAP	5	288	2
NMTAP	5	288	4
NMTAP	5	336	1
NMTAP	6	0	4
NMTAP	6	0	5
NMTAP	6	48	6
NMTAP	6	96	2
NMTAP	6	96	3
NMTAP	6	144	1
NMTAP	6	192	4
NMTAP	6	192	5
NMTAP	6	240	6
NMTAP	6	288	2
NMSTR	6	288	3
NMSCR	6	288	3	96	48	6
NMTAP	6	336	1
NMTAP	7	0	1
NMSTR	7	0	3
NMSXR	7	0	3	96	144	0
NMTAP	7	96	5
NMTAP	7	192	6
NMTAP	7	240	6
NMTAP	7	288	5
NMTAP	7	336	5
NMTAP	8	0	0
NMTAP	8	0	4
NMTAP	8	48	2
NMTAP	8	96	3
NMSTR	8	96	7
NMSI_	8	96	7	96	48	1
NMTAP	8	144	6
EXTAP	8	192	2
CNSI_	8	240	1	0	48	5
EXTAP	8	240	2
EXTAP	8	288	2
CNSI_	8	288	5	0	48	3
EXTAP	9	0	3
EXTAP	9	0	5
NMTAP	9	48	6
NMTAP	9	96	2
NMTAP	9	96	4
NMTAP	9	144	1
NMTAP	9	192	3
NMTAP	9	192	5
NMTAP	9	240	6
NMTAP	9	288	2
NMSTR	9	288	4
NMSCR	9	288	4	96	48	7
NMTAP	9	336	3
NMSTR	10	0	4
NMSCL	10	0	4	96	48	1
NMTAP	10	96	4
NMTAP	10	96	6
NMTAP	10	192	2
NMTAP	10	192	4
NMTAP	10	288	2
NMSTR	10	288	3
NMSI_	10	288	3	96	48	7
NMTAP	10	336	1
NMSTR	11	0	0
NMSI_	11	0	0	96	48	4
NMSTR	11	96	6
NMSUL	11	96	6	96	48	2
NMSTR	11	192	1
NMSUR	11	192	1	96	48	5
NMSTR	11	288	7
NMSCL	11	288	7	96	144	0
NMTTP	12	0	0	C	1	M1
EXTAP	12	240	0
EXTAP	12	240	7
EXTAP	12	288	0
EXTAP	12	288	7
NMTAP	12	336	1
NMTAP	12	336	6
NMTAP	13	0	5
NMTAP	13	48	3
NMTAP	13	48	6
NMTAP	13	96	2
NMTAP	13	144	1
NMTAP	13	144	4
NMTAP	13	192	5
NMTAP	13	240	3
NMTAP	13	240	6
NMSTR	13	288	2
BRSCL	13	288	2	96	96	6
NMTAP	13	336	5
NMSTR	14	0	6
BRSCL	14	0	6	96	96	2
NMTTP	14	96	0	C	0	M1
NMTAP	14	192	7
NMTAP	14	288	0
NMTAP	14	288	1
NMTAP	14	336	2
NMTAP	14	336	7
NMTAP	15	0	3
NMTAP	15	0	6
NMTAP	15	96	2
NMTAP	15	144	1
NMTAP	15	144	4
NMTAP	15	192	5
NMTAP	15	240	3
NMTAP	15	240	6
NMTAP	15	288	2
NMTAP	15	336	1
NMTAP	15	336	3
NMTAP	16	0	4
NMTAP	16	48	3
NMTAP	16	48	5
NMSTR	16	96	6
NMSSR	16	96	6	96	96	2
NMTAP	16	144	6
NMTAP	16	192	2
EXTAP	16	240	1
EXTAP	16	288	0
EXTAP	16	336	0
NMTAP	17	0	5
NMTAP	17	48	3
NMTAP	17	48	6
NMTAP	17	96	2
NMTAP	17	144	1
NMTAP	17	144	4
NMTAP	17	192	5
NMTAP	17	240	3
NMTAP	17	240	6
NMTAP	17	288	2
NMTAP	17	336	1
NMTAP	17	336	4
NMSTR	18	0	5
NMSI_	18	0	5	96	48	1
NMSTR	18	96	3
NMSI_	18	96	3	96	48	7
NMTAP	18	192	6
NMSTR	18	288	1
NMSI_	18	288	1	96	48	4
NMSTR	18	288	7
NMSI_	18	288	7	96	48	5
NMTAP	19	0	1
NMTAP	19	0	7
NMSTR	19	96	0
NMSI_	19	96	0	96	48	2
NMSTR	19	96	6
NMSI_	19	96	6	96	48	3
NMTAP	19	192	0
NMTAP	19	192	6
NMSTR	19	288	0
NMSI_	19	288	0	96	48	4
NMSTR	19	288	7
NMSI_	19	288	7	96	48	5
NMSTR	20	0	0
NMSI_	20	0	0	96	48	2
NMSTR	20	0	7
NMSI_	20	0	7	96	48	3
NMTAP	20	96	0
NMTAP	20	96	7
EXTAP	20	192	0
EXTAP	20	192	7
EXTAP	20	240	1
EXTAP	20	240	6
EXSTR	20	288	2
NMSCL	20	288	2	96	48	0
EXSTR	20	288	5
NMSCR	20	288	5	96	48	7
EXTAP	20	336	3
EXTAP	20	336	4
EXTAP	21	0	2
EXTAP	21	0	5
NMTAP	21	96	0
NMTAP	21	96	7
NMTAP	21	144	5
NMTAP	21	192	3
NMTAP	21	240	1
NMSTR	21	288	0
NMSI_	21	288	0	96	48	3
NMSTR	22	0	0
NMSI_	22	0	0	96	48	5
NMSTR	22	96	0
NMSCR	22	96	0	96	48	3
NMSTR	22	192	0
NMSCL	22	192	0	96	48	5
NMTAP	22	288	0
NMTAP	23	0	2
NMTAP	23	0	6
NMTAP	23	96	7
NMTAP	23	144	1
NMTAP	23	192	3
NMTAP	23	240	5
NMSTR	23	288	7
NMSV_	23	288	7	96	48	4
NMSTR	24	0	7
NMSV_	24	0	7	96	48	2
NMSTR	24	96	7
NMSCL	24	96	7	96	48	4
NMSTR	24	192	7
NMSCR	24	192	7	96	48	2
NMTAP	24	288	7
NMTAP	25	0	1
NMTAP	25	0	5
NMTAP	25	96	0
NMTAP	25	144	6
NMTAP	25	192	4
NMTAP	25	240	2
NMSTR	25	288	0
NMSI_	25	288	0	96	48	2
NMSTR	26	0	0
NMSI_	26	0	0	96	48	6
NMSTR	26	96	0
NMSI_	26	96	0	96	48	3
NMSTR	26	192	0
NMSI_	26	192	0	96	48	5
NMSTR	26	288	0
NMSI_	26	288	0	96	48	4
NMTAP	27	0	0
NMHLD	27	0	6	96
NMTAP	27	96	4
NMTAP	27	144	4
NMTAP	27	192	3
NMTAP	27	240	3
NMSTR	27	288	2
NMSI_	27	288	2	96	72	4
NMTAP	28	0	5
CNSI_	28	72	4	0	72	0
NMTAP	28	96	5
CNSI_	28	144	0	0	48	6
NMTAP	28	192	5
NMTAP	28	288	4
NMTAP	28	288	6
NMTAP	28	336	5
NMHLD	29	0	2	96
NMTAP	29	0	4
NMTAP	29	96	3
NMTAP	29	120	3
NMTAP	29	168	1
NMTAP	29	168	4
NMTAP	29	216	5
NMTAP	29	240	5
NMTAP	29	288	3
NMTAP	29	288	6
NMTAP	29	336	4
NMTAP	29	336	5
NMTAP	30	0	3
NMHLD	30	0	6	96
NMTAP	30	96	4
NMTAP	30	120	4
NMTAP	30	168	3
NMTAP	30	168	7
NMTAP	30	216	2
NMTAP	30	240	2
NMTAP	30	288	1
NMTAP	30	288	5
NMTAP	30	336	4
NMTAP	31	0	2
NMTAP	31	0	4
NMTAP	31	48	2
NMTAP	31	48	4
NMTAP	31	96	5
NMTAP	31	120	3
NMTAP	31	168	2
NMSTR	31	168	6
NMSXL	31	168	6	96	120	4
NMTAP	32	0	3
NMSTR	32	96	5
NMSCR	32	96	5	96	96	1
NMTAP	32	144	5
NMSTR	32	192	1
NMSCL	32	192	1	96	96	5
NMTAP	32	240	2
NMTAP	32	288	3
NMTAP	32	336	3
NMSTR	33	0	2
NMSI_	33	0	2	96	48	4
NMTAP	33	48	2
NMTAP	33	96	7
CNSI_	33	144	4	0	48	1
NMHLD	33	144	7	96
NMTAP	33	240	0
NMTAP	33	288	2
NMTAP	33	312	3
NMTAP	33	360	5
NMTAP	34	0	4
NMTAP	34	48	3
NMTAP	34	48	6
NMTAP	34	96	3
NMTAP	34	96	6
NMTAP	34	144	2
NMTAP	34	192	1
NMTAP	34	192	5
NMTAP	34	240	6
NMTAP	34	288	3
NMTAP	34	288	7
NMTAP	34	336	6
NMTAP	34	360	4
NMTAP	35	0	5
NMTAP	35	48	1
NMTAP	35	72	3
NMTAP	35	96	2
NMTAP	35	144	1
NMTAP	35	168	0
NMTAP	35	216	6
NMTAP	35	240	7
NMSTR	35	288	4
NMSI_	35	288	4	96	48	0
NMSTR	35	288	5
NMSI_	35	288	5	96	48	7
NMTAP	35	336	3
NMTAP	35	336	6
EXTAP	36	96	0
EXTAP	36	96	7
NMTAP	36	144	1
NMTAP	36	192	2
NMTAP	36	192	3
NMTAP	36	240	4
NMSTR	36	288	5
NMSCL	36	288	5	96	48	2
NMTAP	36	336	5
NMTAP	37	0	0
NMSTR	37	48	7
NMSF_	37	48	7	96	48	3
NMTAP	37	288	1
NMTAP	37	288	3
NMTAP	37	336	5
NMTAP	37	360	4
NMTAP	38	0	6
NMTAP	38	48	0
NMTAP	38	48	7
NMSTR	38	96	1
NMSI_	38	96	1	96	24	3
NMTAP	38	144	1
NMTAP	38	192	6
CNSCR	38	216	3	0	24	4
CNSI_	38	240	4	0	48	6
NMTAP	38	288	7
NMTAP	38	336	7
NMTAP	39	0	4
NMTAP	39	0	6
NMTAP	39	48	2
NMTAP	39	72	3
NMTAP	39	96	1
NMTAP	39	144	5
NMTAP	39	168	4
NMSTR	39	192	6
NMSV_	39	192	6	96	48	5
NMTAP	39	240	7
EXTAP	39	288	0
EXTAP	39	336	1
CNSI_	39	336	5	0	48	3
NMSTR	40	0	2
NMSLL	40	0	2	96	288	6
NMHLD	40	96	4	96
NMTAP	40	288	4
NMHLD	41	0	3	96
CNSXL	41	0	6	0	288	1
NMTAP	41	192	3
NMTTP	41	288	4	E	0	M1
NMSTR	42	0	5
NMSLR	42	0	5	96	288	1
NMHLD	42	96	2	96
NMTAP	42	288	2
CNSXR	43	0	1	0	288	4
NMHLD	43	0	3	96
NMTAP	43	192	3
NMTTP	43	288	3	E	0	M1
NMSTR	44	0	2
NMSLL	44	0	2	96	288	6
NMHLD	44	96	4	96
NMTAP	44	288	4
NMHLD	45	0	5	96
CNSXL	45	0	6	0	288	3
NMTAP	45	192	5
NMTTP	45	288	6	E	0	M1
NMHLD	46	0	5	288
NMTAP	46	96	3
NMTAP	46	288	4
NMSTR	47	0	3
NMSI_	47	0	3	96	48	7
NMTAP	47	0	6
NMTAP	47	96	4
NMTAP	47	120	4
NMTAP	47	168	2
NMTAP	47	216	0
NMTAP	47	240	0
NMTAP	47	288	1
NMTAP	47	288	3
NMTAP	47	336	2
NMTAP	48	0	1
NMSTR	48	0	4
NMSI_	48	0	4	96	48	0
NMTAP	48	96	3
NMTAP	48	120	3
NMTAP	48	168	5
NMTAP	48	216	7
NMTAP	48	240	7
NMTAP	48	288	4
NMTAP	48	288	6
NMTAP	48	336	5
NMSTR	49	0	3
NMSI_	49	0	3	96	48	7
NMTAP	49	0	6
NMTAP	49	96	4
NMTAP	49	120	4
NMTAP	49	168	2
NMTAP	49	216	0
NMTAP	49	240	0
NMTAP	49	288	1
NMTAP	49	288	3
NMTAP	49	336	4
NMTAP	50	0	3
NMTAP	50	0	5
NMTAP	50	48	6
NMTAP	50	96	6
NMTAP	50	120	0
BRTAP	50	168	1
BRTAP	50	168	5
NMHLD	51	0	2	48
NMHLD	51	0	4	48
NMHLD	51	96	2	48
NMHLD	51	96	4	48
NMHLD	51	192	3	48
NMHLD	51	192	5	48
NMHLD	51	288	3	48
NMHLD	51	288	5	48
NMHLD	52	0	2	48
NMHLD	52	0	4	48
NMHLD	52	96	2	48
NMHLD	52	96	4	48
NMHLD	52	192	3	48
NMHLD	52	192	5	48
NMHLD	52	288	3	48
NMHLD	52	288	5	48
NMHLD	53	0	2	48
NMHLD	53	0	4	48
NMHLD	53	96	2	48
NMHLD	53	96	3	48
NMHLD	53	192	3	48
NMHLD	53	192	5	48
NMHLD	53	288	4	48
NMHLD	53	288	5	48
NMSTR	54	0	2
NMSI_	54	0	2	96	48	0
NMHLD	54	0	4	48
NMHLD	54	96	4	48
NMHLD	54	192	3	48
NMSTR	54	192	5
NMSCR	54	192	5	96	48	7
NMHLD	54	288	3	48
NMHLD	55	0	2	48
NMHLD	55	0	4	48
NMHLD	55	96	2	48
NMHLD	55	96	4	48
NMHLD	55	192	3	48
NMHLD	55	192	5	48
NMHLD	55	288	3	48
NMHLD	55	288	5	48
NMHLD	56	0	2	48
NMHLD	56	0	4	48
NMHLD	56	96	2	48
NMHLD	56	96	3	48
NMHLD	56	192	3	48
NMHLD	56	192	5	48
NMTAP	56	288	4
NMTAP	56	288	5
NMTAP	57	0	5
NMTAP	57	32	4
NMTAP	57	64	3
NMTAP	57	96	4
NMTAP	57	128	3
NMTAP	57	160	2
NMTAP	57	192	5
NMTAP	57	224	4
NMTAP	57	256	3
NMSTR	57	288	4
BRSCR	57	288	4	96	192	3
NMTAP	57	320	3
NMTAP	57	352	2
NMHLD	58	0	1	192
NMSTR	58	288	0
NMSCR	58	288	0	96	48	4
NMTAP	58	288	6
BRTAP	59	0	0
BRTAP	59	0	5
NMSTR	59	96	7
NMSCL	59	96	7	96	48	3
NMTAP	59	168	3
NMTAP	59	192	3
NMTAP	59	240	2
NMSTR	59	288	1
NMSI_	59	288	1	96	48	6
NMTAP	59	336	0
NMSTR	60	0	7
NMSI_	60	0	7	96	48	3
NMSTR	60	96	4
NMSI_	60	96	4	96	48	0
NMHLD	60	192	6	96
NMTAP	60	288	7
NMTAP	60	336	0
NMTAP	60	336	5
NMTAP	61	0	1
NMSTR	61	0	4
NMSCL	61	0	4	96	48	2
NMTAP	61	96	2
CNSUR	61	144	2	0	96	6
NMTAP	61	168	0
NMTAP	61	192	0
NMTAP	61	240	1
NMTAP	61	288	2
NMSTR	61	288	7
NMSCL	61	288	7	96	48	4
NMTAP	61	336	0
NMTAP	62	0	3
NMSTR	62	0	7
NMSCR	62	0	7	96	48	2
NMSTR	62	96	6
NMSSR	62	96	6	96	96	2
NMTAP	62	96	7
NMTAP	62	192	2
EXTAP	62	240	1
EXSTR	62	288	0
NMSCR	62	288	0	96	48	4
EXTAP	62	336	0
NMTAP	63	0	0
NMTAP	63	0	5
NMHLD	63	96	7	72
NMTAP	63	168	4
NMTAP	63	192	4
NMTAP	63	240	3
NMSTR	63	288	2
NMSI_	63	288	2	96	48	6
NMTAP	63	336	3
NMSTR	64	0	4
NMSI_	64	0	4	96	48	7
NMSTR	64	96	1
NMSCR	64	96	1	96	48	4
NMHLD	64	192	6	96
NMTAP	64	288	3
NMTAP	64	336	2
NMTAP	64	336	5
NMSTR	65	0	1
NMSV_	65	0	1	96	48	4
NMTAP	65	0	4
NMSTR	65	96	3
NMSI_	65	96	3	96	48	0
NMSI_	65	96	3	96	48	6
NMSTR	65	192	3
NMSI_	65	192	3	96	48	7
NMSTR	65	288	3
BRSCL	65	288	3	96	144	4
BRSUL	65	288	3	96	144	4
NMTAP	66	240	2
NMTAP	66	240	6
NMSTR	66	288	7
NMSCL	66	288	7	96	48	3
EXTAP	66	336	1
EXTAP	66	352	0
EXTAP	66	368	1
EXTAP	67	0	7
NMSTR	67	96	0
NMSCR	67	96	0	96	48	4
NMTAP	67	168	4
NMTAP	67	192	4
NMTAP	67	240	5
NMSTR	67	288	6
BRSCR	67	288	6	96	96	2
NMTAP	67	336	3
NMSTR	68	0	2
BRSCR	68	0	2	96	96	6
NMTTP	68	96	0	C	0	M1
NMHLD	68	192	1	96
NMTAP	68	288	0
NMTAP	68	336	2
NMTAP	68	336	7
NMSTR	69	0	3
NMSI_	69	0	3	96	48	5
NMTAP	69	0	6
NMTAP	69	96	5
CNSI_	69	144	5	0	48	1
NMTAP	69	168	7
NMTAP	69	192	7
NMTAP	69	240	6
NMSTR	69	288	0
NMSCR	69	288	0	96	48	3
NMTAP	69	288	5
NMTAP	69	336	7
NMSTR	70	0	0
NMSCL	70	0	0	96	48	5
NMTAP	70	0	4
NMTAP	70	96	0
NMSTR	70	96	2
NMSSR	70	96	2	96	96	6
NMTAP	70	192	6
EXTAP	70	240	7
EXSTR	70	288	7
NMSCL	70	288	7	96	48	3
EXTAP	70	336	7
NMTAP	71	0	2
NMTAP	71	0	7
NMHLD	71	96	0	72
NMTAP	71	168	3
NMTAP	71	192	3
NMTAP	71	240	4
NMSTR	71	288	5
NMSI_	71	288	5	96	48	1
NMTAP	71	336	4
NMSTR	72	0	3
NMSI_	72	0	3	96	48	7
NMSTR	72	96	6
NMSCL	72	96	6	96	48	3
NMTAP	72	192	0
EXSTR	72	288	2
NMSI_	72	288	2	96	48	7
EXSTR	72	288	4
NMSI_	72	288	4	96	48	6
NMTAP	73	0	2
NMTAP	73	0	4
NMSTR	73	96	3
NMSI_	73	96	3	96	48	1
NMSTR	73	96	5
NMSI_	73	96	5	96	48	0
NMTAP	73	192	3
NMTAP	73	192	5
NMSTR	73	288	3
NMSI_	73	288	3	96	48	7
NMSTR	73	288	4
NMSI_	73	288	4	96	48	6
NMSTR	74	0	3
NMSI_	74	0	3	96	48	1
NMSTR	74	0	4
NMSI_	74	0	4	96	48	0
NMTAP	74	96	3
NMTAP	74	96	4
EXTAP	74	192	2
EXTAP	74	192	3
EXTAP	74	240	2
EXTAP	74	240	3
EXTAP	74	288	0
EXTAP	74	288	1
EXTAP	74	336	6
EXTAP	74	336	7
NMTAP	75	0	4
NMTAP	75	0	5
NMTAP	75	48	7
NMTAP	75	96	2
NMTAP	75	96	3
NMTAP	75	144	0
NMTAP	75	192	3
NMTAP	75	192	5
NMTAP	75	240	7
NMTAP	75	288	2
NMTAP	75	288	4
NMTAP	75	336	0
NMTAP	76	0	4
NMTAP	76	0	5
NMTAP	76	48	7
NMTAP	76	96	2
NMTAP	76	96	3
NMTAP	76	144	0
NMTAP	76	192	4
NMSTR	76	192	6
NMSCL	76	192	6	96	48	3
NMTAP	76	240	2
NMSTR	76	288	1
NMSUR	76	288	1	96	48	5
NMHLD	77	0	6	96
NMTAP	77	96	7
NMTAP	77	144	7
NMTAP	77	192	4
NMTAP	77	192	5
NMTAP	77	240	1
NMTAP	77	264	3
NMTAP	77	288	2
NMTAP	77	336	6
NMTAP	77	360	4
NMTAP	78	0	5
NMTAP	78	48	1
NMTAP	78	72	0
NMTAP	78	96	2
NMTAP	78	144	6
NMTAP	78	168	7
NMTAP	78	192	5
NMTAP	78	240	4
NMTAP	78	240	5
NMTAP	78	288	3
NMTAP	78	288	6
NMTAP	78	336	3
NMTAP	78	336	6
NMHLD	79	0	4	96
NMTAP	79	0	5
NMTAP	79	48	7
NMHLD	79	96	5	96
NMTAP	79	144	7
NMHLD	79	192	3	96
NMTAP	79	240	7
NMHLD	79	288	4	96
NMTAP	79	336	0
NMHLD	80	0	2	96
NMTAP	80	48	0
NMHLD	80	96	3	96
NMTAP	80	144	0
NMSTR	80	192	2
NMSI_	80	192	2	96	48	5
NMTAP	80	288	6
CNSI_	80	336	5	0	48	1
NMTAP	81	0	7
NMTAP	81	48	7
NMTAP	81	96	1
NMTAP	81	144	1
NMTAP	81	168	0
NMTAP	81	216	0
NMTAP	81	240	2
NMTAP	81	288	2
NMTAP	81	288	3
NMTAP	81	336	1
NMTAP	81	336	4
NMTAP	82	0	1
NMTAP	82	0	4
NMTAP	82	48	0
NMTAP	82	72	3
NMTAP	82	96	2
NMTAP	82	144	7
NMTAP	82	168	4
NMTAP	82	192	5
NMTAP	82	240	0
NMTTP	82	288	1	E	0	M1
NMTTP	82	304	2	E	0	M1
NMTTP	82	320	3	E	0	M1
NMTTP	82	336	7	E	0	M1
NMTTP	82	352	6	E	0	M1
NMTTP	82	368	5	E	0	M1
BRSTR	83	0	0
NMSCR	83	0	0	96	672	1
CNSSR	85	0	1	0	48	5
CNSCL	85	48	5	0	48	4
CNSSL	85	96	4	0	480	0
NMTTP	87	0	0	C	0	M1
NMTTP	87	0	3	B	0	M1
NMTTP	87	0	4	B	0	M1
NMTTP	87	0	4	E	0	M1

T_REC_TAP	404
T_REC_BRK	4
T_REC_XTP	41
T_REC_BXX	0
T_REC_HLD	69
T_REC_XHO	0
T_REC_BHO	0
T_REC_BXH	0
T_REC_STR	96
T_REC_BST	1
T_REC_XST	6
T_REC_XBS	0
T_REC_TTP	17
T_REC_THO	0
T_REC_SLD	98
T_REC_BSL	7
T_REC_ALL	743
T_NUM_TAP	564
T_NUM_BRK	12
T_NUM_HLD	69
T_NUM_SLD	98
T_NUM_ALL	743
T_JUDGE_TAP	569
T_JUDGE_HLD	102
T_JUDGE_SLD	105
T_JUDGE_ALL	776
TTM_EACHPAIRS	146
TTM_SCR_TAP	282000
TTM_SCR_BRK	31200
TTM_SCR_HLD	69000
TTM_SCR_SLD	147000
TTM_SCR_ALL	529200
TTM_SCR_S	512200
TTM_SCR_SS	528000
TTM_RAT_ACV	10022

