VERSION	0.00.00	1.04.00
FES_MODE	0
BPM_DEF	130.000	130.000	130.000	130.000
MET_DEF	4	4
RESOLUTION	384
CLK_DEF	384
COMPATIBLE_CODE	MA2

BPM	0	0	130.000
MET	0	0	4	4

NMHLD	1	0	1	384
NMHLD	2	0	3	384
NMHLD	3	0	4	288
NMHLD	3	192	5	96
NMSTR	4	0	3
NMSCR	4	0	3	96	192	0
NMHLD	4	0	6	288
NMHLD	5	0	2	96
NMTAP	5	96	3
NMTAP	5	192	5
NMTAP	5	240	5
NMTAP	5	288	4
NMHLD	6	0	2	96
NMTAP	6	96	0
NMHLD	6	192	5	96
NMTAP	6	288	7
NMTAP	6	336	7
NMTAP	7	0	6
NMHLD	7	96	1	96
NMTAP	7	192	0
NMTAP	7	288	6
NMTAP	7	288	7
NMTAP	8	0	4
NMTAP	8	0	5
NMTAP	8	96	2
NMTAP	8	96	3
NMTAP	8	192	0
NMTAP	8	192	5
NMHLD	9	0	6	96
NMTAP	9	96	4
NMTAP	9	192	1
NMTAP	9	240	1
NMTAP	9	288	3
NMHLD	10	0	5	96
NMTAP	10	96	7
NMHLD	10	192	2	96
NMTAP	10	288	0
NMTAP	10	336	0
NMTAP	11	0	1
NMTAP	11	96	2
NMTAP	11	96	3
NMTAP	11	192	4
NMTAP	11	192	5
NMTAP	11	288	6
NMTAP	11	288	7
NMSTR	12	0	6
NMSCL	12	0	6	96	144	3
NMSTR	12	0	7
NMSCR	12	0	7	96	144	2
NMTAP	13	0	1
NMTAP	13	96	0
NMTAP	13	96	1
NMTAP	13	192	6
NMTAP	13	240	6
NMTAP	13	288	7
NMTAP	14	0	0
NMTAP	14	0	1
NMTAP	14	96	2
NMTAP	14	192	3
NMTAP	14	192	4
NMTAP	14	288	5
NMTAP	14	336	5
NMTAP	15	0	4
NMTAP	15	96	2
NMTAP	15	96	3
NMTAP	15	192	1
NMTAP	15	288	0
NMTAP	15	288	1
NMTAP	16	0	6
NMTAP	16	0	7
NMSTR	16	96	6
NMSI_	16	96	6	96	96	3
NMSTR	16	96	7
NMSI_	16	96	7	96	96	2
NMTAP	17	0	1
NMTAP	17	96	2
NMTAP	17	96	3
NMTAP	17	192	5
NMTAP	17	240	5
NMTAP	17	288	4
NMTAP	18	0	2
NMTAP	18	0	3
NMTAP	18	96	1
NMTAP	18	192	0
NMTAP	18	192	7
NMTAP	18	288	6
NMTAP	18	288	7
NMHLD	19	0	5	96
NMTAP	19	96	4
NMHLD	19	192	2	96
NMSTR	19	288	0
NMSF_	19	288	0	96	144	4
NMTAP	20	288	3
NMTAP	20	288	6
NMHLD	21	0	4	384
NMHLD	21	0	5	96
NMHLD	21	192	6	96
NMSTR	22	0	7
NMSCL	22	0	7	96	144	4
NMTAP	22	288	2
NMHLD	23	0	2	96
NMHLD	23	0	3	384
NMHLD	23	192	1	96
NMSTR	24	0	0
NMSCR	24	0	0	96	144	3
NMTAP	24	288	5
NMHLD	25	0	5	96
NMHLD	25	96	7	96
NMTAP	25	192	6
NMTAP	25	240	6
NMTAP	25	288	7
NMSTR	26	0	5
NMSUR	26	0	5	96	192	3
NMTAP	26	288	0
NMHLD	27	0	1	96
NMHLD	27	96	0	96
NMTAP	27	192	2
NMTAP	27	240	2
NMTAP	27	288	0
NMSTR	28	0	0
NMSCL	28	0	0	96	144	5
NMSTR	28	0	1
NMSCR	28	0	1	96	144	4
NMTAP	29	0	3
NMTAP	29	0	5
NMTAP	29	96	2
NMTAP	29	96	4
NMTAP	29	192	5
NMTAP	29	240	5
NMTAP	29	288	4
NMTAP	30	0	2
NMTAP	30	0	3
NMTAP	30	96	4
NMTAP	30	96	5
NMTAP	30	192	2
NMTAP	30	240	2
NMTAP	30	288	3
EXTAP	31	0	0
EXTAP	31	0	1
EXSTR	31	48	0
NMSI_	31	48	0	96	48	5
EXSTR	31	48	1
NMSI_	31	48	1	96	48	4
NMTAP	32	0	4
NMTAP	32	0	5
NMTAP	32	96	6
NMTAP	32	192	7
NMTAP	32	240	7
NMTAP	32	288	0
NMHLD	33	0	1	96
NMTAP	33	96	3
NMTAP	33	144	3
NMTAP	33	240	5
NMTAP	33	288	5
NMTAP	34	0	6
NMTAP	34	0	7
NMTAP	34	96	5
NMTAP	34	192	3
NMTAP	34	192	4
NMTAP	34	288	2
NMTAP	35	0	0
NMSTR	35	0	1
NMSI_	35	0	1	96	96	3
NMTAP	35	288	2
NMTAP	35	288	4
NMHLD	36	0	1	144
NMTAP	36	0	3
NMTAP	36	144	0
NMTAP	36	192	0
NMTAP	36	288	0
NMTAP	36	288	7
NMTAP	37	0	6
NMTAP	37	0	7
NMTAP	37	48	6
NMTAP	37	48	7
NMHLD	37	144	0	144
NMTAP	37	144	5
NMTAP	37	288	3
NMTAP	37	336	3
NMTAP	38	48	2
NMTAP	38	48	3
NMTAP	38	96	2
NMTAP	38	96	3
NMTAP	38	192	0
NMTAP	38	192	1
NMTAP	38	288	6
NMTAP	38	288	7
NMSTR	38	336	6
NMSUR	38	336	6	96	144	3
NMTAP	38	336	7
BXTAP	39	288	1
NMHLD	40	0	2	192
NMHLD	40	192	4	192
NMSTR	41	0	6
NMSLL	41	0	6	96	192	2
NMHLD	42	0	5	192
NMHLD	42	192	3	192
NMSTR	43	0	1
NMSI_	43	0	1	96	96	3
CNSI_	43	192	3	0	96	7
NMHLD	44	0	2	96
NMHLD	44	96	1	96
NMHLD	44	192	0	96
NMHLD	44	288	1	96
NMSTR	45	0	2
NMSLL	45	0	2	96	192	6
NMHLD	46	0	5	96
NMHLD	46	96	6	96
NMHLD	46	192	7	96
NMHLD	46	288	6	96
NMSTR	47	0	5
NMSI_	47	0	5	96	48	7
CNSI_	47	144	7	0	48	4
CNSI_	47	192	4	0	48	0
CNSI_	47	240	0	0	144	3
CNSI_	48	0	3	0	192	1
EXTAP	48	288	0
EXTAP	48	288	7
NMTAP	49	0	6
NMTAP	49	0	7
NMTAP	49	96	4
NMTAP	49	96	5
NMTAP	49	192	2
NMTAP	49	192	3
NMTAP	49	288	0
NMTAP	49	288	1
EXTAP	50	0	0
EXTAP	50	0	7
EXSTR	50	48	0
BRSI_	50	48	0	96	48	4
EXSTR	50	48	7
BRSI_	50	48	7	96	48	3
NMTTP	51	96	0	B	0	M1
NMTTP	51	96	4	B	0	M1
NMTTP	51	288	1	B	0	M1
NMTTP	51	288	5	B	0	M1
NMTTP	52	96	2	B	0	M1
NMTTP	52	96	6	B	0	M1
NMTTP	52	288	3	B	0	M1
NMTTP	52	288	7	B	0	M1
NMTTP	53	96	3	E	0	M1
NMTTP	53	96	7	E	0	M1
NMTTP	53	288	2	E	0	M1
NMTTP	53	288	6	E	0	M1
NMTTP	54	96	0	B	0	M1
NMTTP	54	192	7	B	0	M1
NMTAP	55	96	0
NMTAP	55	96	4
NMTAP	55	288	1
NMTAP	55	288	5
NMTAP	56	96	2
NMTAP	56	96	6
NMTAP	56	288	3
NMTAP	56	288	7
EXHLD	57	0	0	96
EXHLD	57	0	4	96
EXHLD	57	192	3	96
EXHLD	57	192	7	96
EXSTR	58	0	2
NMSCL	58	0	2	96	96	7
EXSTR	58	0	6
NMSCL	58	0	6	96	96	3
BXTAP	58	288	1
BXTAP	58	288	5
NMTAP	59	0	1
NMTAP	59	0	5
NMTAP	59	96	2
NMTAP	59	144	3
NMTAP	59	192	4
NMTAP	59	288	6
NMTAP	59	288	7
NMSTR	60	0	6
NMSI_	60	0	6	96	48	3
NMHLD	60	0	7	96
NMHLD	60	192	0	96
NMSTR	60	192	1
NMSI_	60	192	1	96	48	4
NMTAP	61	0	6
NMTAP	61	0	7
NMTAP	61	96	2
NMTAP	61	96	3
NMTAP	61	192	0
NMTAP	61	192	1
NMTAP	61	288	4
NMTAP	61	288	5
NMTAP	62	0	6
NMTAP	62	48	6
NMTAP	62	96	4
NMTAP	62	192	0
NMTAP	62	192	7
NMTAP	62	288	0
NMTAP	62	288	7
NMTAP	63	0	3
NMTAP	63	0	6
NMTAP	63	96	5
NMTAP	63	144	4
NMTAP	63	192	3
NMTAP	63	288	0
NMTAP	63	288	1
NMHLD	64	0	0	96
NMSTR	64	0	1
NMSI_	64	0	1	96	48	4
NMSTR	64	192	6
NMSI_	64	192	6	96	48	3
NMHLD	64	192	7	96
NMTAP	65	0	0
NMTAP	65	0	1
NMTAP	65	96	4
NMTAP	65	96	5
NMTAP	65	192	6
NMTAP	65	192	7
NMTAP	65	288	2
NMTAP	65	288	3
NMSTR	66	0	0
NMSCR	66	0	0	96	96	3
NMSTR	66	0	7
NMSCL	66	0	7	96	96	4
BRTAP	66	288	0
BRTAP	66	288	7
NMSTR	67	0	6
NMSCL	67	0	6	96	48	4
NMSTR	67	0	7
NMSUL	67	0	7	96	48	3
NMSTR	67	192	0
NMSUR	67	192	0	96	48	4
NMSTR	67	192	1
NMSCR	67	192	1	96	48	3
NMTAP	68	0	5
NMTAP	68	0	7
NMTAP	68	96	0
NMTAP	68	96	7
NMTAP	68	192	0
NMTAP	68	192	1
NMTAP	68	288	2
NMTAP	68	288	7
NMTAP	69	0	1
NMSTR	69	0	6
NMSI_	69	0	6	96	48	1
NMSTR	69	192	2
NMSI_	69	192	2	96	48	5
NMTAP	70	0	6
NMTAP	70	48	6
NMTAP	70	96	4
NMTAP	70	144	4
NMSTR	70	192	5
NMSI_	70	192	5	96	48	2
NMSTR	71	0	0
NMSUR	71	0	0	96	48	4
NMSTR	71	0	1
NMSCR	71	0	1	96	48	3
NMSTR	71	192	6
NMSCL	71	192	6	96	48	4
NMSTR	71	192	7
NMSUL	71	192	7	96	48	3
NMTAP	72	0	0
NMTAP	72	0	2
NMTAP	72	96	0
NMTAP	72	96	7
NMTAP	72	192	6
NMTAP	72	192	7
NMTAP	72	288	0
NMTAP	72	288	5
EXHLD	73	0	1	96
EXSTR	73	0	4
NMSI_	73	0	4	96	48	0
EXSTR	73	192	3
NMSI_	73	192	3	96	48	7
EXHLD	73	192	6	96
EXHLD	74	0	1	96
EXSTR	74	0	4
BRSCR	74	0	4	96	192	3
BRTAP	74	288	0
NMTAP	75	0	2
NMHLD	75	48	2	96
NMTAP	75	144	0
NMTAP	75	240	4
NMHLD	75	240	5	96
NMTAP	75	336	7
NMHLD	76	48	2	96
NMTAP	76	48	3
NMTAP	76	144	0
NMTAP	76	240	4
NMTAP	76	240	5
NMTAP	76	336	6
NMTAP	76	336	7
NMTAP	77	0	6
NMTAP	77	0	7
NMTAP	77	96	0
NMTAP	77	96	1
NMTAP	77	144	0
NMTAP	77	144	1
NMTAP	77	240	2
NMTAP	77	240	3
NMTAP	77	336	4
NMHLD	77	336	5	96
NMTAP	78	48	7
NMTAP	78	144	2
NMTAP	78	144	3
NMTAP	78	240	0
NMTAP	78	240	7
NMTAP	78	288	0
NMTAP	78	288	7
NMTAP	79	0	2
NMTAP	79	48	2
NMTAP	79	48	3
NMTAP	79	144	0
NMTAP	79	144	6
NMTAP	79	240	4
NMTAP	79	240	5
NMTAP	79	336	1
NMTAP	79	336	7
NMTAP	80	48	2
NMTAP	80	48	3
NMTAP	80	144	0
NMTAP	80	144	6
NMTAP	80	240	4
NMTAP	80	240	5
NMTAP	80	288	3
NMTAP	80	288	6
NMTAP	80	336	3
NMTAP	80	336	6
NMTAP	81	48	0
NMTAP	81	48	1
NMTAP	81	144	4
NMTAP	81	144	5
NMTAP	81	240	6
NMTAP	81	240	7
NMTAP	81	336	2
NMTAP	81	336	3
NMTAP	82	48	0
NMTAP	82	48	1
NMTAP	82	144	2
NMTAP	82	144	5
NMTAP	82	240	0
NMTAP	82	240	7
NMSTR	82	288	0
NMSCR	82	288	0	96	1344	6
NMSTR	82	288	7
NMSCL	82	288	7	96	1344	1
NMTTP	87	0	0	C	0	M1
NMTTP	87	0	2	B	0	M1
NMTTP	87	0	5	B	0	M1

T_REC_TAP	264
T_REC_BRK	3
T_REC_XTP	6
T_REC_BXX	3
T_REC_HLD	47
T_REC_XHO	7
T_REC_BHO	0
T_REC_BXH	0
T_REC_STR	36
T_REC_BST	0
T_REC_XST	9
T_REC_XBS	0
T_REC_TTP	17
T_REC_THO	0
T_REC_SLD	42
T_REC_BSL	3
T_REC_ALL	437
T_NUM_TAP	332
T_NUM_BRK	9
T_NUM_HLD	54
T_NUM_SLD	42
T_NUM_ALL	437
T_JUDGE_TAP	338
T_JUDGE_HLD	150
T_JUDGE_SLD	45
T_JUDGE_ALL	533
TTM_EACHPAIRS	125
TTM_SCR_TAP	166000
TTM_SCR_BRK	23400
TTM_SCR_HLD	54000
TTM_SCR_SLD	63000
TTM_SCR_ALL	306400
TTM_SCR_S	296350
TTM_SCR_SS	305500
TTM_RAT_ACV	10029

