VERSION	0.00.00	1.04.00
FES_MODE	0
BPM_DEF	145.000	145.000	145.000	145.000
MET_DEF	4	4
RESOLUTION	384
CLK_DEF	384
COMPATIBLE_CODE	MA2

BPM	0	0	145.000
MET	0	0	4	4

NMHLD	2	0	3	720
NMHLD	2	0	6	720
NMHLD	4	0	1	528
NMHLD	4	0	4	528
NMTAP	5	168	2
NMTAP	5	168	3
NMTAP	5	216	3
NMTAP	5	216	4
NMTAP	5	264	5
NMTAP	5	288	4
NMTAP	5	312	5
NMHLD	6	0	3	768
NMSTR	6	0	7
NMSCL	6	0	7	96	576	1
NMSTR	8	0	0
NMSI_	8	0	0	96	192	4
NMTAP	9	0	4
NMTAP	9	0	5
NMTAP	9	96	2
NMTAP	9	96	3
NMTAP	9	168	4
NMTAP	9	192	3
NMTAP	9	240	3
NMTAP	9	240	4
NMTAP	9	288	2
NMTAP	9	288	5
BXTAP	10	0	3
BXTAP	10	0	6
NMTAP	10	48	4
NMHLD	10	72	5	72
NMTAP	10	120	3
NMTAP	10	144	3
NMTAP	10	192	2
NMTAP	10	192	4
NMTAP	10	240	1
NMTAP	10	240	3
NMTAP	10	288	1
NMHLD	10	312	3	72
NMTAP	10	360	2
NMTAP	11	0	2
NMTAP	11	48	2
NMTAP	11	48	4
NMTAP	11	96	3
NMTAP	11	96	5
NMTAP	11	144	6
NMHLD	11	168	4	72
NMTAP	11	216	5
NMTAP	11	240	5
NMTAP	11	288	2
NMTAP	11	288	4
NMTAP	11	336	1
NMTAP	11	336	3
NMTAP	12	0	0
NMHLD	12	24	7	72
NMTAP	12	72	1
NMTAP	12	96	1
NMTAP	12	144	2
NMTAP	12	144	6
NMTAP	12	192	3
NMTAP	12	192	5
NMTAP	12	240	2
NMHLD	12	264	4	72
NMTAP	12	312	1
NMTAP	12	336	1
NMTAP	13	0	0
NMTAP	13	0	5
NMTAP	13	48	1
NMTAP	13	48	4
NMSTR	13	96	2
NMSI_	13	96	2	96	48	7
NMTAP	13	120	3
NMTAP	13	168	3
NMSTR	13	192	2
NMSI_	13	192	2	96	48	4
NMTAP	13	288	2
NMTAP	13	288	5
NMTAP	14	0	3
NMTAP	14	0	6
NMTAP	14	48	4
NMHLD	14	72	5	72
NMTAP	14	120	3
NMTAP	14	144	3
NMTAP	14	192	2
NMTAP	14	192	4
NMTAP	14	240	1
NMTAP	14	240	3
NMTAP	14	288	1
NMHLD	14	312	3	72
NMTAP	14	360	2
NMTAP	15	0	2
NMTAP	15	48	2
NMTAP	15	48	4
NMTAP	15	96	3
NMTAP	15	96	5
NMTAP	15	144	6
NMHLD	15	168	4	72
NMTAP	15	216	5
NMTAP	15	240	5
NMTAP	15	288	2
NMTAP	15	288	4
NMTAP	15	336	1
NMTAP	15	336	3
NMTAP	16	0	0
NMHLD	16	24	7	72
NMTAP	16	72	1
NMTAP	16	96	1
NMTAP	16	144	2
NMTAP	16	144	6
NMTAP	16	192	3
NMTAP	16	192	5
NMTAP	16	240	2
NMHLD	16	264	4	72
NMTAP	16	312	1
NMTAP	16	336	1
NMTAP	17	0	0
NMTAP	17	0	5
NMTAP	17	48	1
NMTAP	17	96	2
NMTAP	17	96	4
NMTAP	17	144	5
NMSTR	17	192	0
BRSI_	17	192	0	96	48	4
NMSTR	17	192	7
BRSI_	17	192	7	96	48	3
NMTAP	17	240	1
NMTAP	17	240	6
NMTAP	17	288	0
NMTAP	17	288	7
BXSTR	18	0	2
NMSI_	18	0	2	96	48	4
BXTAP	18	0	5
NMTAP	18	96	4
NMTAP	18	144	5
NMTAP	18	192	3
NMSTR	18	192	6
NMSI_	18	192	6	96	48	4
NMTAP	18	288	2
NMTAP	18	336	1
NMHLD	19	0	0	96
NMTAP	19	0	3
NMSTR	19	96	4
NMSI_	19	96	4	96	48	0
NMSI_	19	96	4	96	48	6
NMTAP	19	144	5
NMTAP	19	288	7
NMTAP	19	336	7
BXSTR	20	0	0
NMSCR	20	0	0	96	48	3
BXTAP	20	0	6
NMTAP	20	96	5
NMTAP	20	144	6
NMSTR	20	192	7
NMSI_	20	192	7	96	48	4
NMTAP	20	288	4
NMTAP	20	336	3
NMHLD	21	0	2	96
NMSTR	21	96	4
BRSUL	21	96	4	96	48	0
BRSUR	21	96	4	96	48	0
NMTAP	21	144	5
NMTTP	21	192	0	C	1	M1
EXTAP	21	288	1
EXTAP	21	288	7
BXSTR	22	0	0
NMSCR	22	0	0	96	48	3
BXTAP	22	0	6
NMTAP	22	96	3
NMTAP	22	144	5
NMSTR	22	192	7
NMSCL	22	192	7	96	48	4
NMTAP	22	288	4
NMTAP	22	336	2
NMHLD	23	0	0	96
NMSTR	23	96	3
NMSF_	23	96	3	96	48	7
NMTAP	23	144	4
EXSTR	23	288	0
NMSCR	23	288	0	96	96	4
EXTAP	23	288	6
NMTTP	24	0	5	B	0	M1
NMTTP	24	0	6	B	0	M1
NMTTP	24	0	6	E	0	M1
NMSTR	24	96	7
NMSUR	24	96	7	96	96	4
NMTAP	24	144	7
NMTTP	24	192	2	B	0	M1
NMTTP	24	192	3	B	0	M1
NMTTP	24	192	4	E	0	M1
NMTAP	24	288	1
NMTAP	24	336	1
NMHLD	25	0	0	72
NMHLD	25	0	4	72
NMTAP	25	96	0
NMTAP	25	96	4
NMTAP	25	144	1
NMTAP	25	168	3
NMTAP	25	192	2
NMTAP	25	216	4
NMTAP	25	240	3
BXTAP	25	288	1
BXTAP	25	288	7
NMTTP	26	0	0	B	0	M1
NMTTP	26	0	0	E	0	M1
NMTTP	26	0	0	A	0	M1
NMTTP	26	0	0	D	0	M1
NMTTP	26	0	1	B	0	M1
NMTTP	26	0	1	E	0	M1
NMTTP	26	0	1	A	0	M1
NMTTP	26	0	1	D	0	M1
NMTAP	26	96	2
NMHLD	26	96	4	72
NMHLD	26	168	3	72
NMTAP	26	240	5
NMTAP	26	288	2
NMTAP	26	288	6
NMTTP	27	0	6	B	0	M1
NMTTP	27	0	7	B	0	M1
NMTTP	27	0	7	E	0	M1
NMTTP	27	0	7	D	0	M1
NMHLD	27	96	3	72
NMTAP	27	96	5
NMHLD	27	168	4	72
NMTAP	27	240	2
NMTAP	27	288	1
NMTAP	27	288	5
NMTTP	28	0	0	B	0	M1
NMTTP	28	0	0	E	0	M1
NMTTP	28	0	0	A	0	M1
NMTTP	28	0	0	D	0	M1
NMTTP	28	0	1	B	0	M1
NMTTP	28	0	1	E	0	M1
NMTTP	28	0	1	A	0	M1
NMTTP	28	0	1	D	0	M1
NMTTP	28	0	2	E	0	M1
NMTTP	28	0	2	D	0	M1
NMHLD	28	96	3	72
NMTAP	28	96	4
NMHLD	28	168	5	72
NMTAP	28	240	4
NMSTR	28	288	3
NMSLL	28	288	3	96	96	7
NMTAP	28	288	6
NMSTR	29	0	7
NMSV_	29	0	7	96	48	2
NMSV_	29	0	7	96	48	4
CNSCL	29	144	2	0	96	7
CNSCR	29	144	4	0	96	7
EXTAP	29	288	7
EXTAP	29	312	7
EXTAP	29	336	0
EXTAP	29	360	0
BRTAP	30	0	1
BRTAP	30	0	5
NMTAP	30	48	0
NMSTR	30	72	6
NMSI_	30	72	6	96	48	2
NMTAP	30	96	1
NMTAP	30	120	5
NMTAP	30	144	2
NMTAP	30	168	6
NMTAP	30	216	0
CNSI_	30	216	2	0	48	4
NMTAP	30	240	0
EXTAP	30	288	1
EXTAP	30	312	7
NMTAP	30	360	5
NMTAP	31	0	4
NMTAP	31	48	7
NMSTR	31	72	1
NMSI_	31	72	1	96	48	5
NMTAP	31	96	6
NMTAP	31	120	2
NMTAP	31	144	5
NMTAP	31	168	1
CNSI_	31	216	5	0	48	3
NMTAP	31	216	7
NMHLD	31	240	7	72
EXTAP	31	312	3
NMTAP	31	360	3
NMTAP	32	0	6
NMTAP	32	24	2
NMTAP	32	48	5
NMTAP	32	72	3
NMSTR	32	96	6
BRSI_	32	96	6	96	48	2
NMTAP	32	120	2
NMTAP	32	144	7
NMTAP	32	168	1
BRTAP	32	192	6
NMTAP	32	240	0
CNSI_	32	240	2	0	48	4
NMTAP	32	264	0
NMTAP	32	312	1
NMTAP	32	360	1
NMSTR	33	0	7
NMSI_	33	0	7	96	48	3
NMTAP	33	24	3
NMTAP	33	48	6
NMTAP	33	72	4
NMSTR	33	96	7
BRSCL	33	96	7	96	48	4
BRSCR	33	96	7	96	48	2
BRTAP	33	192	7
EXTAP	33	288	1
EXTAP	33	312	3
NMTAP	33	360	3
BRTAP	34	0	0
NMTAP	34	48	7
NMSTR	34	72	1
NMSI_	34	72	1	96	48	5
NMTAP	34	96	5
NMTAP	34	120	2
NMTAP	34	144	4
NMTAP	34	168	1
NMTAP	34	216	0
CNSI_	34	216	5	0	48	2
NMTAP	34	240	0
EXTAP	34	288	7
EXTAP	34	312	1
NMTAP	34	336	7
NMTAP	34	360	1
NMHLD	35	0	7	48
NMTAP	35	48	0
NMSTR	35	72	6
NMSI_	35	72	6	96	48	3
NMTAP	35	96	2
NMTAP	35	120	4
NMTAP	35	144	3
NMTAP	35	168	6
NMTAP	35	216	1
CNSI_	35	216	3	0	48	7
NMHLD	35	240	1	96
NMTAP	35	336	0
NMTAP	35	360	0
NMTAP	36	0	1
NMTAP	36	48	2
NMTAP	36	48	3
NMTAP	36	96	1
NMTAP	36	96	4
NMTAP	36	144	5
NMTAP	36	168	4
NMTAP	36	192	5
NMHLD	36	216	4	48
EXTAP	36	264	7
EXSTR	36	288	7
BRSI_	36	288	7	96	48	3
NMTAP	36	336	0
NMTAP	36	336	6
BRSTR	37	0	7
NMSCL	37	0	7	96	48	4
NMSCR	37	0	7	96	48	2
BRSTR	37	96	7
NMSF_	37	96	7	96	48	3
BRTAP	37	192	7
BRTAP	37	288	0
BRTAP	37	288	6
BRTAP	37	336	0
BRTAP	37	336	6
NMHLD	38	0	1	48
NMTAP	38	0	5
NMHLD	38	96	1	48
NMTAP	38	96	5
NMTAP	38	192	2
NMHLD	38	192	6	48
NMTAP	38	288	2
NMHLD	38	288	6	48
NMHLD	39	0	3	48
NMTAP	39	0	5
NMHLD	39	96	3	48
NMTAP	39	96	5
NMTAP	39	192	2
NMHLD	39	192	4	48
NMTAP	39	288	2
NMHLD	39	288	4	48
NMHLD	40	0	3	48
NMTAP	40	0	5
NMHLD	40	96	3	48
NMTAP	40	96	5
NMHLD	40	192	2	48
NMTAP	40	192	4
NMTAP	40	288	2
NMTAP	40	288	4
NMTAP	40	336	2
NMTAP	40	360	3
NMTAP	41	0	1
NMTAP	41	24	4
NMTAP	41	48	1
NMTAP	41	72	4
NMTAP	41	96	1
NMTAP	41	120	5
NMTAP	41	144	3
NMTAP	41	168	5
NMTAP	41	192	3
NMTAP	41	216	5
NMTAP	41	240	3
NMTAP	41	264	5
EXSTR	41	288	4
NMSI_	41	288	4	96	48	1
EXTAP	41	312	6
EXTAP	41	336	4
EXTAP	41	360	6
BXTAP	42	0	4
EXHLD	42	96	1	72
EXTAP	42	96	7
NMTAP	42	168	3
NMTAP	42	216	2
NMTAP	42	216	4
NMTAP	42	264	5
NMTAP	42	288	4
NMTAP	42	336	6
NMTAP	42	360	7
NMTAP	43	24	0
NMTAP	43	24	5
NMTAP	43	72	2
NMTAP	43	96	3
NMTAP	43	144	1
NMHLD	43	168	0	48
NMTAP	43	216	2
NMTAP	43	240	7
NMTAP	43	264	2
NMTAP	43	288	7
NMTAP	43	336	3
NMTAP	43	336	6
EXTAP	44	0	4
EXTAP	44	0	5
NMTAP	44	48	4
NMTAP	44	48	5
NMTAP	44	96	6
NMTAP	44	120	7
NMTAP	44	144	6
NMHLD	44	168	7	48
NMTAP	44	216	5
NMTAP	44	240	0
NMTAP	44	264	5
NMSTR	44	288	0
NMSCL	44	288	0	96	48	5
NMTAP	44	336	1
NMTAP	44	336	3
BXSTR	45	0	0
NMSCR	45	0	0	96	48	3
BXSTR	45	96	0
NMSUL	45	96	0	96	48	4
NMSUR	45	96	0	96	48	4
BXTAP	45	192	0
BXTAP	45	288	2
BXTAP	45	288	7
BXTAP	46	0	1
BXTAP	46	0	5
NMTAP	46	48	1
NMTAP	46	48	5
NMTAP	46	96	4
NMTAP	46	120	2
NMTAP	46	144	5
NMHLD	46	168	3	48
NMTAP	46	216	6
NMTAP	46	264	1
NMTAP	46	288	0
NMTAP	46	336	2
NMTAP	46	360	3
NMTAP	47	24	1
NMTAP	47	24	4
NMTAP	47	72	6
NMTAP	47	96	7
NMTAP	47	144	5
NMHLD	47	168	4	48
NMTAP	47	216	6
NMTAP	47	240	3
NMTAP	47	264	5
NMTAP	47	288	2
NMTAP	47	336	1
NMTAP	47	336	4
NMTAP	48	0	0
NMTAP	48	0	5
NMTAP	48	48	6
NMTAP	48	48	7
NMTAP	48	96	5
NMTAP	48	120	4
NMTAP	48	144	5
NMHLD	48	168	2	48
NMTAP	48	216	3
NMTAP	48	240	2
NMTAP	48	264	4
NMSTR	48	288	0
NMSI_	48	288	0	96	48	3
NMSCR	48	288	0	96	48	3
NMTAP	48	336	6
NMTAP	48	336	7
BRSTR	49	0	0
BRSSL	49	0	0	96	48	4
BRSTR	49	96	0
NMSCL	49	96	0	96	48	5
BRTAP	49	192	0
BRSTR	49	288	0
NMSLL	49	288	0	96	144	4
NMSLR	49	288	0	96	144	4
BRTAP	49	288	4
CNSLL	50	144	4	0	144	0
CNSLR	50	144	4	0	144	0
NMHLD	51	0	1	384
NMTTP	51	288	3	E	0	M1
NMHLD	52	0	2	480
NMHLD	53	0	3	384
NMTTP	53	288	5	E	0	M1
NMHLD	54	0	4	480
NMHLD	55	0	5	384
NMTTP	55	288	5	B	0	M1
NMTTP	55	288	6	B	0	M1
NMHLD	56	0	7	480
NMHLD	57	0	1	672
NMTTP	57	288	0	B	0	M1
NMTTP	57	288	1	B	0	M1
NMTTP	57	288	1	E	0	M1
NMTHO	58	0	0	384	C	1	M1
NMTTP	59	0	0	B	0	M1
NMTTP	59	0	0	E	0	M1
NMTTP	59	0	7	B	0	M1
NMTTP	59	96	2	B	0	M1
NMTTP	59	96	2	E	0	M1
NMTTP	59	96	3	B	0	M1
NMTTP	59	96	3	E	0	M1
NMTTP	59	96	4	E	0	M1
NMTTP	59	192	4	B	0	M1
NMTTP	59	192	4	E	0	M1
NMTTP	59	192	5	B	0	M1
NMTTP	59	192	5	E	0	M1
NMTTP	59	192	6	E	0	M1
NMTAP	59	288	7
NMTAP	59	312	7
NMTAP	59	336	0
NMTAP	59	360	0
BRTAP	60	0	1
BRTAP	60	0	5
NMTAP	60	48	4
NMSTR	60	72	2
NMSI_	60	72	2	96	48	6
NMTAP	60	96	6
NMTAP	60	120	3
NMTAP	60	144	5
NMTAP	60	168	2
NMTAP	60	216	3
CNSI_	60	216	6	0	48	0
NMTAP	60	240	3
NMTAP	60	288	4
NMTAP	60	312	2
NMTAP	60	336	4
NMTAP	60	360	2
EXTAP	61	0	4
NMTAP	61	48	3
NMSTR	61	72	5
NMSI_	61	72	5	96	48	0
NMTAP	61	96	4
NMTAP	61	120	6
NMTAP	61	144	2
NMTAP	61	168	5
CNSI_	61	216	0	0	48	4
NMTAP	61	216	3
NMHLD	61	240	3	72
EXTAP	61	312	5
NMTAP	61	336	3
NMTAP	61	360	4
NMTAP	62	0	2
NMTAP	62	24	6
NMTAP	62	48	1
NMTAP	62	72	7
NMSTR	62	96	0
BRSI_	62	96	0	96	48	5
NMTAP	62	120	6
NMTAP	62	144	7
NMTAP	62	168	5
BRTAP	62	192	0
CNSI_	62	240	5	0	48	2
NMTAP	62	288	7
NMTAP	62	312	7
NMTAP	62	360	5
NMSTR	63	0	1
NMSI_	63	0	1	96	48	5
NMTAP	63	24	4
NMTAP	63	48	2
NMTAP	63	72	3
NMSTR	63	96	1
BRSCL	63	96	1	96	48	6
BRSCR	63	96	1	96	48	4
BRTAP	63	192	1
EXTAP	63	288	6
NMTAP	63	312	4
NMTAP	63	360	4
BRTAP	64	0	7
NMTAP	64	48	3
NMSTR	64	72	6
NMSI_	64	72	6	96	48	2
NMTAP	64	96	1
NMTAP	64	120	7
NMTAP	64	144	0
NMTAP	64	168	6
CNSI_	64	216	2	0	48	5
NMTAP	64	216	7
NMTAP	64	240	7
NMTAP	64	288	0
NMTAP	64	312	6
NMTAP	64	336	0
NMTAP	64	360	6
BRTAP	65	0	3
NMTAP	65	48	4
NMSTR	65	72	2
NMSCL	65	72	2	96	48	7
NMTAP	65	96	6
NMTAP	65	120	0
NMTAP	65	144	7
NMTAP	65	168	2
NMTAP	65	216	4
CNSI_	65	216	7	0	48	3
NMTAP	65	240	4
EXTAP	65	312	5
EXTAP	65	336	3
EXHLD	66	0	2	48
BRTAP	66	0	4
NMTAP	66	48	6
NMTAP	66	96	3
EXHLD	66	96	5	48
NMTAP	66	144	1
EXHLD	66	192	2	48
BRTAP	66	192	3
NMTAP	66	240	7
NMTAP	66	288	4
EXHLD	66	288	5	48
NMTAP	66	336	0
BRTAP	67	0	1
BRTAP	67	0	3
NMTAP	67	48	4
NMTAP	67	48	5
NMSTR	67	96	6
BRSLL	67	96	6	96	48	2
NMSTR	67	96	7
BRSLL	67	96	7	96	48	3
NMTAP	67	144	0
NMTAP	67	144	1
BRTAP	67	192	6
BRTAP	67	192	7
NMTAP	67	288	0
NMSTR	67	288	1
BRSUR	67	288	1	96	48	5
NMTAP	67	336	2
BRTAP	68	0	1
NMTAP	68	0	4
NMTAP	68	48	6
BRTAP	68	96	0
NMSTR	68	96	1
BRSUR	68	96	1	96	48	5
NMTAP	68	144	2
BRTAP	68	192	1
NMTAP	68	192	4
NMTAP	68	240	6
BRSTR	68	288	0
NMSI_	68	288	0	96	48	4
NMTAP	68	288	1
NMTAP	68	336	2
NMTAP	68	336	7
BRSTR	69	0	0
BRSI_	69	0	0	96	48	2
BRSI_	69	0	0	96	48	6
NMTAP	69	0	1
BRSTR	69	96	0
BRSI_	69	96	0	96	48	4
BRSSL	69	96	0	96	48	4
BRSTR	69	192	0
NMSCL	69	192	0	96	48	5
NMSCR	69	192	0	96	48	3
BRSTR	69	288	0
BRSF_	69	288	0	96	288	4
NMSTR	71	0	3
NMSI_	71	0	3	96	48	1
NMSTR	71	96	4
NMSCR	71	96	4	96	96	3
BRTAP	71	192	4
NMTTP	71	192	4	E	1	M1
BRTAP	72	0	1
NMHLD	72	0	7	48
NMTAP	72	48	4
NMHLD	72	96	0	48
NMTAP	72	96	6
NMTAP	72	144	3
NMTAP	72	192	1
NMTAP	72	192	7
NMTAP	72	216	7
NMTAP	72	240	4
BRTAP	72	288	1
BRTAP	72	288	7
NMTAP	72	336	4
NMTAP	72	336	5
NMHLD	73	0	0	48
NMTAP	73	0	6
NMTAP	73	48	3
NMTAP	73	96	1
NMHLD	73	96	7	48
NMTAP	73	144	4
NMTAP	73	192	0
NMTAP	73	192	6
NMTAP	73	216	0
NMTAP	73	240	3
BRTAP	73	288	0
BRTAP	73	288	6
NMTAP	73	336	2
NMTAP	73	336	3
NMTAP	74	0	1
NMHLD	74	0	7	48
NMTAP	74	48	4
NMHLD	74	96	0	48
NMTAP	74	96	6
NMTAP	74	144	3
NMTAP	74	192	1
NMTAP	74	192	7
NMTAP	74	216	7
NMTAP	74	240	4
BRTAP	74	288	1
BRTAP	74	288	7
NMTAP	74	336	4
NMTAP	74	336	5
NMHLD	75	0	0	48
NMTAP	75	0	6
NMTAP	75	48	3
NMTAP	75	96	1
NMHLD	75	96	7	48
NMTAP	75	144	4
NMTAP	75	192	0
NMTAP	75	192	6
NMTAP	75	216	0
NMTAP	75	240	3
BRTAP	75	288	0
BRTAP	75	288	6
NMTAP	75	336	4
NMTAP	76	0	3
NMTAP	76	0	5
NMTAP	76	48	1
NMTAP	76	48	7
NMTAP	76	96	4
NMTAP	76	96	6
NMTAP	76	144	1
NMTAP	76	144	7
NMSTR	76	192	2
NMSI_	76	192	2	96	48	5
NMTAP	76	216	3
NMTAP	76	240	1
BRTAP	76	288	2
NMTAP	76	336	7
EXTAP	77	0	7
NMTAP	77	48	4
NMTAP	77	48	6
NMTAP	77	96	2
NMTAP	77	96	3
NMTAP	77	144	4
NMTAP	77	144	6
NMTAP	77	192	1
NMTAP	77	216	0
NMTAP	77	240	2
BRSTR	77	288	0
NMSI_	77	288	0	96	48	2
BRSTR	77	288	7
NMSI_	77	288	7	96	48	3
NMTAP	77	336	6
NMSTR	78	0	0
NMSI_	78	0	0	96	48	4
NMSTR	78	0	7
NMSI_	78	0	7	96	48	5
NMSTR	78	96	0
NMSI_	78	96	0	96	48	2
NMSTR	78	96	7
NMSI_	78	96	7	96	48	3
NMSTR	78	192	0
NMSI_	78	192	0	96	48	4
NMSTR	78	192	7
NMSI_	78	192	7	96	48	5
BRTAP	78	288	0
BRTAP	78	288	7
EXTAP	79	0	1
EXHLD	79	0	3	48
NMTAP	79	48	2
NMTAP	79	96	1
EXHLD	79	96	3	48
NMTAP	79	144	2
EXSTR	79	192	1
BRSI_	79	192	1	96	48	4
EXSTR	79	192	3
BRSI_	79	192	3	96	48	6
NMTAP	79	240	2
CNSI_	79	336	4	0	48	1
CNSI_	79	336	6	0	48	3

T_REC_TAP	425
T_REC_BRK	40
T_REC_XTP	28
T_REC_BXX	13
T_REC_HLD	62
T_REC_XHO	7
T_REC_BHO	0
T_REC_BXH	0
T_REC_STR	44
T_REC_BST	12
T_REC_XST	5
T_REC_XBS	5
T_REC_TTP	50
T_REC_THO	1
T_REC_SLD	55
T_REC_BSL	23
T_REC_ALL	770
T_NUM_TAP	552
T_NUM_BRK	93
T_NUM_HLD	70
T_NUM_SLD	55
T_NUM_ALL	770
T_JUDGE_TAP	622
T_JUDGE_HLD	226
T_JUDGE_SLD	78
T_JUDGE_ALL	926
TTM_EACHPAIRS	136
TTM_SCR_TAP	276000
TTM_SCR_BRK	241800
TTM_SCR_HLD	70000
TTM_SCR_SLD	82500
TTM_SCR_ALL	670300
TTM_SCR_S	641200
TTM_SCR_SS	661000
TTM_RAT_ACV	10140

