VERSION	0.00.00	1.04.00
FES_MODE	0
BPM_DEF	145.000	145.000	145.000	145.000
MET_DEF	4	4
RESOLUTION	384
CLK_DEF	384
COMPATIBLE_CODE	MA2

BPM	0	0	145.000
MET	0	0	4	4

EXHLD	2	0	2	672
EXHLD	2	0	4	672
EXHLD	4	0	3	552
EXHLD	4	0	5	552
EXTAP	5	288	2
EXTAP	5	288	4
EXSTR	6	0	1
NMSXR	6	0	1	96	480	2
EXHLD	6	0	3	576
NMHLD	8	0	4	288
NMHLD	8	0	6	288
NMTAP	9	0	3
NMTAP	9	0	5
NMHLD	9	96	2	96
NMHLD	9	96	4	96
BRTAP	9	288	1
BRTAP	9	288	5
NMTAP	10	0	2
NMTAP	10	48	2
NMTAP	10	96	1
NMTAP	10	96	3
NMTAP	10	192	0
NMTAP	10	240	0
NMTAP	10	288	1
NMTAP	10	288	7
NMTAP	11	0	6
NMTAP	11	48	6
NMTAP	11	96	4
NMTAP	11	96	5
NMTAP	11	192	2
NMTAP	11	240	2
NMTAP	11	288	2
NMTAP	11	288	3
NMTAP	12	0	5
NMTAP	12	48	5
NMTAP	12	96	4
NMTAP	12	96	6
NMTAP	12	192	7
NMTAP	12	240	7
NMTAP	12	288	0
NMTAP	12	288	6
NMTAP	13	0	1
NMTAP	13	48	1
NMTAP	13	96	2
NMTAP	13	96	3
EXTAP	13	192	0
EXTAP	13	192	7
EXTAP	13	288	0
EXTAP	13	288	7
NMTAP	14	0	5
NMTAP	14	48	5
NMTAP	14	96	4
NMTAP	14	96	6
NMTAP	14	192	7
NMTAP	14	240	7
NMTAP	14	288	0
NMTAP	14	288	6
NMTAP	15	0	1
NMTAP	15	48	1
NMTAP	15	96	2
NMTAP	15	96	3
NMTAP	15	192	5
NMTAP	15	240	5
NMTAP	15	288	4
NMTAP	15	288	5
NMTAP	16	0	6
NMTAP	16	0	7
NMTAP	16	96	0
NMTAP	16	96	1
NMTAP	16	192	2
NMTAP	16	192	3
NMSTR	16	288	4
NMSUL	16	288	4	96	192	3
NMTAP	16	288	5
BRTAP	17	288	1
BRTAP	17	288	6
NMHLD	18	0	2	96
NMTAP	18	96	4
NMTAP	18	144	4
NMHLD	18	192	1	96
NMTAP	18	288	3
NMTAP	18	336	3
NMHLD	19	0	0	96
NMTAP	19	96	2
NMTAP	19	144	2
NMHLD	19	192	1	96
NMHLD	19	192	3	96
NMSTR	20	0	0
NMSUR	20	0	0	96	96	4
NMSTR	20	192	7
NMSUL	20	192	7	96	96	3
NMTAP	21	0	1
NMTAP	21	48	1
NMSTR	21	96	0
BRSSL	21	96	0	96	108	4
NMTAP	21	96	4
EXHLD	22	0	5	96
NMTAP	22	96	3
NMTAP	22	144	3
NMHLD	22	192	6	96
NMTAP	22	288	4
NMTAP	22	336	4
NMHLD	23	0	7	96
NMTAP	23	96	5
NMTAP	23	144	5
NMHLD	23	192	4	96
NMHLD	23	192	6	96
NMSTR	24	0	7
NMSCL	24	0	7	96	96	4
NMTAP	24	192	0
NMTAP	24	288	2
NMTAP	24	288	4
NMSTR	25	0	4
NMSXR	25	0	4	96	144	2
NMSTR	25	0	6
NMSUL	25	0	6	96	144	2
NMTAP	26	0	2
NMTAP	26	0	3
NMTAP	26	96	1
NMHLD	26	144	1	96
NMTAP	26	240	3
NMHLD	26	288	3	96
NMHLD	27	0	4	96
NMTAP	27	96	6
NMHLD	27	144	6	96
NMTAP	27	240	4
NMTAP	27	288	4
NMTAP	28	0	3
NMTAP	28	0	4
NMTAP	28	96	6
NMHLD	28	144	6	96
NMTAP	28	240	4
NMSTR	28	288	4
NMSCR	28	288	4	96	144	0
EXTAP	29	288	2
EXTAP	29	288	3
EXTAP	29	336	2
EXTAP	29	336	3
NMTAP	30	0	1
NMTAP	30	48	1
NMSTR	30	96	0
NMSI_	30	96	0	96	48	4
NMSTR	30	96	1
NMSI_	30	96	1	96	48	4
EXTAP	30	288	4
EXTAP	30	288	5
EXTAP	30	336	4
EXTAP	30	336	5
NMTAP	31	0	6
NMTAP	31	48	6
NMSTR	31	96	6
NMSI_	31	96	6	96	48	3
NMSTR	31	96	7
NMSI_	31	96	7	96	48	3
NMTAP	31	288	1
NMTAP	31	336	1
NMTAP	32	0	3
NMTAP	32	48	3
NMSTR	32	96	2
NMSCR	32	96	2	96	48	5
NMTAP	32	288	7
NMTAP	32	336	7
NMTAP	33	0	1
NMTAP	33	48	1
NMTAP	33	96	3
NMTAP	33	144	3
NMTAP	33	192	2
NMTAP	33	192	4
EXTAP	33	288	4
EXTAP	33	288	5
EXTAP	33	336	4
EXTAP	33	336	5
NMTAP	34	0	6
NMTAP	34	48	6
NMSTR	34	96	6
NMSI_	34	96	6	96	48	3
NMSTR	34	96	7
NMSI_	34	96	7	96	48	3
EXTAP	34	288	2
EXTAP	34	288	3
EXTAP	34	336	2
EXTAP	34	336	3
NMTAP	35	0	1
NMTAP	35	48	1
NMSTR	35	96	0
NMSI_	35	96	0	96	48	4
NMSTR	35	96	1
NMSI_	35	96	1	96	48	4
NMTAP	35	288	6
NMTAP	35	336	6
NMHLD	36	0	3	48
NMHLD	36	0	5	48
NMHLD	36	96	2	48
NMHLD	36	96	4	48
NMHLD	36	192	3	48
NMHLD	36	192	6	48
NMHLD	36	288	1	48
NMHLD	36	288	4	48
NMTAP	37	0	0
NMTAP	37	48	0
NMTAP	37	96	6
NMTAP	37	144	6
NMTAP	37	192	4
NMTAP	37	240	4
BRTAP	37	288	3
BRTAP	37	288	5
NMHLD	38	0	6	96
NMTAP	38	96	4
NMTAP	38	192	3
NMTAP	38	240	3
NMTAP	38	288	2
NMTAP	38	288	4
NMHLD	39	0	1	96
NMTAP	39	96	3
NMTAP	39	192	4
NMTAP	39	240	4
NMTAP	39	288	3
NMTAP	39	288	5
NMHLD	40	0	6	96
NMTAP	40	96	4
NMTAP	40	192	3
NMTAP	40	240	3
NMTAP	40	288	2
NMSTR	40	288	4
NMSI_	40	288	4	96	96	1
CNSI_	41	96	1	0	96	6
CNSI_	41	192	6	0	96	3
EXTAP	41	288	1
NMHLD	42	0	0	1056
NMTAP	42	96	7
NMTAP	42	192	2
NMTAP	42	240	2
NMTAP	42	288	2
NMTAP	43	0	3
NMTAP	43	96	1
NMTAP	43	192	4
NMTAP	43	240	4
NMTAP	43	288	4
NMTAP	44	0	3
NMTAP	44	96	7
NMTAP	44	192	2
NMTAP	44	240	2
NMTAP	44	288	2
NMHLD	45	0	1	48
NMHLD	45	0	3	48
NMHLD	45	96	2	48
NMHLD	45	96	4	48
NMHLD	45	192	3	48
NMHLD	45	192	5	48
BRTAP	45	288	2
BRTAP	45	288	6
NMHLD	46	0	7	1056
NMTAP	46	96	0
NMTAP	46	192	5
NMTAP	46	240	5
NMTAP	46	288	5
NMTAP	47	0	4
NMTAP	47	96	6
NMTAP	47	192	3
NMTAP	47	240	3
NMTAP	47	288	3
NMTAP	48	0	4
NMTAP	48	96	0
NMTAP	48	192	5
NMTAP	48	240	5
NMTAP	48	288	5
NMHLD	49	0	4	48
NMHLD	49	0	6	48
NMHLD	49	96	3	48
NMHLD	49	96	5	48
NMHLD	49	192	2	48
NMHLD	49	192	4	48
NMHLD	49	288	1	1632
NMHLD	49	288	3	48
NMTTP	51	0	2	E	0	M1
NMTTP	51	0	2	A	0	M1
NMTTP	52	0	3	E	0	M1
NMTTP	52	0	3	A	0	M1
NMTTP	53	0	4	A	0	M1
NMTTP	53	0	5	E	0	M1
NMTTP	54	0	5	A	0	M1
NMTTP	54	0	6	E	0	M1
NMTTP	55	0	6	B	0	M1
NMTTP	55	0	6	A	0	M1
NMTTP	55	0	7	E	0	M1
NMTTP	56	0	1	B	0	M1
NMTTP	56	0	1	E	0	M1
NMTTP	56	0	1	A	0	M1
NMTHO	57	0	0	384	C	1	M1
NMTTP	57	0	3	B	0	M1
NMTTP	57	0	4	B	0	M1
NMTTP	57	0	4	E	0	M1
NMTTP	58	0	1	B	0	M1
NMTTP	58	0	2	B	0	M1
NMTTP	58	0	2	E	0	M1
NMTTP	58	0	5	B	0	M1
NMTTP	58	0	6	B	0	M1
NMTTP	58	0	6	E	0	M1
NMTAP	59	0	0
NMTAP	59	0	7
NMTAP	59	96	4
NMTAP	59	96	6
NMTAP	59	192	1
NMTAP	59	192	3
EXTAP	59	288	4
EXTAP	59	288	5
EXTAP	59	336	4
EXTAP	59	336	5
NMTAP	60	0	6
NMTAP	60	48	6
NMSTR	60	96	6
NMSI_	60	96	6	96	48	4
NMSTR	60	96	7
NMSI_	60	96	7	96	48	3
EXTAP	60	288	2
EXTAP	60	288	3
EXTAP	60	336	2
EXTAP	60	336	3
NMTAP	61	0	1
NMTAP	61	48	1
NMSTR	61	96	0
NMSI_	61	96	0	96	48	4
NMSTR	61	96	1
NMSI_	61	96	1	96	48	3
NMTAP	61	288	5
NMTAP	61	336	5
NMTAP	62	0	4
NMTAP	62	48	4
NMSTR	62	96	6
NMSLL	62	96	6	96	96	2
NMTAP	62	288	0
NMTAP	62	336	0
NMTAP	63	0	6
NMTAP	63	48	6
NMTAP	63	96	4
NMTAP	63	144	4
NMTAP	63	192	3
NMTAP	63	192	5
EXTAP	63	288	2
EXTAP	63	288	3
EXTAP	63	336	2
EXTAP	63	336	3
NMTAP	64	0	1
NMTAP	64	48	1
NMSTR	64	96	0
NMSI_	64	96	0	96	48	4
NMSTR	64	96	1
NMSI_	64	96	1	96	48	5
EXTAP	64	288	4
EXTAP	64	288	5
EXTAP	64	336	4
EXTAP	64	336	5
NMTAP	65	0	6
NMTAP	65	48	6
NMSTR	65	96	6
NMSI_	65	96	6	96	48	2
NMSTR	65	96	7
NMSI_	65	96	7	96	48	3
NMTAP	65	288	1
NMTAP	65	336	1
NMHLD	66	0	2	48
NMHLD	66	0	4	48
NMHLD	66	96	3	48
NMHLD	66	96	5	48
NMHLD	66	192	2	48
NMHLD	66	192	4	48
NMHLD	66	288	3	48
NMHLD	66	288	5	48
NMHLD	67	0	2	48
NMHLD	67	0	6	48
NMSTR	67	96	0
NMSI_	67	96	0	96	48	4
NMSTR	67	96	7
NMSI_	67	96	7	96	48	3
EXTAP	67	288	2
EXTAP	67	288	5
NMTAP	68	0	6
NMTAP	68	0	7
NMTAP	68	48	6
NMTAP	68	48	7
NMTAP	68	96	0
NMTAP	68	96	5
NMTAP	68	192	0
NMTAP	68	192	1
NMTAP	68	240	0
NMTAP	68	240	1
NMTAP	68	288	2
NMTAP	68	288	7
NMTAP	69	0	3
NMTAP	69	0	5
NMTAP	69	48	3
NMTAP	69	48	5
NMTAP	69	96	2
NMTAP	69	96	6
NMTAP	69	144	2
NMTAP	69	144	6
NMTAP	69	192	1
NMTAP	69	192	7
NMTAP	69	240	1
NMTAP	69	240	7
BRTAP	69	288	0
BRSTR	69	336	0
BRSXL	69	336	0	96	240	4
BRSXR	69	336	0	96	240	4
BRSTR	71	0	6
NMSCL	71	0	6	96	96	2
BRHLD	71	192	0	96
BRTAP	71	288	7
NMHLD	72	0	1	48
NMHLD	72	0	7	48
NMHLD	72	96	0	48
NMHLD	72	96	6	48
NMHLD	72	192	1	48
NMHLD	72	192	7	48
NMHLD	72	288	1	48
NMHLD	72	288	7	48
NMHLD	73	0	0	48
NMHLD	73	0	6	48
NMHLD	73	96	1	48
NMHLD	73	96	7	48
NMHLD	73	192	0	48
NMHLD	73	192	6	48
NMHLD	73	288	0	48
NMHLD	73	288	6	48
NMHLD	74	0	2	48
NMHLD	74	0	7	48
NMHLD	74	96	0	48
NMHLD	74	96	5	48
NMHLD	74	192	2	48
NMHLD	74	192	7	48
NMHLD	74	288	2	48
NMHLD	74	288	7	48
NMHLD	75	0	0	48
NMHLD	75	0	5	48
NMHLD	75	96	2	48
NMHLD	75	96	7	48
NMHLD	75	192	0	48
NMHLD	75	192	5	48
NMHLD	75	288	0	48
NMHLD	75	288	5	48
NMHLD	76	0	3	48
NMHLD	76	0	6	48
NMHLD	76	96	1	48
NMHLD	76	96	4	48
NMHLD	76	192	3	48
NMHLD	76	192	6	48
NMHLD	76	288	3	48
NMHLD	76	288	6	48
NMHLD	77	0	1	48
NMHLD	77	0	4	48
NMHLD	77	96	3	48
NMHLD	77	96	6	48
NMHLD	77	192	1	48
NMHLD	77	192	4	48
NMHLD	77	288	1	48
NMHLD	77	288	4	48
NMHLD	78	0	6	96
NMHLD	78	96	4	96
NMTAP	78	192	3
NMHLD	78	288	1	336
NMTAP	78	288	4
NMHLD	79	0	3	48
NMHLD	79	96	3	48
NMHLD	79	192	3	48
BRTAP	79	288	2
BRTAP	79	288	6
BRTAP	79	336	0
BRTAP	79	336	4

T_REC_TAP	206
T_REC_BRK	14
T_REC_XTP	41
T_REC_BXX	0
T_REC_HLD	109
T_REC_XHO	6
T_REC_BHO	1
T_REC_BXH	0
T_REC_STR	29
T_REC_BST	2
T_REC_XST	1
T_REC_XBS	0
T_REC_TTP	23
T_REC_THO	1
T_REC_SLD	30
T_REC_BSL	3
T_REC_ALL	466
T_NUM_TAP	300
T_NUM_BRK	20
T_NUM_HLD	116
T_NUM_SLD	30
T_NUM_ALL	466
T_JUDGE_TAP	316
T_JUDGE_HLD	297
T_JUDGE_SLD	33
T_JUDGE_ALL	646
TTM_EACHPAIRS	124
TTM_SCR_TAP	150000
TTM_SCR_BRK	52000
TTM_SCR_HLD	116000
TTM_SCR_SLD	45000
TTM_SCR_ALL	363000
TTM_SCR_S	350200
TTM_SCR_SS	361000
TTM_RAT_ACV	10055

