VERSION	0.00.00	1.04.00
FES_MODE	0
BPM_DEF	188.000	188.000	188.000	188.000
MET_DEF	4	4
RESOLUTION	384
CLK_DEF	384
COMPATIBLE_CODE	MA2

BPM	0	0	188.000
MET	0	0	4	4

BRTAP	1	0	1
BRHLD	1	0	5	768
NMTHO	3	0	0	384	C	0	M1
NMSTR	4	0	7
NMSCL	4	0	7	96	288	4
NMTTP	5	0	3	B	0	M1
NMTTP	5	0	4	B	0	M1
NMTTP	5	0	4	E	0	M1
NMHLD	5	96	2	96
NMTAP	5	192	3
NMTAP	5	264	3
NMTAP	5	264	4
NMTAP	5	336	4
NMTAP	5	336	5
NMTAP	6	0	4
NMHLD	6	0	5	96
NMTAP	6	96	3
NMTAP	6	144	3
NMTAP	6	240	2
NMTAP	6	240	4
NMTTP	6	336	5	E	0	M1
NMTTP	6	352	4	B	0	M1
NMTTP	6	368	3	B	0	M1
NMTTP	7	0	3	E	0	M1
NMTAP	7	192	5
NMTAP	7	240	4
NMTAP	7	288	2
NMTAP	7	336	1
NMTAP	8	0	5
NMTAP	8	48	4
NMTAP	8	96	2
NMTAP	8	144	1
NMTAP	8	192	6
NMTAP	8	240	5
NMTAP	8	288	3
NMHLD	8	336	2	96
NMHLD	8	336	4	96
BRTAP	9	96	3
BRTAP	9	96	4
NMTAP	9	144	3
NMTAP	9	168	4
NMTAP	9	192	2
NMTAP	9	216	5
NMTAP	9	240	2
NMTAP	9	264	5
NMTAP	9	288	1
NMTAP	9	312	6
NMTAP	9	336	1
NMTAP	9	360	6
EXTAP	10	0	0
EXTAP	10	16	7
EXTAP	10	32	0
EXTAP	10	48	7
EXTAP	10	64	0
EXTAP	10	80	7
EXTAP	10	96	0
EXTAP	10	112	7
EXTAP	10	128	0
EXTAP	10	144	7
EXTAP	10	160	0
EXTAP	10	176	7
EXSTR	10	192	0
NMSI_	10	192	0	96	48	4
EXTAP	10	208	7
EXTAP	10	224	0
EXTAP	10	240	7
EXTAP	10	256	0
EXTAP	10	272	7
BXTAP	10	288	0
BRTAP	11	0	3
BRTAP	11	0	5
NMTAP	11	96	4
NMTAP	11	120	3
NMTAP	11	144	4
NMTAP	11	192	3
NMHLD	11	192	6	72
NMHLD	11	264	5	72
NMTAP	11	336	4
NMTAP	12	0	3
NMTAP	12	0	4
NMTAP	12	48	2
NMTAP	12	72	3
NMTAP	12	96	2
NMTAP	12	144	1
NMTAP	12	144	4
NMTTP	12	192	2	E	0	M1
NMTTP	12	208	2	B	0	M1
NMTTP	12	224	3	B	0	M1
NMTTP	12	240	4	E	0	M1
NMTAP	12	288	7
NMTAP	12	336	7
BRTAP	13	0	0
BRTAP	13	0	6
NMTAP	13	96	2
NMTAP	13	120	3
NMTAP	13	144	2
NMHLD	13	192	1	72
NMTAP	13	192	4
NMHLD	13	264	2	72
NMTAP	13	336	3
NMTAP	14	0	3
NMTAP	14	0	4
NMTAP	14	48	5
NMTAP	14	72	4
NMTAP	14	96	5
NMTAP	14	144	3
NMTAP	14	144	6
NMTTP	14	192	6	E	0	M1
NMTTP	14	208	5	B	0	M1
NMTTP	14	224	4	B	0	M1
NMTTP	14	240	4	E	0	M1
BRTAP	14	288	1
BRTAP	14	288	7
BXHLD	15	0	0	48
BXHLD	15	0	6	48
NMTAP	15	96	2
NMTAP	15	120	3
NMTAP	15	144	1
NMHLD	15	192	0	72
NMTAP	15	192	4
NMHLD	15	264	6	72
NMTAP	15	336	4
NMTAP	16	0	3
NMTAP	16	0	5
NMTAP	16	48	6
NMTAP	16	72	4
NMTAP	16	96	6
NMTAP	16	144	3
NMTAP	16	144	7
NMTTP	16	192	6	E	0	M1
NMTTP	16	208	5	B	0	M1
NMTTP	16	224	4	B	0	M1
NMTTP	16	240	4	E	0	M1
NMTAP	16	288	0
NMTAP	16	336	0
BRTAP	17	0	1
BRTAP	17	0	7
NMTAP	17	96	6
NMTAP	17	120	4
NMTAP	17	144	5
NMHLD	17	192	2	48
NMHLD	17	192	4	48
NMHLD	17	264	1	48
NMHLD	17	264	3	48
NMTAP	17	336	0
NMTAP	17	336	4
NMTAP	18	0	0
NMTAP	18	0	4
NMTAP	18	96	1
NMTAP	18	96	7
NMTAP	18	144	2
NMTAP	18	144	6
NMTAP	18	192	5
NMTAP	18	208	3
NMTAP	18	224	5
NMTAP	18	240	3
NMSTR	18	288	2
NMSI_	18	288	2	96	48	7
NMSTR	18	288	6
NMSI_	18	288	6	96	48	3
BRTAP	19	0	2
BRTAP	19	0	6
NMTAP	19	96	0
NMTAP	19	96	4
NMTAP	19	144	1
NMTAP	19	144	5
NMTAP	19	192	2
NMHLD	19	192	6	72
NMHLD	19	264	4	72
NMTAP	19	336	5
EXTAP	20	0	3
EXTAP	20	0	6
NMTAP	20	96	1
NMTAP	20	96	4
NMTAP	20	144	1
NMTAP	20	144	4
NMTAP	20	192	2
NMTAP	20	208	3
NMTAP	20	224	2
NMTAP	20	240	3
EXTAP	20	288	2
EXTAP	20	288	3
NMTAP	20	336	3
NMTAP	20	336	4
NMTAP	21	0	4
BRSTR	21	0	5
NMSI_	21	0	5	96	48	0
NMTAP	21	96	3
NMTAP	21	96	5
NMTAP	21	144	2
NMHLD	21	192	1	72
NMHLD	21	264	3	72
NMTAP	21	336	2
NMTAP	22	0	1
NMTAP	22	0	4
NMTAP	22	96	3
NMTAP	22	96	6
NMTAP	22	144	3
NMTAP	22	144	6
NMTAP	22	192	5
NMTAP	22	208	4
NMTAP	22	224	5
NMTAP	22	240	4
NMTAP	22	288	3
NMTAP	22	288	7
NMTAP	22	336	5
NMHLD	23	0	2	96
NMTAP	23	48	3
NMTAP	23	96	4
NMHLD	23	144	2	96
NMTAP	23	192	4
NMTAP	23	240	5
NMHLD	23	288	3	96
NMTAP	23	336	5
NMHLD	24	0	6	96
NMTAP	24	48	4
NMTAP	24	96	2
NMHLD	24	144	5	96
NMTAP	24	192	3
NMTAP	24	240	1
NMTAP	24	288	0
NMTAP	24	288	4
NMTAP	24	336	0
NMTAP	24	336	4
NMTAP	25	0	1
NMTAP	25	0	3
NMTAP	25	48	2
NMTAP	25	72	4
NMTAP	25	96	2
NMTAP	25	120	4
NMHLD	25	144	2	48
NMTAP	25	192	5
NMTAP	25	216	4
NMTAP	25	240	5
NMTAP	25	288	2
NMTAP	25	312	3
NMHLD	25	336	2	48
NMTTP	26	0	6	A	0	M1
NMTTP	26	32	5	A	0	M1
NMTTP	26	64	4	A	0	M1
NMTTP	26	96	1	A	0	M1
NMTTP	26	128	2	A	0	M1
NMTTP	26	160	3	A	0	M1
NMTAP	26	192	4
NMTAP	26	224	4
NMTAP	26	256	4
BRTAP	26	288	3
BRTAP	26	288	5
NMHLD	27	0	1	96
NMHLD	27	0	3	96
NMTAP	27	144	0
NMTAP	27	144	4
NMHLD	27	192	1	64
NMHLD	27	256	3	64
NMSTR	27	320	2
NMSI_	27	320	2	96	64	6
EXTAP	28	48	6
CNSI_	28	96	6	0	96	0
EXTAP	28	144	4
CNSI_	28	192	0	0	96	4
EXTAP	28	240	5
NMTAP	28	336	6
NMHLD	29	0	4	96
BRHLD	29	0	6	96
NMTAP	29	144	4
NMTAP	29	144	5
EXTAP	29	192	3
EXTAP	29	224	3
EXTAP	29	256	3
EXTAP	29	288	2
EXTAP	29	288	4
NMSTR	30	0	1
NMSI_	30	0	1	96	48	3
NMTAP	30	16	5
NMTAP	30	32	1
NMTAP	30	48	5
NMTAP	30	64	1
NMTAP	30	80	5
NMSTR	30	96	1
NMSI_	30	96	1	96	48	7
CNSV_	30	240	7	0	96	5
NMHLD	31	0	4	96
NMHLD	31	0	6	96
NMTAP	31	144	3
NMTAP	31	144	7
NMHLD	31	192	6	64
NMHLD	31	256	4	64
NMSTR	31	320	5
NMSI_	31	320	5	96	64	1
EXTAP	32	48	1
CNSI_	32	96	1	0	96	7
EXTAP	32	144	3
CNSI_	32	192	7	0	96	3
EXTAP	32	240	2
NMTAP	32	336	1
BRHLD	33	0	1	96
NMHLD	33	0	3	96
NMTAP	33	144	1
NMTAP	33	144	3
EXTAP	33	192	4
EXTAP	33	224	4
EXTAP	33	256	4
EXTAP	33	288	3
EXTAP	33	288	5
NMSTR	34	0	6
NMSI_	34	0	6	96	48	4
NMTAP	34	16	2
NMTAP	34	32	6
NMTAP	34	48	2
NMTAP	34	64	6
NMTAP	34	80	2
NMSTR	34	96	6
NMSI_	34	96	6	96	48	0
CNSV_	34	240	0	0	96	2
BRTAP	35	0	1
BRHLD	35	0	4	768
NMTAP	36	0	3
NMTAP	36	96	3
NMTAP	36	192	2
NMTAP	36	288	2
NMTAP	37	0	2
NMHLD	37	12	3	276
NMTAP	37	192	5
NMHLD	37	204	4	84
NMTAP	38	0	2
NMTAP	38	24	4
NMTAP	38	48	2
NMTAP	38	72	4
NMTAP	38	96	3
NMTAP	38	120	5
NMTAP	38	144	3
NMTAP	38	168	5
NMSTR	38	192	4
NMSI_	38	192	4	96	48	7
NMTAP	38	216	5
NMTAP	38	240	4
NMTAP	38	264	5
BRTAP	38	288	4
NMTAP	39	0	0
NMTAP	39	0	6
NMTAP	39	24	1
NMTAP	39	48	2
NMTAP	39	72	4
NMTAP	39	96	5
NMTAP	39	120	6
NMTAP	39	144	0
NMTAP	39	168	1
NMTAP	39	192	2
NMTAP	39	216	4
NMTAP	39	240	5
NMTAP	39	264	6
NMTAP	39	288	1
NMTAP	39	312	2
NMTAP	39	336	3
NMTAP	39	360	5
NMTAP	40	0	6
NMTAP	40	24	7
NMTAP	40	48	1
NMTAP	40	72	2
NMTAP	40	96	3
NMTAP	40	120	5
NMTAP	40	144	6
NMTAP	40	168	7
NMTAP	40	192	1
NMTAP	40	216	0
NMTAP	40	240	1
NMTAP	40	264	0
NMTAP	40	288	2
NMTAP	40	312	3
NMTAP	40	336	2
NMTAP	40	360	3
BRHLD	41	0	1	288
NMTTP	41	96	5	E	0	M1
NMTTP	41	108	4	E	0	M1
NMTTP	41	120	3	E	0	M1
NMTTP	41	132	2	E	0	M1
NMTTP	41	144	1	E	0	M1
NMTTP	41	156	0	E	0	M1
NMTTP	41	168	7	E	0	M1
NMTTP	41	180	6	E	0	M1
NMTTP	41	192	5	E	0	M1
NMTTP	41	204	4	E	0	M1
NMTTP	41	216	3	E	0	M1
NMTTP	41	228	2	E	0	M1
NMTTP	41	240	1	E	0	M1
NMTTP	41	252	0	E	0	M1
NMTTP	41	264	7	E	0	M1
NMTTP	41	276	6	E	0	M1
NMTTP	41	288	4	B	0	M1
NMTTP	41	288	4	A	0	M1
NMTTP	41	288	5	E	0	M1
NMTTP	41	288	5	D	0	M1
NMHLD	42	0	2	48
NMHLD	42	0	3	48
NMHLD	42	72	1	48
NMHLD	42	72	4	48
NMTAP	42	144	0
NMTAP	42	144	5
NMTAP	42	192	0
NMTAP	42	192	5
NMTAP	42	240	1
NMTAP	42	240	6
NMTAP	42	288	2
NMTAP	42	288	7
NMTAP	42	336	2
NMTAP	42	336	7
NMTAP	43	0	3
NMTAP	43	32	3
NMTAP	43	64	5
NMTAP	43	96	4
NMTAP	43	128	4
NMTAP	43	160	6
NMTAP	43	192	5
NMTAP	43	224	5
NMTAP	43	256	7
NMTAP	43	288	4
NMTAP	43	320	4
NMTAP	43	352	0
NMTAP	44	0	2
NMTAP	44	32	2
NMTAP	44	64	3
NMTAP	44	96	1
NMTAP	44	128	1
NMTAP	44	160	0
NMTAP	44	192	3
NMTAP	44	224	3
NMTAP	44	256	7
NMTAP	44	288	4
NMTAP	44	288	6
NMTAP	45	0	2
NMTAP	45	24	3
NMTAP	45	72	5
NMTAP	45	96	4
NMTAP	45	144	1
NMTAP	45	168	3
NMTAP	45	216	6
NMTAP	45	240	4
NMTAP	45	288	3
NMTAP	45	288	5
NMTAP	45	336	3
NMTAP	45	336	5
NMTAP	46	0	2
NMTAP	46	16	1
NMTAP	46	32	0
NMTAP	46	48	7
NMTAP	46	64	6
NMTAP	46	80	5
EXTAP	46	96	4
EXTAP	46	144	3
EXTAP	46	144	5
NMTAP	46	192	1
NMTAP	46	216	0
NMTAP	46	240	1
BRTAP	46	288	2
BRTAP	46	288	7
NMSTR	47	0	1
NMSI_	47	0	1	96	48	3
NMTAP	47	72	3
NMSTR	47	144	4
NMSI_	47	144	4	96	48	0
NMTAP	47	216	2
NMTAP	47	288	2
NMTAP	47	336	1
NMSTR	48	0	0
NMSI_	48	0	0	96	48	4
NMTAP	48	0	7
NMTAP	48	72	6
NMSTR	48	144	5
NMSI_	48	144	5	96	48	7
NMTAP	48	216	1
NMTAP	48	288	3
NMTAP	49	0	2
NMTAP	49	24	7
NMTAP	49	48	2
NMTAP	49	72	6
NMTAP	49	96	2
NMTAP	49	120	5
NMTAP	49	144	2
NMTAP	49	168	4
NMTAP	49	192	1
NMTAP	49	216	3
NMTAP	49	240	1
NMTAP	49	264	2
NMTAP	49	288	1
NMTAP	49	312	0
NMTAP	49	336	1
NMTAP	49	360	0
NMHLD	50	0	2	48
NMHLD	50	72	2	48
NMTAP	50	144	1
NMTAP	50	144	3
NMHLD	50	192	4	48
NMHLD	50	264	4	48
NMTAP	50	336	3
NMTAP	50	336	5
NMSTR	51	0	6
NMSI_	51	0	6	96	48	4
NMTAP	51	72	4
NMSTR	51	144	3
NMSI_	51	144	3	96	48	7
NMTAP	51	216	5
NMTAP	51	288	5
NMTAP	51	336	6
NMTAP	52	0	0
NMSTR	52	0	7
NMSI_	52	0	7	96	48	3
NMTAP	52	72	1
NMSTR	52	144	2
NMSI_	52	144	2	96	48	0
NMTAP	52	216	6
EXTAP	52	288	4
NMTAP	53	0	5
NMTAP	53	24	0
NMTAP	53	48	5
NMTAP	53	72	1
NMTAP	53	96	5
NMTAP	53	120	2
NMTAP	53	144	5
NMTAP	53	168	3
NMTAP	53	192	6
NMTAP	53	216	4
NMTAP	53	240	6
NMTAP	53	264	5
NMTAP	53	288	6
NMTAP	53	312	7
NMTAP	53	336	6
NMTAP	53	360	7
BRTAP	54	0	5
NMTAP	54	48	0
NMTAP	54	72	4
NMTAP	54	96	1
NMTAP	54	120	3
NMTAP	54	144	1
NMTAP	54	168	3
NMTAP	54	192	2
NMTAP	54	216	2
NMTAP	54	240	4
NMTAP	54	264	4
NMTAP	54	288	3
NMTAP	54	312	3
NMTAP	54	336	5
NMTAP	54	360	5
NMSTR	55	0	2
NMSI_	55	0	2	96	48	5
NMTAP	55	48	2
NMSTR	55	96	6
NMSI_	55	96	6	96	48	1
NMTAP	55	144	6
NMSTR	55	192	3
NMSI_	55	192	3	96	48	0
NMTAP	55	240	3
NMTAP	55	288	7
NMTAP	55	336	7
NMTAP	56	0	1
NMTAP	56	0	7
NMTAP	56	48	2
NMTAP	56	48	6
NMTAP	56	96	3
NMTAP	56	96	5
NMTAP	56	144	2
NMTAP	56	144	4
NMTAP	56	192	1
NMTAP	56	192	5
NMTAP	56	240	0
NMTAP	56	240	6
EXSTR	56	288	7
NMSI_	56	288	7	96	48	3
EXTAP	56	312	7
EXTAP	56	336	7
EXTAP	56	360	7
BXTAP	57	0	7
NMTTP	57	1	0	C	1	M1
NMTTP	59	0	6	A	0	M1
NMTTP	59	32	6	E	0	M1
NMTTP	59	64	5	E	0	M1
NMTTP	59	96	7	A	0	M1
NMTTP	59	128	7	B	0	M1
NMTTP	59	160	0	C	0	M1
NMTTP	59	192	0	A	0	M1
NMTTP	59	224	1	E	0	M1
NMTTP	59	256	2	E	0	M1
NMTTP	59	288	3	B	0	M1
NMTTP	59	288	3	E	0	M1
NMTTP	59	288	4	E	0	M1
NMTTP	60	0	1	A	0	M1
NMTTP	60	32	2	E	0	M1
NMTTP	60	64	3	E	0	M1
NMTTP	60	96	0	A	0	M1
NMTTP	60	128	0	B	0	M1
NMTTP	60	160	0	C	0	M1
NMTTP	60	192	7	A	0	M1
NMTTP	60	224	7	E	0	M1
NMTTP	60	256	6	E	0	M1
NMTTP	60	288	4	B	0	M1
NMTTP	60	288	4	E	0	M1
NMTTP	60	288	5	E	0	M1
NMSTR	61	0	2
NMSUR	61	0	2	96	288	0
NMSTR	61	0	6
NMSUL	61	0	6	96	288	0
NMTAP	62	96	1
NMTAP	62	96	7
NMTAP	62	192	1
NMTAP	62	192	4
NMTAP	62	240	2
NMTAP	62	264	4
NMSTR	62	288	3
NMSCL	62	288	3	96	48	0
NMTAP	62	336	4
NMTAP	62	336	5
BRTAP	63	0	3
NMSTR	63	0	6
NMSI_	63	0	6	96	48	2
NMTAP	63	96	6
NMTAP	63	144	0
NMTAP	63	168	0
NMTAP	63	192	3
NMTAP	63	240	1
NMTAP	63	264	1
NMTAP	63	288	4
NMTAP	63	336	3
NMTAP	63	336	5
NMTAP	64	0	2
NMTAP	64	0	6
NMTAP	64	48	1
NMTAP	64	72	0
NMHLD	64	96	2	48
NMTAP	64	144	3
NMTAP	64	168	1
NMHLD	64	192	5	48
NMTAP	64	240	4
NMTAP	64	264	6
NMSTR	64	288	0
NMSCR	64	288	0	96	48	3
NMTAP	64	336	4
BRTAP	65	0	0
NMSTR	65	0	5
NMSI_	65	0	5	96	48	1
NMTAP	65	96	5
NMTAP	65	144	3
NMTAP	65	168	3
NMTAP	65	192	0
NMTAP	65	240	2
NMTAP	65	264	2
NMTAP	65	288	7
NMTAP	65	336	0
NMTAP	65	336	6
NMTAP	66	0	1
NMTAP	66	0	5
NMTAP	66	48	2
NMTAP	66	72	3
NMHLD	66	96	1	48
NMTAP	66	144	0
NMTAP	66	168	2
NMHLD	66	192	6	48
NMTAP	66	240	7
NMTAP	66	264	5
NMSTR	66	288	0
NMSI_	66	288	0	96	48	2
NMTAP	66	336	4
NMTAP	66	360	4
BRSTR	67	0	0
NMSI_	67	0	0	96	48	6
NMTAP	67	48	3
NMTAP	67	72	3
NMSTR	67	96	0
NMSCR	67	96	0	96	48	2
NMTAP	67	144	5
NMTAP	67	168	5
NMSTR	67	192	0
NMSCL	67	192	0	96	48	6
NMTAP	67	240	4
NMTAP	67	264	4
NMSTR	67	288	0
NMSI_	67	288	0	96	48	3
NMTAP	67	336	5
NMTAP	67	360	5
NMSTR	68	0	0
NMSI_	68	0	0	96	48	4
NMTAP	68	48	4
NMTAP	68	72	4
NMTAP	68	96	0
NMTAP	68	144	5
NMTAP	68	168	5
EXTAP	68	192	4
NMTAP	68	240	3
NMTAP	68	264	5
NMTAP	68	288	2
NMTAP	68	312	6
NMTAP	68	336	1
NMTAP	68	360	7
NMTTP	69	0	0	C	1	M1
NMTAP	69	96	0
NMTAP	69	120	1
NMTAP	69	144	2
NMTAP	69	168	3
NMHLD	69	192	4	72
NMTAP	69	192	7
NMTAP	69	264	5
NMTAP	69	336	2
NMTAP	69	336	3
NMTAP	70	0	1
NMTAP	70	0	4
NMTAP	70	48	6
NMTAP	70	72	7
NMTAP	70	120	5
NMTAP	70	144	4
NMTAP	70	192	3
NMTAP	70	192	4
NMTAP	70	240	1
NMTAP	70	264	3
NMSTR	70	288	1
NMSCR	70	288	1	96	48	4
NMTAP	70	336	0
NMTAP	70	336	5
BRTAP	71	0	1
NMSTR	71	0	7
NMSI_	71	0	7	96	48	3
NMTAP	71	96	0
NMTAP	71	96	7
NMTAP	71	144	1
NMTAP	71	168	1
EXTAP	71	192	4
NMTAP	71	240	3
NMTAP	71	264	3
NMTAP	71	288	7
NMTAP	71	336	0
NMTAP	71	336	6
NMTAP	72	0	1
NMTAP	72	0	5
NMTAP	72	48	2
NMTAP	72	72	3
NMHLD	72	96	1	48
NMTAP	72	144	0
NMTAP	72	168	2
NMHLD	72	192	6	48
NMTAP	72	240	7
NMTAP	72	264	5
NMSTR	72	288	0
NMSI_	72	288	0	96	48	4
NMTAP	72	336	1
NMTAP	72	336	7
BRTAP	73	0	0
NMSTR	73	0	6
NMSI_	73	0	6	96	48	2
NMTAP	73	96	6
NMTAP	73	96	7
NMTAP	73	144	0
NMTAP	73	168	0
NMTAP	73	192	3
NMTAP	73	240	1
NMTAP	73	264	1
NMTAP	73	288	4
NMTAP	73	336	3
NMTAP	73	336	5
NMTAP	74	0	2
NMTAP	74	0	6
NMTAP	74	48	1
NMTAP	74	72	0
NMHLD	74	96	2	48
NMTAP	74	144	3
NMTAP	74	168	1
NMHLD	74	192	5	48
NMTAP	74	240	4
NMTAP	74	264	6
NMSTR	74	288	3
NMSCL	74	288	3	96	48	1
NMTAP	74	336	7
NMTAP	74	360	7
BRTAP	75	0	3
NMTAP	75	48	5
NMTAP	75	72	5
NMSTR	75	96	0
NMSI_	75	96	0	96	48	4
NMTAP	75	144	6
NMTAP	75	168	6
BRTAP	75	192	0
NMTAP	75	240	7
NMTAP	75	264	7
NMSTR	75	288	3
NMSI_	75	288	3	96	48	7
NMTAP	75	336	6
NMTAP	75	360	6
BRTAP	76	0	3
NMTAP	76	48	4
NMTAP	76	72	4
BRSTR	76	96	1
NMSI_	76	96	1	96	48	5
NMTAP	76	144	6
BRSTR	76	192	1
NMSI_	76	192	1	96	48	3
BRSTR	76	192	7
NMSI_	76	192	7	96	48	3
BRTAP	76	288	1
BRTAP	76	288	7
EXTAP	77	0	2
EXTAP	77	0	3
NMTAP	77	48	2
NMTAP	77	72	3
NMTAP	77	96	1
NMTAP	77	120	4
NMTAP	77	144	0
EXTAP	77	192	2
EXTAP	77	192	6
NMTAP	77	240	5
NMTAP	77	264	4
NMTAP	77	288	6
NMTAP	77	312	3
NMHLD	77	336	7	48
NMTAP	78	0	0
NMTAP	78	12	1
NMTAP	78	24	2
NMTAP	78	36	3
NMTAP	78	48	4
NMTAP	78	60	5
NMTAP	78	72	6
NMTAP	78	84	7
NMSTR	78	96	0
NMSF_	78	96	0	96	48	4
NMTAP	78	108	1
NMTAP	78	120	2
NMTAP	78	132	3
NMTAP	78	144	4
NMTAP	78	156	5
NMTAP	78	168	6
NMTAP	78	180	7
NMTAP	78	192	0
BRTAP	78	288	2
BRTAP	78	288	6
NMSTR	79	0	1
NMSI_	79	0	1	96	48	4
NMSTR	79	48	7
NMSI_	79	48	7	96	48	3
NMTAP	79	96	1
NMTAP	79	144	7
NMHLD	79	192	0	48
NMHLD	79	264	1	48
NMHLD	79	264	3	48
NMTAP	79	336	2
NMTAP	79	336	4
NMSTR	80	0	5
NMSI_	80	0	5	96	48	3
NMSTR	80	48	1
NMSI_	80	48	1	96	48	5
NMTAP	80	96	5
NMTAP	80	144	1
NMHLD	80	192	7	48
NMHLD	80	264	4	48
NMHLD	80	264	6	48
NMTAP	80	336	3
NMTAP	80	336	5
NMSTR	81	0	2
NMSI_	81	0	2	96	48	7
NMSTR	81	48	3
NMSI_	81	48	3	96	48	6
NMTAP	81	96	2
NMTAP	81	144	3
NMHLD	81	192	0	48
NMHLD	81	264	1	48
NMHLD	81	264	7	48
NMTAP	81	336	2
NMTAP	81	336	6
NMTAP	82	0	2
NMTAP	82	0	6
NMTAP	82	48	5
NMTAP	82	72	4
NMSTR	82	96	5
NMSI_	82	96	5	96	48	1
NMTAP	82	144	6
EXTAP	82	192	1
EXTAP	82	192	5
CNSCR	82	240	1	0	48	4
CNSI_	82	288	4	0	48	7
BRTAP	83	0	0
BRHLD	83	0	6	96
NMTAP	83	96	0
NMTAP	83	108	1
NMTAP	83	120	2
NMTAP	83	132	3
NMTAP	83	144	4
NMTAP	83	156	5
NMTAP	83	168	6
NMTAP	83	180	7
NMTAP	83	192	0
NMTAP	83	204	1
NMTAP	83	216	2
NMTAP	83	228	3
NMTAP	83	240	4
NMTAP	83	252	5
NMTAP	83	264	6
NMTAP	83	276	7
BRTAP	83	288	0
NMTTP	83	288	0	C	1	M1
NMTAP	84	0	7
NMTAP	84	32	7
NMTAP	84	64	7
NMTAP	84	96	0
NMTAP	84	128	0
NMTAP	84	160	0
NMTAP	84	192	6
NMTAP	84	216	5
NMTAP	84	240	4
NMTAP	84	264	3
NMTAP	84	288	0
NMTAP	84	312	1
NMTAP	84	336	2
NMTAP	84	360	3
EXTAP	85	0	4
EXTAP	85	0	6
EXTAP	85	48	7
EXTAP	85	96	0
EXTAP	85	96	6
NMSTR	85	144	1
NMSI_	85	144	1	96	48	5
NMTAP	85	144	5
NMTAP	85	240	7
CNSI_	85	288	5	0	48	1
NMTAP	85	288	7
NMTAP	86	0	6
NMTAP	86	24	0
NMTAP	86	48	6
NMTAP	86	72	0
NMTAP	86	96	6
NMTAP	86	144	1
NMTAP	86	144	5
NMTTP	86	192	5	E	0	M1
NMTTP	86	208	4	B	0	M1
NMTTP	86	224	3	B	0	M1
NMTTP	86	240	0	C	1	M1
NMTTP	86	240	3	E	0	M1
NMTAP	87	0	0
NMTAP	87	0	1
NMTAP	87	48	2
NMTAP	87	48	7
NMTAP	87	96	3
NMTAP	87	96	6
NMTAP	87	144	4
NMTAP	87	160	5
NMTAP	87	176	4
NMHLD	87	192	5	72
NMHLD	87	264	6	72
NMTAP	87	336	7
NMTAP	88	0	6
NMTAP	88	0	7
NMTAP	88	48	0
NMTAP	88	48	5
NMTAP	88	96	1
NMTAP	88	96	4
NMTAP	88	144	3
NMTAP	88	160	2
NMTAP	88	176	3
NMHLD	88	192	2	72
NMHLD	88	264	1	72
NMTAP	88	336	0
NMTAP	89	0	2
NMTAP	89	0	7
NMTAP	89	48	3
NMTAP	89	48	6
NMTAP	89	96	4
NMTAP	89	96	5
NMTAP	89	144	3
NMTAP	89	160	4
NMTAP	89	176	2
NMHLD	89	192	3	72
EXTAP	89	264	0
EXTAP	89	336	6
EXTAP	89	336	7
NMTAP	90	0	0
NMTAP	90	0	5
NMTAP	90	48	1
NMTAP	90	48	4
NMTAP	90	96	2
NMTAP	90	96	3
NMTAP	90	144	4
NMTAP	90	160	3
NMTAP	90	176	5
NMHLD	90	192	4	72
EXTAP	90	264	6
EXTAP	90	336	1
EXTAP	90	336	5
NMTAP	91	0	0
NMTAP	91	24	7
NMTAP	91	48	0
NMTAP	91	72	7
NMTAP	91	96	0
NMTAP	91	108	1
NMHLD	91	120	2	48
NMTAP	91	168	6
NMTAP	91	180	5
NMHLD	91	192	4	48
NMTAP	91	240	1
NMTAP	91	252	2
NMHLD	91	264	3	48
NMTAP	91	312	7
NMTAP	91	324	6
NMHLD	91	336	5	48
NMTAP	92	0	1
NMTTP	92	12	2	E	0	M1
NMTTP	92	24	2	B	0	M1
NMTTP	92	36	3	B	0	M1
NMTAP	92	72	6
NMTTP	92	84	6	E	0	M1
NMTTP	92	96	5	B	0	M1
NMTTP	92	108	4	B	0	M1
NMTAP	92	144	0
NMTTP	92	156	1	E	0	M1
NMTTP	92	168	1	B	0	M1
NMTTP	92	180	2	B	0	M1
NMTAP	92	216	7
NMTTP	92	228	7	E	0	M1
NMTTP	92	240	6	B	0	M1
NMTTP	92	252	5	B	0	M1
NMTAP	92	288	3
NMTAP	92	336	3
BRTAP	93	0	3
BRTAP	93	0	4
NMTAP	93	48	2
NMTAP	93	72	3
NMTAP	93	96	1
NMTAP	93	144	0
NMTAP	93	144	4
NMTAP	93	192	6
NMTAP	93	216	7
NMTAP	93	240	5
NMTAP	93	288	0
NMTAP	93	288	4
NMTAP	93	336	1
NMTAP	93	360	3
NMTAP	94	0	2
NMTAP	94	48	3
NMTAP	94	48	7
NMTAP	94	96	6
NMTAP	94	120	4
NMTAP	94	144	5
NMTAP	94	192	2
NMTAP	94	208	3
NMTAP	94	224	2
NMTAP	94	240	3
BRTAP	94	288	0
BRTAP	94	288	6
NMTAP	95	0	1
NMTAP	95	24	2
NMTAP	95	48	3
NMTAP	95	72	0
NMSTR	95	96	1
NMSI_	95	96	1	96	48	5
NMTAP	95	120	2
NMTAP	95	144	3
NMTAP	95	192	1
EXTAP	95	192	5
NMTAP	95	288	6
NMTAP	95	312	5
NMTAP	95	336	4
NMTAP	95	360	7
NMSTR	96	0	6
NMSI_	96	0	6	96	48	2
NMTAP	96	24	5
NMTAP	96	48	4
EXTAP	96	96	2
NMTAP	96	96	6
NMTAP	96	192	0
NMTAP	96	216	1
NMTAP	96	240	2
NMTAP	96	264	7
NMSTR	96	288	0
NMSI_	96	288	0	96	48	4
NMTAP	96	312	1
NMTAP	96	336	2
NMTAP	97	0	0
EXTAP	97	0	4
NMTAP	97	96	6
NMTAP	97	120	4
NMTAP	97	144	6
NMTAP	97	168	4
NMSTR	97	192	7
BRSI_	97	192	7	96	48	3
NMTAP	97	216	4
NMTAP	97	240	7
NMTAP	97	264	4
NMSTR	97	288	7
NMSCR	97	288	7	96	96	6
NMTTP	98	0	7	E	0	M1
NMTTP	98	12	0	E	0	M1
NMTTP	98	24	1	E	0	M1
NMTTP	98	36	2	E	0	M1
NMTTP	98	48	3	E	0	M1
NMTTP	98	60	4	E	0	M1
NMTTP	98	72	5	E	0	M1
NMTTP	98	84	6	E	0	M1
NMTTP	98	96	7	D	0	M1
NMTTP	98	108	0	D	0	M1
NMTTP	98	120	1	D	0	M1
NMTTP	98	132	2	D	0	M1
NMTTP	98	144	3	D	0	M1
NMTTP	98	156	4	D	0	M1
NMTTP	98	168	5	D	0	M1
NMTTP	98	180	6	D	0	M1
NMTTP	98	192	0	E	0	M1
NMTTP	98	192	0	D	0	M1
NMTTP	98	192	7	B	0	M1
NMTTP	98	192	7	E	0	M1
NMTTP	98	192	7	A	1	M1
NMTTP	98	192	7	D	0	M1
NMTAP	98	288	2
NMTAP	98	312	3
NMTAP	98	336	2
NMTAP	98	360	3
NMSTR	99	0	1
NMSI_	99	0	1	96	48	4
NMTAP	99	24	4
NMTAP	99	48	1
NMTAP	99	72	4
NMTAP	99	96	1
NMTAP	99	192	6
NMTAP	99	216	4
NMTAP	99	240	6
NMTAP	99	264	4
NMSTR	99	288	7
NMSI_	99	288	7	96	48	3
NMTAP	99	312	3
NMTAP	99	336	7
NMTAP	99	360	3
NMTAP	100	0	7
NMTAP	100	96	4
NMTAP	100	120	2
NMTAP	100	144	5
NMTAP	100	168	1
NMSTR	100	192	7
NMSI_	100	192	7	96	48	2
NMSI_	100	192	7	96	48	4
NMTAP	100	240	0
NMTAP	100	240	6
BRTAP	100	288	7
BRTAP	101	0	1
NMTAP	101	24	3
NMTAP	101	48	2
NMTAP	101	72	4
NMTAP	101	96	3
NMTAP	101	120	4
NMTAP	101	144	2
NMTAP	101	168	3
NMHLD	101	192	1	48
NMTAP	101	240	0
NMTAP	101	256	7
NMTAP	101	272	6
NMTAP	101	288	3
BRTAP	101	288	5
NMTAP	101	336	5
NMTAP	101	360	3
NMTAP	102	0	4
NMTAP	102	24	3
NMTAP	102	48	5
NMTAP	102	72	4
NMHLD	102	96	6	48
NMTAP	102	144	7
NMTAP	102	160	0
NMTAP	102	176	1
BRTAP	102	192	2
NMTAP	102	192	4
NMTAP	102	240	2
NMTAP	102	264	4
NMTAP	102	288	3
NMTAP	102	312	4
NMTAP	102	336	2
NMTAP	102	360	3
NMHLD	103	0	1	48
NMTAP	103	48	0
NMTAP	103	64	7
NMTAP	103	80	6
NMTAP	103	96	3
BRTAP	103	96	5
NMTAP	103	144	2
NMTAP	103	168	3
NMSTR	103	192	0
NMSF_	103	192	0	96	48	4
NMTAP	103	240	1
NMTAP	103	240	7
NMTAP	103	288	0
BXTAP	104	0	5
EXTAP	104	24	4
EXTAP	104	48	6
BRTAP	104	72	2
NMTAP	104	96	3
NMTAP	104	120	1
BRTAP	104	144	5
NMTAP	104	168	4
BRHLD	104	192	6	48
NMTAP	104	240	0
NMTAP	104	256	1
NMTAP	104	272	2
BRTAP	104	288	5
NMTAP	104	312	4
NMTAP	104	336	6
BRTAP	104	360	2
NMTAP	105	0	3
NMTAP	105	24	1
BRTAP	105	48	6
NMTAP	105	72	7
BRHLD	105	96	5	48
NMTAP	105	144	1
NMTAP	105	160	2
NMTAP	105	176	3
BRTAP	105	192	6
NMTAP	105	216	7
NMTAP	105	240	5
BRTAP	105	264	2
NMTAP	105	288	3
NMTAP	105	312	1
BRTAP	105	336	6
NMTAP	105	360	0
BXTAP	106	0	1
BRTAP	106	0	5
NMTAP	106	96	0
NMTAP	106	112	7
NMTAP	106	128	0
NMTAP	106	144	7
NMTAP	106	160	0
NMTAP	106	176	7
NMTAP	106	192	0
NMTAP	106	208	7
NMTAP	106	224	0
NMTAP	106	240	7
NMTAP	106	256	0
NMTAP	106	272	7
NMSTR	106	288	1
NMSI_	106	288	1	96	48	5
NMTAP	106	304	6
NMTAP	106	320	1
NMTAP	106	336	6
NMTAP	106	352	1
NMTAP	106	368	6
BRSTR	107	0	1
NMSCL	107	0	1	96	384	4
NMTTP	107	1	0	C	1	M1
CNSCL	108	96	4	0	384	0
BXSTR	109	0	0
BRSCL	109	0	0	96	672	0
EXTAP	111	96	0
NMTAP	111	192	1
NMTAP	111	192	3
NMTAP	111	264	2
NMTAP	111	264	4
NMTAP	111	336	3
NMTAP	111	336	5
NMTAP	112	0	3
NMHLD	112	0	5	96
NMTAP	112	96	4
NMHLD	112	144	4	96
NMTAP	112	240	6
NMTTP	112	336	5	E	0	M1
NMTTP	112	352	4	B	0	M1
NMTTP	112	368	3	B	0	M1
NMTTP	113	0	3	E	0	M1
NMHLD	113	192	2	144
NMTAP	113	240	5
NMTAP	113	288	4
NMTAP	113	336	3
NMHLD	114	0	5	144
NMTAP	114	48	2
NMTAP	114	96	3
NMTAP	114	144	4
NMTAP	114	192	3
NMSTR	114	192	6
NMSI_	114	192	6	96	48	3
NMSTR	114	240	3
NMSI_	114	240	3	96	48	0
NMTAP	114	240	6
CNSI_	114	336	3	0	48	1

T_REC_TAP	786
T_REC_BRK	51
T_REC_XTP	69
T_REC_BXX	4
T_REC_HLD	81
T_REC_XHO	0
T_REC_BHO	8
T_REC_BXH	2
T_REC_STR	60
T_REC_BST	6
T_REC_XST	2
T_REC_XBS	1
T_REC_TTP	116
T_REC_THO	1
T_REC_SLD	68
T_REC_BSL	2
T_REC_ALL	1257
T_NUM_TAP	1033
T_NUM_BRK	74
T_NUM_HLD	82
T_NUM_SLD	68
T_NUM_ALL	1257
T_JUDGE_TAP	1095
T_JUDGE_HLD	185
T_JUDGE_SLD	70
T_JUDGE_ALL	1350
TTM_EACHPAIRS	157
TTM_SCR_TAP	516500
TTM_SCR_BRK	192400
TTM_SCR_HLD	82000
TTM_SCR_SLD	102000
TTM_SCR_ALL	892900
TTM_SCR_S	858950
TTM_SCR_SS	885500
TTM_RAT_ACV	10083

