VERSION	0.00.00	1.04.00
FES_MODE	0
BPM_DEF	188.000	188.000	188.000	188.000
MET_DEF	4	4
RESOLUTION	384
CLK_DEF	384
COMPATIBLE_CODE	MA2

BPM	0	0	188.000
MET	0	0	4	4

NMHLD	1	0	5	192
NMHLD	1	192	4	192
NMHLD	2	0	3	192
NMHLD	2	192	2	192
NMTAP	3	0	3
NMTAP	3	96	3
NMTAP	3	192	4
NMTAP	3	288	4
NMTAP	4	0	5
NMTAP	4	96	5
NMTAP	4	192	4
NMTAP	4	192	6
NMTAP	4	288	4
NMHLD	4	288	6	192
NMTAP	5	96	4
NMTAP	5	192	4
NMTAP	5	192	6
NMTAP	5	288	3
NMTAP	5	288	5
NMTAP	6	0	2
NMTAP	6	0	4
NMTAP	6	96	1
NMTAP	6	96	3
NMSTR	6	192	1
NMSCR	6	192	1	96	96	3
NMTAP	6	192	3
NMTAP	7	96	4
NMTAP	7	96	5
NMHLD	7	192	6	96
NMHLD	7	288	5	96
NMHLD	8	0	4	96
NMHLD	8	96	1	96
NMHLD	8	192	2	96
NMHLD	8	288	3	96
NMTAP	9	0	4
NMTAP	9	96	4
NMTAP	9	144	4
NMTAP	9	192	2
NMTAP	9	240	2
NMTAP	9	288	6
NMTAP	9	336	6
EXTAP	10	0	0
EXTAP	10	24	7
EXTAP	10	48	0
EXTAP	10	72	7
EXTAP	10	96	0
EXTAP	10	120	7
EXTAP	10	144	0
EXTAP	10	168	7
EXSTR	10	192	0
NMSI_	10	192	0	96	48	4
BRTAP	10	288	6
NMTAP	11	0	5
NMTAP	11	96	4
NMTAP	11	96	6
NMHLD	11	192	6	72
NMHLD	11	264	5	72
NMTAP	11	336	4
NMSTR	12	0	4
NMSI_	12	0	4	96	48	6
NMTAP	12	96	7
NMSTR	12	144	7
NMSV_	12	144	7	96	48	4
NMTAP	13	0	6
NMTAP	13	96	4
NMTAP	13	96	5
NMHLD	13	192	5	72
NMHLD	13	264	4	72
NMTAP	13	336	6
NMSTR	14	0	6
NMSI_	14	0	6	96	48	4
NMTAP	14	96	3
NMSTR	14	144	3
NMSXL	14	144	3	96	48	5
NMSXR	14	144	3	96	48	1
EXTAP	15	0	2
NMTAP	15	96	1
NMTAP	15	96	3
NMHLD	15	192	1	72
NMHLD	15	264	2	72
NMTAP	15	336	3
NMSTR	16	0	3
NMSI_	16	0	3	96	48	1
NMTAP	16	96	0
NMSTR	16	144	0
NMSV_	16	144	0	96	48	3
NMTAP	17	0	1
NMTAP	17	96	2
NMTAP	17	96	3
NMHLD	17	192	2	72
NMHLD	17	264	3	72
NMTAP	17	336	1
NMSTR	18	0	1
NMSCR	18	0	1	96	48	3
NMTAP	18	96	4
NMSTR	18	144	4
NMSXL	18	144	4	96	72	5
NMSXR	18	144	4	96	72	3
EXTAP	19	0	6
NMTAP	19	96	4
NMTAP	19	96	7
NMHLD	19	192	7	72
NMHLD	19	264	5	72
NMTAP	19	336	4
NMSTR	20	0	4
NMSCR	20	0	4	96	48	7
NMTAP	20	96	1
NMSTR	20	144	1
NMSCR	20	144	1	96	48	4
NMTAP	21	0	6
NMTAP	21	96	4
NMTAP	21	96	7
NMHLD	21	192	6	72
NMHLD	21	264	4	72
NMTAP	21	336	5
NMSTR	22	0	5
NMSI_	22	0	5	96	48	3
NMTAP	22	96	1
NMSTR	22	144	1
NMSI_	22	144	1	96	48	3
NMTAP	23	0	2
NMTAP	23	96	2
NMTAP	23	96	3
NMTAP	23	144	2
NMTAP	23	144	3
NMTAP	23	240	1
NMTAP	23	240	4
NMTAP	23	288	1
NMTAP	23	288	4
NMTAP	24	0	5
NMTAP	24	96	4
NMTAP	24	96	5
NMTAP	24	144	4
NMTAP	24	144	5
NMTAP	24	240	3
NMTAP	24	240	6
NMTAP	24	288	3
NMTAP	24	288	6
NMTAP	25	0	5
NMTAP	25	48	5
NMTAP	25	96	3
NMTAP	25	144	3
NMTAP	25	192	4
NMTAP	25	240	4
NMSTR	25	288	2
NMSCL	25	288	2	96	288	4
NMTTP	26	0	0	C	1	M1
NMHLD	27	0	1	264
EXTAP	27	192	0
EXTAP	27	264	0
EXTAP	27	336	2
EXTAP	27	336	7
NMHLD	28	48	6	96
NMTAP	28	144	7
NMHLD	28	240	1	96
NMTAP	28	336	0
NMTAP	29	0	0
NMTAP	29	96	1
NMTAP	29	96	7
NMTAP	29	192	1
NMTAP	29	288	2
NMHLD	30	0	3	288
NMTTP	30	96	1	B	0	M1
NMTTP	30	96	2	E	0	M1
NMTTP	30	192	3	B	0	M1
NMTTP	30	192	4	E	0	M1
NMTTP	30	288	5	B	0	M1
NMTTP	30	288	6	E	0	M1
EXHLD	31	0	6	264
EXTAP	31	192	7
EXTAP	31	264	7
EXTAP	31	336	0
EXTAP	31	336	5
NMHLD	32	48	1	96
NMTAP	32	144	0
NMHLD	32	240	6	96
NMTAP	32	336	7
NMTAP	33	0	7
NMTAP	33	96	0
NMTAP	33	96	6
NMTAP	33	192	1
NMTAP	33	192	3
NMTAP	33	288	0
NMTAP	33	288	7
NMTAP	34	0	4
NMHLD	34	0	6	288
NMTTP	34	96	4	E	0	M1
NMTTP	34	192	0	E	0	M1
NMTTP	34	288	0	C	0	M1
NMHLD	35	0	5	192
NMHLD	35	192	4	192
NMHLD	36	0	3	192
NMHLD	36	192	2	288
NMHLD	37	0	3	96
NMHLD	37	192	4	96
NMHLD	37	192	5	96
NMSTR	38	0	3
NMSCL	38	0	3	96	96	0
NMSTR	38	0	4
NMSCR	38	0	4	96	96	7
BRTAP	38	288	0
BRTAP	38	288	7
NMTAP	39	0	2
NMTAP	39	0	3
NMTAP	39	48	2
NMTAP	39	48	3
NMTAP	39	144	0
NMTAP	39	144	1
NMTAP	39	192	0
NMTAP	39	192	1
NMTAP	39	288	6
NMTAP	39	288	7
NMTAP	39	336	6
NMTAP	39	336	7
NMTAP	40	48	4
NMTAP	40	48	5
NMTAP	40	96	4
NMTAP	40	96	5
NMTAP	40	192	2
NMTAP	40	192	3
NMTAP	40	288	1
NMTAP	40	288	4
NMSTR	41	0	0
NMSCR	41	0	0	96	192	7
NMTAP	41	0	5
NMTAP	42	0	0
NMTAP	42	48	0
NMTAP	42	96	7
NMTAP	42	144	7
NMTAP	42	192	0
NMTAP	42	288	1
NMTAP	42	288	6
EXTAP	43	0	1
EXTAP	43	32	0
EXTAP	43	64	1
EXTAP	43	96	0
EXTAP	43	192	6
EXTAP	43	224	7
EXTAP	43	256	6
EXTAP	43	288	7
NMTAP	44	0	5
NMTAP	44	32	4
NMTAP	44	64	5
NMTAP	44	96	4
NMTAP	44	192	2
NMTAP	44	224	3
NMTAP	44	256	2
NMTAP	44	288	3
NMSTR	45	0	1
NMSCR	45	0	1	96	96	4
NMTAP	45	0	4
NMSTR	45	192	5
NMSCR	45	192	5	96	96	0
NMTAP	46	0	2
NMTAP	46	96	0
NMTAP	46	96	1
NMTAP	46	192	0
NMTAP	46	192	7
NMTAP	46	288	1
NMTAP	46	288	6
NMHLD	47	0	2	72
NMHLD	47	72	1	72
NMHLD	47	144	0	72
NMTAP	47	216	7
NMTAP	47	288	0
NMTAP	47	288	7
NMHLD	48	0	5	72
NMHLD	48	72	6	72
NMHLD	48	144	7	72
NMTAP	48	216	0
NMTAP	48	288	0
NMTAP	48	288	7
NMTAP	49	0	2
NMTAP	49	48	2
NMTAP	49	96	3
NMTAP	49	192	1
NMTAP	49	240	1
NMTAP	49	288	0
NMTAP	50	0	6
NMTAP	50	48	6
NMTAP	50	96	7
NMTAP	50	192	5
NMTAP	50	240	5
NMTAP	50	288	4
NMHLD	51	0	5	72
NMHLD	51	72	7	72
NMHLD	51	144	0	72
NMTAP	51	216	2
NMTAP	51	288	2
NMTAP	51	288	3
NMHLD	52	0	2	72
NMHLD	52	72	0	72
NMHLD	52	144	7	72
NMTAP	52	216	5
NMTAP	52	288	4
NMTAP	52	288	5
NMSTR	53	0	6
NMSCR	53	0	6	96	96	1
NMSTR	53	192	2
NMSCR	53	192	2	96	96	5
NMSTR	54	0	7
NMSI_	54	0	7	96	96	3
NMTAP	54	192	2
NMTAP	54	288	0
NMTAP	54	288	6
NMTAP	55	0	0
NMTAP	55	48	0
NMTAP	55	96	1
NMTAP	55	144	1
NMTAP	55	192	2
NMTAP	55	240	2
NMTAP	55	288	3
NMTAP	55	336	3
NMTAP	56	0	4
NMTAP	56	48	4
NMTAP	56	96	5
NMTAP	56	144	5
NMTAP	56	192	6
NMTAP	56	240	6
NMTAP	56	288	7
NMTAP	56	336	7
BRSTR	57	0	0
NMSXL	57	0	0	96	480	3
BRSTR	57	0	7
NMSXR	57	0	7	96	480	4
NMTTP	59	0	3	B	0	M1
NMTTP	59	96	2	B	0	M1
NMTTP	59	192	1	B	0	M1
NMTTP	59	288	0	B	0	M1
NMTTP	60	0	7	B	0	M1
NMTTP	60	96	6	B	0	M1
NMTTP	60	192	5	B	0	M1
NMTTP	60	288	4	B	0	M1
NMTHO	61	0	0	576	C	0	M1
BRHLD	63	0	6	96
BRTAP	63	0	7
NMTAP	63	96	4
NMTAP	63	192	4
NMTAP	63	192	5
NMTAP	63	264	2
NMTAP	63	264	3
NMTAP	63	336	1
NMSTR	64	0	0
NMSI_	64	0	0	96	48	4
NMSTR	64	0	1
NMSI_	64	0	1	96	48	4
NMSTR	64	192	6
NMSI_	64	192	6	96	48	3
NMSTR	64	192	7
NMSI_	64	192	7	96	48	3
NMTAP	65	0	0
NMHLD	65	0	1	96
NMTAP	65	96	3
NMTAP	65	192	2
NMTAP	65	192	3
NMTAP	65	264	4
NMTAP	65	264	5
NMTAP	65	336	6
NMSTR	66	0	6
NMSI_	66	0	6	96	48	3
NMSTR	66	0	7
NMSI_	66	0	7	96	48	2
NMSTR	66	192	0
NMSI_	66	192	0	96	48	4
NMSTR	66	192	1
NMSI_	66	192	1	96	48	5
NMTAP	67	0	6
NMTAP	67	48	6
NMTAP	67	96	4
NMTAP	67	96	5
NMTAP	67	192	2
NMTAP	67	240	2
NMTAP	67	288	1
NMTAP	67	288	3
NMTAP	68	0	0
NMTAP	68	48	1
NMTAP	68	96	2
NMTAP	68	96	3
NMTAP	68	192	5
NMTAP	68	240	5
NMTAP	68	288	4
NMTAP	68	288	6
NMSTR	69	0	6
NMSI_	69	0	6	96	48	3
NMTAP	69	0	7
NMTAP	69	96	0
NMTAP	69	192	0
NMSTR	69	192	1
NMSI_	69	192	1	96	48	4
NMTAP	69	288	7
NMTAP	70	0	5
NMTAP	70	48	4
NMTAP	70	96	3
NMTAP	70	96	6
NMTAP	70	192	2
NMTAP	70	240	3
NMTAP	70	288	1
NMTAP	70	288	4
NMTAP	71	0	4
NMHLD	71	0	5	96
NMTAP	71	96	7
NMTAP	71	192	6
NMTAP	71	192	7
NMTAP	71	264	0
NMTAP	71	264	1
NMTAP	71	336	2
NMSTR	72	0	2
NMSI_	72	0	2	96	48	7
NMSTR	72	0	3
NMSI_	72	0	3	96	48	7
NMSTR	72	192	4
NMSI_	72	192	4	96	48	0
NMSTR	72	192	5
NMSI_	72	192	5	96	48	0
NMHLD	73	0	2	96
NMTAP	73	0	3
NMTAP	73	96	0
NMTAP	73	192	0
NMTAP	73	192	1
NMTAP	73	264	6
NMTAP	73	264	7
NMTAP	73	336	5
NMSTR	74	0	4
NMSI_	74	0	4	96	48	0
NMSTR	74	0	5
NMSI_	74	0	5	96	48	0
NMTAP	74	192	1
NMTAP	74	192	7
BRTAP	74	288	3
BRTAP	74	288	5
NMSTR	75	0	1
NMSI_	75	0	1	96	48	4
NMSTR	75	96	6
NMSI_	75	96	6	96	48	3
NMSTR	75	192	0
NMSI_	75	192	0	96	48	4
NMTAP	75	288	7
NMSTR	76	0	5
NMSI_	76	0	5	96	48	0
NMSTR	76	96	3
NMSI_	76	96	3	96	48	7
NMSTR	76	192	4
NMSI_	76	192	4	96	48	0
NMTAP	76	288	2
NMTAP	77	0	1
NMTAP	77	48	1
NMTAP	77	96	3
NMTAP	77	144	3
NMTAP	77	192	4
NMTAP	77	240	4
NMTAP	77	288	6
NMTAP	77	336	6
NMTAP	78	0	0
NMTAP	78	24	7
NMTAP	78	48	0
NMTAP	78	72	7
NMTAP	78	96	0
NMTAP	78	120	7
NMTAP	78	144	0
NMTAP	78	168	7
NMTAP	78	192	0
BRTAP	78	288	1
BRTAP	78	288	6
NMTAP	79	0	0
NMTAP	79	48	0
NMTAP	79	96	1
NMTAP	79	96	7
NMTAP	79	192	4
NMTAP	79	192	6
NMTAP	79	264	3
NMTAP	79	264	4
NMTAP	79	336	1
NMTAP	79	336	3
NMSTR	80	0	1
NMSI_	80	0	1	96	48	6
NMTAP	80	0	3
NMSTR	80	96	5
NMSI_	80	96	5	96	48	2
NMTAP	80	192	0
NMTAP	80	288	1
NMTAP	80	288	3
NMTAP	81	0	4
NMTAP	81	0	5
NMTAP	81	48	6
NMTAP	81	96	0
NMTAP	81	96	7
NMTAP	81	192	1
NMTAP	81	192	3
NMTAP	81	264	3
NMTAP	81	264	4
NMTAP	81	336	4
NMTAP	81	336	6
NMTAP	82	0	4
NMSTR	82	0	6
NMSI_	82	0	6	96	48	1
NMSTR	82	96	2
NMSI_	82	96	2	96	48	5
NMTAP	82	192	7
NMTAP	82	288	3
NMTAP	82	288	4
NMSTR	83	0	1
NMSCR	83	0	1	96	192	7
NMTAP	83	0	7
NMTTP	84	0	1	B	0	M1
NMTTP	84	0	2	B	0	M1
NMTTP	84	0	2	E	0	M1
NMTTP	84	96	5	B	0	M1
NMTTP	84	96	6	B	0	M1
NMTTP	84	96	6	E	0	M1
NMTHO	84	192	0	96	C	0	M1
NMTAP	85	0	6
NMTAP	85	0	7
NMTAP	85	96	0
NMTAP	85	96	5
NMSTR	85	144	0
NMSI_	85	144	0	96	48	3
NMSTR	85	144	5
NMSI_	85	144	5	96	48	2
NMSTR	86	0	1
NMSI_	86	0	1	96	48	4
NMTAP	86	96	0
NMSTR	86	144	0
NMSI_	86	144	0	96	48	5
BRTAP	86	240	3
NMTAP	87	0	4
NMTAP	87	48	4
NMTAP	87	96	3
NMTAP	87	96	5
NMHLD	87	192	6	72
NMHLD	87	264	5	72
NMTAP	87	336	4
NMTAP	88	0	2
NMTAP	88	48	2
NMTAP	88	96	1
NMTAP	88	96	3
NMHLD	88	192	2	72
NMHLD	88	264	3	72
NMTAP	88	336	4
NMTAP	89	0	6
NMTAP	89	48	6
NMTAP	89	96	5
NMTAP	89	96	7
NMHLD	89	192	5	72
NMHLD	89	264	6	72
NMTAP	89	336	7
NMTAP	90	0	1
NMTAP	90	48	1
NMTAP	90	96	0
NMTAP	90	96	2
NMHLD	90	192	1	72
NMHLD	90	264	2	72
NMTAP	90	336	3
NMTAP	91	0	3
BRTAP	91	96	2
BRTAP	91	96	3
BRTAP	91	168	4
BRTAP	91	168	5
BRTAP	91	240	6
BRTAP	91	240	7
BRTAP	91	312	0
BRTAP	91	312	1
BRTAP	92	0	3
BRTAP	92	0	4
BRTAP	92	72	6
BRTAP	92	72	7
BRTAP	92	144	1
BRTAP	92	144	2
BRTAP	92	216	4
BRTAP	92	216	5
BXTAP	92	288	0
BXTAP	92	288	7
EXTAP	92	336	0
EXTAP	92	336	7
EXTAP	93	0	1
EXTAP	93	0	6
NMTAP	93	96	4
NMTAP	93	96	5
NMTAP	93	144	4
NMTAP	93	144	5
NMTAP	93	240	2
NMTAP	93	240	3
NMTAP	93	288	2
NMTAP	93	288	3
NMTAP	94	0	1
NMTAP	94	0	5
NMTAP	94	48	1
NMTAP	94	48	5
NMTAP	94	144	6
NMTAP	94	144	7
NMTAP	94	192	6
NMTAP	94	192	7
NMTAP	94	288	1
NMTAP	94	288	4
NMHLD	95	0	2	72
NMTAP	95	72	3
NMTAP	95	144	1
NMTAP	95	144	4
NMTAP	95	192	1
NMTAP	95	192	4
NMHLD	95	288	5	72
NMTAP	95	360	4
NMTAP	96	48	3
NMTAP	96	48	6
NMTAP	96	96	3
NMTAP	96	96	6
NMHLD	96	192	2	72
NMTAP	96	264	3
NMTAP	96	336	1
NMTAP	96	336	4
NMTAP	97	0	1
NMTAP	97	0	4
NMTAP	97	96	3
NMTAP	97	96	6
NMTAP	97	168	2
NMTAP	97	168	7
NMTAP	97	240	0
NMTAP	97	240	1
NMTAP	97	288	0
NMTAP	97	288	1
NMSTR	98	0	1
NMSI_	98	0	1	96	48	4
NMSTR	98	96	5
NMSI_	98	96	5	96	48	0
NMTAP	98	192	3
NMSTR	98	288	2
NMSI_	98	288	2	96	48	7
NMSTR	99	0	6
NMSI_	99	0	6	96	48	3
NMTAP	99	96	0
NMSTR	99	192	1
NMSI_	99	192	1	96	48	5
NMSTR	99	288	6
NMSI_	99	288	6	96	48	3
NMTAP	100	0	2
EXTAP	100	96	1
EXTAP	100	96	3
NMTAP	100	168	2
NMTAP	100	168	4
NMTAP	100	240	3
NMTAP	100	240	5
NMTAP	100	288	3
NMTAP	100	288	5
NMTAP	101	0	0
NMTAP	101	0	2
NMTAP	101	72	2
NMTAP	101	72	3
NMTAP	101	144	1
NMTAP	101	144	4
NMTAP	101	192	1
NMTAP	101	192	4
NMTAP	101	288	5
NMTAP	101	288	7
NMTAP	101	360	4
NMTAP	101	360	5
NMTAP	102	48	3
NMTAP	102	48	6
NMTAP	102	96	3
NMTAP	102	96	6
NMTAP	102	192	0
NMTAP	102	192	2
NMTAP	102	264	2
NMTAP	102	264	3
NMTAP	102	336	1
NMTAP	102	336	4
NMTAP	103	0	1
NMTAP	103	0	4
NMHLD	103	96	6	72
NMTAP	103	168	4
NMTAP	103	240	3
NMTAP	103	240	7
NMTAP	103	288	3
NMTAP	103	288	7
NMSTR	104	0	1
NMSI_	104	0	1	96	48	4
NMSTR	104	96	5
NMSCR	104	96	5	96	48	0
NMTAP	104	192	3
NMSTR	104	288	2
NMSI_	104	288	2	96	48	7
NMSTR	105	0	6
NMSCL	105	0	6	96	48	3
NMTAP	105	96	0
NMSTR	105	192	1
NMSI_	105	192	1	96	48	5
NMSTR	105	288	7
NMSI_	105	288	7	96	48	3
NMTAP	106	0	0
NMTAP	106	96	0
NMTAP	106	120	7
NMTAP	106	144	0
NMTAP	106	168	7
NMTAP	106	192	0
NMTAP	106	216	7
NMTAP	106	240	0
NMTAP	106	264	7
NMTAP	106	288	0
NMTAP	106	312	7
NMTAP	106	336	0
NMTAP	106	360	7
BRSTR	107	0	0
NMSLL	107	0	0	96	672	3
NMSLR	107	0	0	96	672	5
NMHLD	110	0	3	96
NMHLD	110	0	5	96
NMHLD	110	192	2	96
NMHLD	110	192	4	96
NMSTR	111	96	2
NMSCR	111	96	2	96	192	5
NMSTR	112	0	6
NMSLL	112	0	6	96	288	2
NMHLD	113	0	1	672
NMTTP	113	192	2	E	0	M1
NMTTP	113	288	3	E	0	M1
NMTTP	114	0	4	E	0	M1
NMTTP	114	96	5	E	0	M1
NMTTP	114	192	6	E	0	M1
NMTTP	114	288	0	C	0	M1

T_REC_TAP	410
T_REC_BRK	25
T_REC_XTP	32
T_REC_BXX	2
T_REC_HLD	69
T_REC_XHO	1
T_REC_BHO	1
T_REC_BXH	0
T_REC_STR	67
T_REC_BST	3
T_REC_XST	1
T_REC_XBS	0
T_REC_TTP	30
T_REC_THO	2
T_REC_SLD	74
T_REC_BSL	0
T_REC_ALL	717
T_NUM_TAP	540
T_NUM_BRK	31
T_NUM_HLD	72
T_NUM_SLD	74
T_NUM_ALL	717
T_JUDGE_TAP	570
T_JUDGE_HLD	204
T_JUDGE_SLD	74
T_JUDGE_ALL	848
TTM_EACHPAIRS	155
TTM_SCR_TAP	270000
TTM_SCR_BRK	80600
TTM_SCR_HLD	72000
TTM_SCR_SLD	111000
TTM_SCR_ALL	533600
TTM_SCR_S	514600
TTM_SCR_SS	530500
TTM_RAT_ACV	10058

