VERSION	0.00.00	1.04.00
FES_MODE	0
BPM_DEF	188.000	188.000	188.000	188.000
MET_DEF	4	4
RESOLUTION	384
CLK_DEF	384
COMPATIBLE_CODE	MA2

BPM	0	0	188.000
MET	0	0	4	4

NMTAP	1	0	1
NMTAP	1	192	1
NMTAP	2	0	2
NMTAP	2	192	2
NMTAP	3	0	3
NMTAP	3	192	3
NMTAP	4	0	4
NMTAP	4	0	5
NMTAP	5	0	6
NMTAP	5	192	6
NMTAP	6	0	5
NMTAP	6	192	5
NMTAP	7	0	4
NMTAP	7	192	4
NMTAP	8	0	3
NMTAP	8	0	4
NMTAP	8	96	3
NMTAP	8	96	4
NMTAP	8	192	3
NMTAP	8	192	4
NMHLD	9	0	3	576
NMHLD	9	0	4	576
NMTAP	11	0	2
NMTAP	11	96	2
NMTAP	11	192	2
NMTAP	12	0	1
NMTAP	12	96	1
NMTAP	12	192	1
NMTAP	13	0	0
NMTAP	13	96	0
NMTAP	13	192	0
NMTAP	14	0	6
NMTAP	14	0	7
NMTAP	14	96	6
NMTAP	14	96	7
NMTAP	14	192	6
NMTAP	14	192	7
NMTAP	15	0	5
NMTAP	15	96	5
NMTAP	15	192	5
NMTAP	16	0	6
NMTAP	16	96	6
NMTAP	16	192	6
NMTAP	17	0	7
NMTAP	17	96	7
NMTAP	17	192	7
NMTAP	18	0	0
NMTAP	18	0	1
NMTAP	18	96	0
NMTAP	18	96	1
NMTAP	18	192	0
NMTAP	18	192	1
NMTAP	19	0	2
NMTAP	19	96	2
NMTAP	19	192	2
NMTAP	19	192	3
NMTAP	20	0	1
NMTAP	20	96	1
NMTAP	20	192	0
NMTAP	20	192	1
NMTAP	21	0	7
NMTAP	21	96	7
NMTAP	21	192	6
NMTAP	21	192	7
NMTAP	22	0	4
NMTAP	22	0	5
NMTAP	22	96	4
NMTAP	22	96	5
NMTAP	22	192	3
NMTAP	22	192	6
NMTAP	23	0	5
NMTAP	23	96	5
NMTAP	23	192	4
NMTAP	23	192	5
NMTAP	24	0	6
NMTAP	24	96	6
NMTAP	24	192	6
NMTAP	24	192	7
NMTAP	25	0	0
NMTAP	25	96	0
NMTAP	25	192	0
NMTAP	25	192	1
EXTAP	26	0	2
EXTAP	26	0	3
EXTAP	26	96	2
EXTAP	26	96	3
EXTAP	26	192	1
EXTAP	26	192	4
NMHLD	27	0	2	192
NMHLD	27	192	3	192
NMHLD	28	0	4	192
NMTAP	28	192	5
NMHLD	29	0	5	192
NMHLD	29	192	4	192
NMHLD	30	0	3	192
NMTAP	30	192	2
NMHLD	31	0	1	192
NMHLD	31	192	2	192
NMHLD	32	0	3	192
NMTAP	32	192	4
NMHLD	33	0	6	192
NMHLD	33	192	5	192
NMHLD	34	0	4	192
NMTAP	34	192	3
NMTAP	35	0	3
NMTAP	35	96	2
NMTAP	35	192	1
NMTAP	35	288	0
NMTAP	36	0	7
NMTAP	36	96	6
NMTAP	36	192	5
NMTAP	36	288	4
NMTAP	37	0	3
NMTAP	37	0	4
NMTAP	37	192	3
NMTAP	37	192	4
BRTAP	38	0	2
BRTAP	38	0	5
NMTAP	39	0	2
NMTAP	39	96	2
NMTAP	39	192	1
NMTAP	39	288	1
NMTAP	40	0	0
NMTAP	40	96	0
NMTAP	40	192	6
NMTAP	40	192	7
NMTAP	41	0	5
NMTAP	41	96	5
NMTAP	41	192	6
NMTAP	41	288	6
NMTAP	42	0	7
NMTAP	42	96	7
NMTAP	42	192	0
NMTAP	42	192	1
NMTAP	43	0	1
NMTAP	43	96	1
NMTAP	43	192	2
NMTAP	43	288	2
NMTAP	44	0	3
NMTAP	44	96	3
NMTAP	44	192	4
NMTAP	44	192	5
NMTAP	45	0	6
NMTAP	45	96	6
NMTAP	45	192	5
NMTAP	45	288	5
NMTAP	46	0	4
NMTAP	46	96	4
NMTAP	46	192	2
NMTAP	46	192	3
NMTAP	47	0	0
NMTAP	47	0	1
NMTAP	47	96	0
NMTAP	47	96	1
NMTAP	47	192	2
NMTAP	47	192	7
NMTAP	47	288	2
NMTAP	47	288	7
NMTAP	48	0	3
NMTAP	48	0	6
NMTAP	48	96	3
NMTAP	48	96	6
EXTAP	48	192	4
EXTAP	48	192	5
NMTAP	49	0	3
NMTAP	49	96	2
NMTAP	49	192	1
NMTAP	49	288	0
NMTAP	50	0	7
NMTAP	50	96	6
NMTAP	50	192	4
NMTAP	50	192	5
NMTAP	51	0	6
NMTAP	51	0	7
NMTAP	51	96	6
NMTAP	51	96	7
NMTAP	51	192	0
NMTAP	51	192	5
NMTAP	51	288	0
NMTAP	51	288	5
NMTAP	52	0	1
NMTAP	52	0	4
NMTAP	52	96	1
NMTAP	52	96	4
EXTAP	52	192	2
EXTAP	52	192	3
NMTAP	53	0	4
NMTAP	53	96	5
NMTAP	53	192	6
NMTAP	53	288	7
NMTAP	54	0	0
NMTAP	54	96	1
NMTAP	54	192	2
NMTAP	54	192	3
NMTAP	55	0	3
NMTAP	55	0	4
NMTAP	55	96	3
NMTAP	55	96	4
NMTAP	55	192	2
NMTAP	55	192	5
NMTAP	55	288	2
NMTAP	55	288	5
EXTAP	56	0	3
EXTAP	56	48	3
EXTAP	56	96	3
EXTAP	56	192	4
EXTAP	56	240	4
EXTAP	56	288	4
BRTAP	57	0	2
BRTAP	57	0	5
NMTTP	59	0	1	B	0	L1
NMTTP	59	96	2	B	0	L1
NMTTP	59	192	3	B	0	L1
NMTTP	59	288	4	B	0	L1
NMTTP	60	0	5	B	0	L1
NMTTP	60	96	6	B	0	L1
NMTTP	60	192	0	B	0	L1
NMTTP	60	192	7	B	0	L1
NMTTP	61	0	2	B	0	L1
NMTTP	61	96	1	B	0	L1
NMTTP	61	192	0	B	0	L1
NMTTP	61	288	7	B	0	L1
NMTTP	62	0	6	B	0	L1
NMTTP	62	96	5	B	0	L1
NMTTP	62	192	3	B	0	L1
NMTTP	62	192	4	B	0	L1
NMTAP	63	0	1
NMTAP	63	96	1
NMTAP	63	192	1
NMTAP	63	288	0
NMTAP	63	288	1
NMTAP	64	0	2
NMTAP	64	96	2
NMTAP	64	192	2
NMTAP	64	288	2
NMTAP	64	288	3
NMTAP	65	0	4
NMTAP	65	96	4
NMTAP	65	192	4
NMTAP	65	288	4
NMTAP	65	288	5
NMTAP	66	0	6
NMTAP	66	0	7
NMTAP	66	96	6
NMTAP	66	96	7
NMTAP	66	192	6
NMTAP	66	192	7
NMTAP	67	0	6
NMTAP	67	96	6
NMTAP	67	192	6
NMTAP	67	288	6
NMTAP	67	288	7
NMTAP	68	0	5
NMTAP	68	96	5
NMTAP	68	192	5
NMTAP	68	288	4
NMTAP	68	288	5
NMTAP	69	0	3
NMTAP	69	96	3
NMTAP	69	192	3
NMTAP	69	288	2
NMTAP	69	288	3
NMTAP	70	0	0
NMTAP	70	0	1
NMTAP	70	96	0
NMTAP	70	96	1
NMTAP	70	192	0
NMTAP	70	192	1
NMTAP	71	0	1
NMTAP	71	96	0
NMTAP	71	192	1
NMTAP	71	288	0
NMTAP	71	288	1
NMTAP	72	0	2
NMTAP	72	96	3
NMTAP	72	192	2
NMTAP	72	288	2
NMTAP	72	288	3
NMTAP	73	0	4
NMTAP	73	96	5
NMTAP	73	192	4
NMTAP	73	288	4
NMTAP	73	288	5
NMTAP	74	0	6
NMTAP	74	0	7
NMTAP	74	96	6
NMTAP	74	96	7
NMTAP	74	192	6
NMTAP	74	192	7
NMTAP	75	0	6
NMTAP	75	96	7
NMTAP	75	192	6
NMTAP	75	288	6
NMTAP	75	288	7
NMTAP	76	0	5
NMTAP	76	96	4
NMTAP	76	192	5
NMTAP	76	288	4
NMTAP	76	288	5
NMTAP	77	0	3
NMTAP	77	96	2
NMTAP	77	192	3
NMTAP	77	288	2
NMTAP	77	288	3
NMTAP	78	0	0
NMTAP	78	0	1
NMTAP	78	96	0
NMTAP	78	96	1
NMTAP	78	192	0
NMTAP	78	192	1
NMTAP	79	0	0
NMTAP	79	96	1
NMTAP	79	192	2
NMTAP	79	288	3
NMTAP	80	0	4
NMTAP	80	96	5
NMTAP	80	192	6
NMTAP	80	192	7
NMTAP	81	0	7
NMTAP	81	96	6
NMTAP	81	192	5
NMTAP	81	288	4
NMTAP	82	0	3
NMTAP	82	96	2
NMTAP	82	192	0
NMTAP	82	192	1
NMTAP	83	0	2
NMTAP	83	96	1
NMTAP	83	192	0
NMTAP	83	288	7
NMTAP	84	0	6
NMTAP	84	96	5
NMTAP	84	192	4
NMTAP	84	288	3
NMTAP	85	0	2
NMTAP	85	96	1
NMTAP	85	192	0
NMTAP	85	288	7
NMTAP	86	0	6
NMTAP	86	96	5
NMTAP	86	192	3
NMTAP	86	192	4
NMTAP	87	0	5
NMTAP	87	48	5
NMTAP	87	96	5
NMTAP	87	192	4
NMTAP	87	192	5
NMTAP	88	0	2
NMTAP	88	48	2
NMTAP	88	96	2
NMTAP	88	192	2
NMTAP	88	192	3
NMTAP	89	0	1
NMTAP	89	48	1
NMTAP	89	96	1
NMTAP	89	192	0
NMTAP	89	192	1
NMTAP	90	0	6
NMTAP	90	48	6
NMTAP	90	96	6
NMTAP	90	192	6
NMTAP	90	192	7
NMSTR	91	0	6
NMSXR	91	0	6	96	480	3
NMSTR	93	0	1
NMSXL	93	0	1	96	480	4
NMTAP	95	0	5
NMTAP	95	96	5
NMTAP	95	192	4
NMTAP	95	192	5
NMTAP	95	288	6
NMTAP	96	0	6
NMTAP	96	96	6
NMTAP	96	96	7
NMTAP	96	192	0
NMTAP	96	288	0
NMTAP	97	0	0
NMTAP	97	0	1
NMHLD	97	96	2	96
NMHLD	97	96	3	96
NMTAP	98	0	2
NMTAP	98	96	2
NMTAP	98	192	2
NMTAP	98	192	3
NMTAP	98	288	1
NMTAP	99	0	1
NMTAP	99	96	0
NMTAP	99	96	1
NMTAP	99	192	7
NMTAP	99	288	7
NMTAP	100	0	6
NMTAP	100	0	7
NMHLD	100	96	4	96
NMHLD	100	96	5	96
NMTAP	101	0	4
NMTAP	101	96	5
NMTAP	101	192	4
NMTAP	101	192	5
NMTAP	101	288	6
NMTAP	102	0	7
NMTAP	102	96	6
NMTAP	102	96	7
NMTAP	102	192	0
NMTAP	102	288	1
NMTAP	103	0	0
NMTAP	103	0	1
NMHLD	103	96	2	96
NMHLD	103	96	3	96
NMTAP	104	0	3
NMTAP	104	96	2
NMTAP	104	192	2
NMTAP	104	192	3
NMTAP	104	288	1
NMTAP	105	0	0
NMTAP	105	96	0
NMTAP	105	96	1
NMTAP	105	192	7
NMTAP	105	288	6
NMTAP	106	0	6
NMTAP	106	0	7
NMHLD	106	96	4	96
NMHLD	106	96	5	96
NMSTR	107	0	6
NMSI_	107	0	6	96	192	3
NMSTR	108	0	2
NMSCL	108	0	2	96	192	7
NMSTR	109	0	6
NMSCL	109	0	6	96	192	3
NMTAP	110	0	2
NMTAP	110	96	1
NMTAP	110	192	0
NMTAP	110	192	7
NMSTR	111	0	1
NMSI_	111	0	1	96	192	4
NMSTR	112	0	5
NMSCR	112	0	5	96	192	0
NMSTR	113	0	1
NMSCR	113	0	1	96	192	4
NMTAP	114	0	5
NMTAP	114	96	6
NMTAP	114	192	7
BRTAP	114	288	0
BRTAP	114	288	7

T_REC_TAP	367
T_REC_BRK	6
T_REC_XTP	16
T_REC_BXX	0
T_REC_HLD	22
T_REC_XHO	0
T_REC_BHO	0
T_REC_BXH	0
T_REC_STR	8
T_REC_BST	0
T_REC_XST	0
T_REC_XBS	0
T_REC_TTP	16
T_REC_THO	0
T_REC_SLD	8
T_REC_BSL	0
T_REC_ALL	443
T_NUM_TAP	407
T_NUM_BRK	6
T_NUM_HLD	22
T_NUM_SLD	8
T_NUM_ALL	443
T_JUDGE_TAP	413
T_JUDGE_HLD	88
T_JUDGE_SLD	8
T_JUDGE_ALL	509
TTM_EACHPAIRS	100
TTM_SCR_TAP	203500
TTM_SCR_BRK	15600
TTM_SCR_HLD	22000
TTM_SCR_SLD	12000
TTM_SCR_ALL	253100
TTM_SCR_S	244950
TTM_SCR_SS	252500
TTM_RAT_ACV	10023

