VERSION	0.00.00	1.04.00
FES_MODE	0
BPM_DEF	188.000	188.000	188.000	188.000
MET_DEF	4	4
RESOLUTION	384
CLK_DEF	384
COMPATIBLE_CODE	MA2

BPM	0	0	188.000
MET	0	0	4	4

NMTHO	1	192	0	72	C	0	M1
NMTTP	1	288	2	B	0	M1
NMTTP	1	288	2	E	0	M1
NMTTP	1	288	5	B	0	M1
NMTTP	1	288	6	E	0	M1
NMSTR	2	0	0
NMSI_	2	0	0	96	480	4
NMSTR	2	0	6
NMSCR	2	0	6	96	480	2
NMSTR	4	0	5
NMSCR	4	0	5	96	480	1
NMSTR	4	0	7
NMSI_	4	0	7	96	480	3
NMSTR	6	0	1
NMSCL	6	0	1	96	480	2
NMTTP	7	96	0	E	0	M1
NMTTP	7	192	0	C	0	M1
NMTTP	7	288	4	E	0	M1
NMTTP	8	0	3	E	0	M1
NMTTP	8	0	5	E	0	M1
NMTTP	8	96	0	C	0	M1
NMTTP	8	192	2	E	0	M1
NMTTP	8	192	6	E	0	M1
NMHLD	9	0	3	192
NMHLD	9	0	4	192
BRTAP	9	240	2
BRTAP	9	240	5
EXTAP	10	0	3
NMTAP	10	24	4
NMTAP	10	48	3
NMTAP	10	72	4
NMTAP	10	96	3
NMTAP	10	120	4
NMTAP	10	144	3
NMTAP	10	168	4
NMTAP	10	192	3
NMTAP	10	216	4
NMTAP	10	240	3
NMTAP	10	264	4
NMTAP	10	288	3
NMTAP	10	312	4
NMTAP	10	336	3
NMTAP	10	360	4
EXTAP	11	0	2
NMTAP	11	24	4
NMTAP	11	48	2
NMTAP	11	72	4
NMTAP	11	96	2
NMTAP	11	120	4
NMTAP	11	144	2
NMTAP	11	168	4
NMTAP	11	192	2
NMTAP	11	216	4
NMTAP	11	240	2
NMTAP	11	264	4
NMTAP	11	288	2
NMTAP	11	312	4
NMTAP	11	336	2
NMTAP	11	360	4
EXTAP	12	0	3
NMTAP	12	24	5
NMTAP	12	48	3
NMTAP	12	72	5
NMTAP	12	96	3
NMTAP	12	120	5
NMTAP	12	144	3
NMTAP	12	168	5
NMTAP	12	192	3
NMTAP	12	216	5
NMTAP	12	240	3
NMTAP	12	264	5
NMTAP	12	288	3
NMTAP	12	312	5
NMTAP	12	336	3
NMTAP	12	360	5
EXTAP	13	0	2
NMTAP	13	24	4
NMTAP	13	48	2
NMTAP	13	72	4
NMTAP	13	96	2
NMTAP	13	120	4
NMTAP	13	144	2
NMTAP	13	168	4
NMTAP	13	192	2
NMTAP	13	216	4
NMTAP	13	240	2
NMTAP	13	264	4
NMTAP	13	288	2
NMTAP	13	312	4
NMTAP	13	336	2
NMTAP	13	360	4
EXTAP	14	0	2
NMTAP	14	24	3
NMTAP	14	48	2
NMTAP	14	72	3
NMTAP	14	96	2
NMTAP	14	120	3
NMTAP	14	144	2
NMTAP	14	168	3
EXTAP	14	192	1
NMTAP	14	216	4
NMTAP	14	240	1
NMTAP	14	264	4
NMTAP	14	288	1
NMTAP	14	312	4
NMTAP	14	336	1
NMTAP	14	360	4
EXTAP	15	0	2
NMTAP	15	24	5
NMTAP	15	48	2
NMTAP	15	72	5
NMTAP	15	96	2
NMTAP	15	120	5
NMTAP	15	144	2
NMTAP	15	168	5
EXTAP	15	192	3
NMTAP	15	216	6
NMTAP	15	240	3
NMTAP	15	264	6
NMTAP	15	288	3
NMTAP	15	312	6
NMTAP	15	336	3
NMTAP	15	360	6
EXTAP	16	0	4
NMTAP	16	24	5
NMTAP	16	48	4
NMTAP	16	72	5
EXTAP	16	96	4
NMTAP	16	120	5
NMTAP	16	144	4
NMTAP	16	168	5
EXTAP	16	192	3
NMTAP	16	216	4
NMTAP	16	240	3
NMTAP	16	264	4
EXTAP	16	288	3
NMTAP	16	312	4
NMTAP	16	336	3
NMTAP	16	360	4
EXTAP	17	0	2
NMTAP	17	24	5
NMTAP	17	48	2
NMTAP	17	72	5
EXSTR	17	96	1
NMSI_	17	96	1	96	48	5
NMTAP	17	120	6
NMTAP	17	144	1
NMTAP	17	168	6
BXTAP	17	192	1
EXTAP	17	288	3
EXTAP	17	288	7
NMTAP	18	0	0
NMSTR	18	0	6
NMSCL	18	0	6	96	48	4
NMTAP	18	96	0
NMTAP	18	192	2
NMTAP	18	240	1
NMTAP	18	288	0
NMTAP	18	288	5
NMTAP	18	336	6
NMSTR	19	0	1
NMSCR	19	0	1	96	48	3
NMTAP	19	0	7
NMTAP	19	96	7
NMTAP	19	192	4
NMTAP	19	240	5
NMTAP	19	288	2
NMTAP	19	288	6
NMTAP	19	336	1
NMSTR	20	0	0
NMSI_	20	0	0	96	48	6
NMTAP	20	0	5
NMSTR	20	96	4
NMSI_	20	96	4	96	48	2
NMSTR	20	192	1
NMSI_	20	192	1	96	48	5
NMSTR	20	288	3
NMSI_	20	288	3	96	48	7
NMSTR	21	0	1
NMSXR	21	0	1	96	192	3
NMTTP	21	192	6	D	0	M1
NMTTP	21	288	5	D	0	M1
NMTAP	22	0	0
NMSTR	22	0	5
NMSCR	22	0	5	96	48	7
NMTAP	22	96	0
NMTAP	22	144	1
NMTAP	22	192	2
NMTAP	22	240	7
NMTAP	22	288	3
NMTAP	22	288	6
NMTAP	22	336	5
NMSTR	23	0	1
NMSCR	23	0	1	96	48	3
NMTAP	23	0	4
NMTAP	23	96	5
NMTAP	23	144	5
NMHLD	23	192	4	48
NMHLD	23	264	3	48
NMHLD	23	264	5	48
NMTAP	23	336	2
NMTAP	23	336	6
NMHLD	24	0	2	96
NMHLD	24	0	6	96
NMTAP	24	144	5
NMTAP	24	168	3
NMSTR	24	192	4
NMSXL	24	192	4	96	192	7
NMTTP	24	288	3	D	0	M1
NMTTP	25	0	2	D	0	M1
NMTTP	25	96	1	D	0	M1
NMTAP	25	192	0
NMTAP	25	216	6
NMTAP	25	240	0
EXTAP	25	288	1
EXTAP	25	288	5
EXTAP	26	0	0
EXTAP	26	0	4
NMTAP	26	48	1
NMTAP	26	72	3
NMTAP	26	120	3
NMTAP	26	144	2
NMTAP	26	192	2
NMTAP	26	216	4
NMTAP	26	264	4
NMTAP	26	288	3
NMTAP	26	336	3
NMTAP	27	0	3
NMTAP	27	0	6
NMTAP	27	48	6
NMTAP	27	72	4
NMTAP	27	120	4
NMTAP	27	144	5
NMTAP	27	192	5
NMTAP	27	216	3
NMTAP	27	264	3
NMTAP	27	288	4
NMTAP	27	336	4
NMTAP	28	0	1
NMSTR	28	0	5
NMSCR	28	0	5	96	96	0
NMSTR	28	96	0
NMSCR	28	96	0	96	96	3
NMSTR	28	192	3
NMSCR	28	192	3	96	96	6
NMSTR	28	288	6
NMSI_	28	288	6	96	72	0
EXTAP	29	0	2
CNSI_	29	72	0	0	72	2
CNSI_	29	144	2	0	48	4
EXTAP	29	288	0
EXTAP	29	288	5
NMTAP	30	0	6
NMTAP	30	48	6
NMTAP	30	72	7
NMTAP	30	120	7
NMTAP	30	144	6
NMTAP	30	192	0
NMTAP	30	192	5
NMTAP	30	240	1
NMTAP	30	240	4
EXTAP	30	288	2
EXTAP	30	288	3
NMTAP	31	0	5
NMTAP	31	48	5
NMTAP	31	72	4
NMTAP	31	120	4
NMTAP	31	144	6
NMTAP	31	192	1
NMTAP	31	240	1
NMTAP	31	264	0
NMTAP	31	312	0
NMTAP	31	336	2
NMHLD	32	0	6	72
NMHLD	32	72	4	72
NMTAP	32	144	5
NMHLD	32	192	2	72
NMHLD	32	264	3	72
NMTAP	32	336	1
EXTAP	33	0	7
EXTAP	33	72	0
EXTAP	33	72	6
EXTAP	33	144	1
EXTAP	33	144	5
NMTAP	33	192	4
NMTAP	33	216	2
NMTAP	33	240	4
NMTAP	33	264	2
NMTAP	33	288	4
NMTAP	33	312	3
NMTAP	33	336	4
NMTAP	33	360	3
BRSTR	34	0	4
NMSCR	34	0	4	96	192	7
NMTAP	34	96	2
NMTAP	34	144	2
NMTAP	34	192	2
NMTAP	34	288	3
NMSTR	35	0	4
NMSI_	35	0	4	96	192	1
NMTAP	35	0	6
NMTAP	35	144	5
NMTAP	35	192	5
NMTAP	35	288	4
NMTAP	36	0	0
NMSTR	36	0	3
NMSI_	36	0	3	96	192	6
NMTAP	36	144	1
NMTAP	36	192	1
NMTAP	36	288	2
NMSTR	37	0	3
NMSI_	37	0	3	96	192	0
NMTAP	37	0	7
NMTAP	37	144	6
NMTAP	37	192	6
NMTAP	37	288	5
NMSTR	38	0	4
NMSCR	38	0	4	96	192	0
NMTAP	38	96	1
NMTAP	38	144	1
NMTAP	38	192	1
NMTAP	38	288	2
NMSTR	39	0	3
NMSLL	39	0	3	96	192	7
NMTAP	39	0	7
NMTAP	39	144	6
NMTAP	39	192	6
NMTAP	39	288	5
NMTAP	40	0	0
NMSTR	40	0	4
NMSLR	40	0	4	96	192	0
NMTAP	40	144	1
NMTAP	40	192	1
NMTAP	40	288	2
NMHLD	41	0	3	192
NMTAP	41	0	7
NMTTP	41	192	0	C	0	M1
BRTAP	41	288	0
BRTAP	41	288	7
NMHLD	42	0	2	24
NMHLD	42	24	3	24
NMHLD	42	48	2	24
NMHLD	42	72	3	24
NMHLD	42	96	2	24
NMHLD	42	120	3	24
NMTAP	42	144	1
NMTAP	42	168	4
NMSTR	42	192	1
NMSV_	42	192	1	96	48	4
EXTAP	42	288	1
EXTAP	42	288	7
NMHLD	43	0	5	24
NMHLD	43	24	3	24
NMHLD	43	48	5	24
NMHLD	43	72	3	24
NMHLD	43	96	5	24
NMHLD	43	120	3	24
NMTAP	43	144	6
NMTAP	43	168	4
NMTAP	43	192	6
EXTAP	43	264	6
EXTAP	43	264	7
EXTAP	43	336	0
EXTAP	43	336	7
EXSTR	44	0	0
NMSI_	44	0	0	96	48	4
EXTAP	44	0	1
NMSTR	44	96	3
NMSI_	44	96	3	96	48	7
NMTAP	44	192	5
NMTAP	44	264	6
NMTAP	44	336	1
NMTAP	44	336	7
NMTAP	45	0	1
NMHLD	45	0	7	96
NMTAP	45	96	2
NMTAP	45	144	1
NMTAP	45	168	0
NMSTR	45	192	1
NMSI_	45	192	1	96	48	4
BXTAP	45	288	4
NMHLD	46	0	6	24
NMHLD	46	24	4	24
NMHLD	46	48	6	24
NMHLD	46	72	4	24
NMHLD	46	96	6	24
NMHLD	46	120	4	24
NMTAP	46	144	7
NMTAP	46	168	3
NMSTR	46	192	7
NMSV_	46	192	7	96	48	2
BXTAP	46	288	0
BXTAP	46	288	7
NMHLD	47	0	1	24
NMHLD	47	24	3	24
NMHLD	47	48	1	24
NMHLD	47	72	3	24
NMHLD	47	96	1	24
NMHLD	47	120	3	24
NMTAP	47	144	0
NMTAP	47	168	4
NMSTR	47	192	0
NMSV_	47	192	0	96	48	5
BXTAP	47	288	0
BXTAP	47	288	7
NMHLD	48	0	6	48
NMHLD	48	48	4	48
NMHLD	48	96	5	48
NMHLD	48	144	3	48
NMHLD	48	192	4	48
NMHLD	48	240	2	48
NMHLD	48	288	3	48
NMTAP	48	336	1
BXTAP	49	0	0
BXTAP	49	0	4
NMTAP	49	48	1
BXTAP	49	96	2
BXTAP	49	96	7
NMTAP	49	144	3
NMTTP	49	192	7	D	0	M1
NMTTP	49	200	6	A	0	M1
NMTTP	49	208	6	D	0	M1
NMTTP	49	216	5	A	0	M1
NMTTP	49	224	5	D	0	M1
NMTTP	49	232	4	A	0	M1
NMTTP	49	240	4	D	0	M1
NMTTP	49	248	3	A	0	M1
NMTTP	49	256	3	D	0	M1
NMTTP	49	264	2	A	0	M1
NMTTP	49	272	2	D	0	M1
NMTTP	49	280	1	A	0	M1
NMTTP	49	288	1	D	0	M1
EXSTR	50	0	0
NMSCR	50	0	0	96	288	5
EXTAP	50	0	7
NMTAP	50	192	7
NMTAP	50	288	0
NMSTR	51	0	1
NMSCR	51	0	1	96	288	6
NMTAP	51	192	0
NMTAP	51	288	1
NMSTR	52	0	2
NMSCR	52	0	2	96	120	4
NMTTP	52	192	6	E	0	M1
NMTTP	52	192	6	D	0	M1
NMTAP	52	288	0
NMSTR	53	0	0
NMSCL	53	0	0	96	120	6
NMTTP	53	192	3	E	0	M1
NMTTP	53	192	3	D	0	M1
NMTAP	53	288	4
NMSTR	54	0	4
NMSCL	54	0	4	96	120	2
NMTTP	54	192	5	E	0	M1
NMTTP	54	192	5	D	0	M1
NMTAP	54	288	6
NMSTR	55	0	6
NMSCR	55	0	6	96	120	0
NMTTP	55	192	2	E	0	M1
NMTTP	55	192	2	D	0	M1
NMTAP	55	288	2
EXSTR	56	0	2
NMSCL	56	0	2	96	288	4
EXTAP	56	160	4
EXSTR	56	288	4
NMSXL	56	288	4	96	192	3
NMTTP	57	288	4	E	0	M1
NMHLD	58	0	2	48
NMTAP	58	48	3
NMHLD	58	96	2	48
NMTAP	58	144	3
NMSTR	58	192	2
NMSI_	58	192	2	96	36	0
NMTAP	58	240	3
NMTAP	58	288	4
NMHLD	59	0	5	48
NMTAP	59	48	4
NMHLD	59	96	5	48
NMTAP	59	144	4
NMSTR	59	192	5
NMSI_	59	192	5	96	36	7
NMTAP	59	240	4
NMTAP	59	288	3
NMHLD	60	0	2	48
NMTAP	60	48	3
NMHLD	60	96	2	48
NMTAP	60	144	3
NMSTR	60	192	2
NMSI_	60	192	2	96	36	0
NMTAP	60	240	3
NMSTR	60	288	4
NMSI_	60	288	4	96	72	7
EXTAP	61	0	0
CNSCR	61	72	7	0	72	2
CNSUR	61	144	2	0	72	6
EXTAP	61	288	4
EXTAP	61	288	6
EXHLD	62	0	3	96
EXHLD	62	0	5	96
NMTAP	62	144	4
NMTAP	62	168	3
NMHLD	62	192	4	48
NMHLD	62	264	4	48
NMTAP	62	336	3
NMTAP	62	336	5
NMTAP	63	48	2
NMTAP	63	48	4
NMTAP	63	96	2
NMTAP	63	96	4
NMTAP	63	144	1
NMHLD	63	144	5	96
NMTAP	63	240	0
NMSTR	63	288	0
NMSXR	63	288	0	96	336	5
BRTAP	64	0	0
BRHLD	64	0	4	672
CNSXR	64	336	5	0	336	2
NMTAP	66	0	2
NMTAP	66	24	4
NMTAP	66	48	2
NMTAP	66	72	4
NMTAP	66	96	2
NMTAP	66	120	4
NMTAP	66	144	2
NMTAP	66	168	4
NMTAP	66	192	3
NMTAP	66	216	5
NMTAP	66	240	3
NMTAP	66	264	5
NMTAP	66	288	4
NMTAP	66	312	5
NMTAP	66	336	4
EXTAP	67	0	4
EXTAP	67	0	5
EXTAP	67	48	6
EXTAP	67	48	7
EXTAP	67	96	0
EXTAP	67	96	1
EXTAP	67	144	2
EXTAP	67	144	3
EXSTR	67	192	3
NMSI_	67	192	3	96	48	0
EXSTR	67	192	4
NMSI_	67	192	4	96	48	7
BRTAP	68	0	1
BRTAP	68	0	6
NMTAP	68	96	3
NMTAP	68	96	4
NMTAP	68	144	6
NMTAP	68	168	4
NMTAP	68	192	5
NMTAP	68	240	2
NMTAP	68	240	3
NMSTR	68	288	0
NMSI_	68	288	0	96	48	6
NMSTR	68	288	1
NMSI_	68	288	1	96	48	5
EXSTR	69	0	0
NMSI_	69	0	0	96	48	4
EXSTR	69	0	1
NMSI_	69	0	1	96	48	3
EXSTR	69	96	0
NMSI_	69	96	0	96	48	6
EXSTR	69	96	1
NMSI_	69	96	1	96	48	5
EXTAP	69	192	0
EXTAP	69	192	1
BXTAP	69	288	2
BXTAP	69	288	7
NMTAP	69	336	0
NMTAP	69	360	7
NMSTR	70	0	0
NMSCR	70	0	0	96	48	3
NMTAP	70	96	6
NMTAP	70	144	5
NMTAP	70	168	5
NMHLD	70	192	4	48
NMHLD	70	240	6	48
NMHLD	70	288	0	48
NMHLD	70	336	2	48
NMSTR	71	0	4
NMSCL	71	0	4	96	192	0
NMTTP	71	96	5	A	0	M1
NMTTP	71	192	6	A	0	M1
NMTTP	71	288	7	A	0	M1
NMTAP	71	336	6
NMTAP	71	360	5
NMSTR	72	0	4
NMSI_	72	0	4	96	48	7
NMSTR	72	96	2
NMSI_	72	96	2	96	48	6
NMTAP	72	96	4
NMTAP	72	144	1
NMSTR	72	192	0
NMSI_	72	192	0	96	48	3
NMSI_	72	192	0	96	48	5
NMTAP	72	192	2
NMTAP	72	288	0
NMSTR	73	0	6
NMSCR	73	0	6	96	96	1
NMSTR	73	96	1
NMSCR	73	96	1	96	96	4
NMSTR	73	192	4
NMSCR	73	192	4	96	96	7
NMTAP	73	288	7
NMSTR	74	0	3
NMSI_	74	0	3	96	48	0
NMTAP	74	96	3
NMSTR	74	96	5
NMSI_	74	96	5	96	48	1
NMTAP	74	144	6
NMTAP	74	192	5
NMSTR	74	192	7
NMSI_	74	192	7	96	48	2
NMSI_	74	192	7	96	48	4
NMTAP	74	288	7
NMSTR	75	0	1
NMSCL	75	0	1	96	96	6
BRTAP	75	96	4
BRTAP	75	192	4
BRTAP	75	288	3
BRTAP	75	288	5
NMTAP	75	336	2
NMTAP	75	360	3
NMSTR	76	0	2
NMSCL	76	0	2	96	96	6
NMSTR	76	96	6
NMSCL	76	96	6	96	96	2
NMTTP	76	192	1	A	0	M1
NMTTP	76	204	1	D	0	M1
NMTTP	76	216	0	A	0	M1
NMTTP	76	228	0	D	0	M1
NMTTP	76	240	7	A	0	M1
NMTTP	76	252	7	D	0	M1
NMTTP	76	264	6	A	0	M1
NMTTP	76	276	6	D	0	M1
NMTTP	76	288	5	A	0	M1
NMSTR	77	0	5
NMSCR	77	0	5	96	96	1
NMSTR	77	96	1
NMSCR	77	96	1	96	96	5
NMTTP	77	192	6	A	0	M1
NMTTP	77	204	7	D	0	M1
NMTTP	77	216	7	A	0	M1
NMTTP	77	228	0	D	0	M1
NMTTP	77	240	0	A	0	M1
NMTTP	77	252	1	D	0	M1
NMTTP	77	264	1	A	0	M1
NMTTP	77	276	2	D	0	M1
NMTTP	77	288	2	A	0	M1
NMHLD	78	0	2	96
NMHLD	78	96	4	96
NMHLD	78	192	6	96
NMHLD	78	288	0	96
NMSTR	79	0	2
NMSXR	79	0	2	96	240	7
NMTAP	79	96	4
NMTAP	79	144	5
NMSTR	79	192	6
NMSCL	79	192	6	96	48	3
NMTTP	79	288	0	C	0	M1
EXTAP	79	288	6
BRTAP	80	0	1
BRTAP	80	0	5
BRHLD	80	48	1	96
BRHLD	80	48	5	192
BRTAP	80	336	1
BRTAP	80	336	3
BRTAP	81	48	4
BRTAP	81	48	6
BRTAP	81	96	4
BRHLD	81	96	6	192
NMTAP	81	240	7
NMTAP	81	256	0
NMTAP	81	272	1
BRTAP	81	288	2
NMTAP	82	0	3
EXHLD	82	0	4	24
EXHLD	82	48	4	24
NMTAP	82	96	2
EXHLD	82	96	4	24
NMTAP	82	144	2
EXHLD	82	144	4	24
NMSTR	82	192	2
NMSCL	82	192	2	96	192	7
EXHLD	82	192	4	24
EXHLD	82	240	4	24
EXHLD	82	288	4	24
EXHLD	82	336	4	24
EXHLD	83	0	5	24
EXHLD	83	48	5	24
EXHLD	83	96	5	24
CNSXL	83	96	7	0	192	3
EXHLD	83	144	5	24
EXHLD	83	192	5	24
EXHLD	83	240	5	24
EXHLD	83	288	5	24
EXHLD	83	336	5	24
EXHLD	84	0	6	24
NMHLD	84	24	4	24
EXHLD	84	48	6	24
NMHLD	84	72	4	24
EXHLD	84	96	7	24
NMHLD	84	120	3	24
EXHLD	84	144	7	24
NMHLD	84	168	3	24
EXHLD	84	192	0	24
NMHLD	84	216	2	24
EXHLD	84	240	0	24
NMHLD	84	264	2	24
EXHLD	84	288	7	24
NMHLD	84	312	1	24
EXHLD	84	336	7	24
NMHLD	84	360	1	24
EXTAP	85	0	6
EXTAP	85	16	5
EXTAP	85	32	4
EXTAP	85	48	0
EXTAP	85	64	1
EXTAP	85	80	2
EXTAP	85	96	7
EXTAP	85	112	6
EXTAP	85	128	5
EXTAP	85	144	1
EXTAP	85	160	2
EXTAP	85	176	3
EXSTR	85	192	4
NMSF_	85	192	4	96	48	0
BRTAP	86	0	2
BRTAP	86	0	6
NMTAP	86	48	5
NMTAP	86	72	4
NMTAP	86	120	1
NMTAP	86	144	0
NMTAP	86	168	1
NMSTR	86	192	0
NMSI_	86	192	0	96	48	4
NMSTR	86	240	1
NMSI_	86	240	1	96	48	5
NMTAP	86	288	0
NMTAP	86	336	1
NMTAP	87	0	6
NMTAP	87	48	6
NMTAP	87	72	4
NMTAP	87	120	4
NMTAP	87	144	3
NMTAP	87	192	2
NMTAP	87	192	4
NMTAP	87	240	1
NMTAP	87	264	3
NMTAP	87	312	3
NMTAP	87	336	4
NMTAP	88	0	3
NMTAP	88	0	5
NMTAP	88	48	6
NMTAP	88	72	7
NMTAP	88	120	1
NMTAP	88	144	3
NMTAP	88	168	2
NMTAP	88	192	4
NMTAP	88	240	0
NMTAP	88	264	7
NMTAP	88	312	2
NMTAP	88	336	4
NMTAP	88	360	3
NMTAP	89	0	5
NMTAP	89	48	1
NMTAP	89	72	0
NMTAP	89	120	6
NMTAP	89	144	7
NMTAP	89	168	6
NMTAP	89	192	0
NMTAP	89	216	1
NMTAP	89	240	2
NMTAP	89	264	3
NMTAP	89	288	0
NMTAP	89	312	7
NMTAP	89	336	6
NMTAP	89	360	5
BXTAP	90	0	2
NMTAP	90	24	4
NMTAP	90	48	2
NMTAP	90	72	4
BXTAP	90	96	3
NMTAP	90	120	5
NMTAP	90	144	3
NMTAP	90	168	5
BXTAP	90	192	4
NMTAP	90	216	5
NMTAP	90	240	4
NMTAP	90	264	5
BXTAP	90	288	3
NMTAP	90	312	5
NMTAP	90	336	4
NMTAP	90	360	5
BXTAP	91	0	2
NMTAP	91	24	5
NMTAP	91	48	4
NMTAP	91	72	5
BXTAP	91	96	1
NMTAP	91	120	5
NMTAP	91	144	4
NMTAP	91	168	5
BXTAP	91	192	0
NMTAP	91	216	5
NMTAP	91	240	4
NMTAP	91	264	5
BXTAP	91	288	7
EXTAP	91	300	6
EXTAP	91	312	5
EXTAP	91	324	4
EXTAP	91	336	3
EXTAP	91	348	2
EXTAP	91	360	1
EXTAP	91	372	0
EXSTR	92	0	7
NMSLL	92	0	7	96	96	3
NMSLR	92	0	7	96	96	3
CNSXL	92	192	3	0	192	3
CNSXR	92	192	3	0	192	3
BXTAP	93	96	0
BXTAP	93	120	7
BXTAP	93	144	0
BXTAP	93	168	7
BXTAP	93	192	1
BXTAP	93	192	6

T_REC_TAP	381
T_REC_BRK	21
T_REC_XTP	71
T_REC_BXX	26
T_REC_HLD	69
T_REC_XHO	26
T_REC_BHO	4
T_REC_BXH	0
T_REC_STR	63
T_REC_BST	1
T_REC_XST	13
T_REC_XBS	0
T_REC_TTP	62
T_REC_THO	1
T_REC_SLD	80
T_REC_BSL	0
T_REC_ALL	818
T_NUM_TAP	590
T_NUM_BRK	52
T_NUM_HLD	96
T_NUM_SLD	80
T_NUM_ALL	818
T_JUDGE_TAP	638
T_JUDGE_HLD	144
T_JUDGE_SLD	80
T_JUDGE_ALL	862
TTM_EACHPAIRS	82
TTM_SCR_TAP	295000
TTM_SCR_BRK	135200
TTM_SCR_HLD	96000
TTM_SCR_SLD	120000
TTM_SCR_ALL	646200
TTM_SCR_S	621800
TTM_SCR_SS	641000
TTM_RAT_ACV	10081

