VERSION	0.00.00	1.04.00
FES_MODE	0
BPM_DEF	188.000	188.000	188.000	188.000
MET_DEF	4	4
RESOLUTION	384
CLK_DEF	384
COMPATIBLE_CODE	MA2

BPM	0	0	188.000
MET	0	0	4	4

BXTAP	2	0	0
BXSTR	2	0	7
NMSCL	2	0	7	96	1248	0
NMHLD	6	0	0	384
NMTAP	6	0	7
NMHLD	7	0	1	384
NMHLD	8	0	2	384
NMHLD	9	0	3	288
EXTAP	9	288	2
NMHLD	10	0	4	144
NMTAP	10	144	3
NMTAP	10	192	3
NMTAP	10	192	5
NMTAP	11	0	3
NMTAP	11	96	3
NMTAP	11	192	2
NMTAP	11	192	4
NMHLD	12	0	5	144
NMTAP	12	144	4
NMTAP	12	192	4
NMTAP	12	192	6
NMTAP	13	0	2
NMTAP	13	96	2
NMTAP	13	192	1
NMTAP	13	192	3
NMTAP	14	0	4
NMTAP	14	96	4
NMTAP	14	192	2
NMTAP	14	288	2
NMTAP	15	0	6
NMTAP	15	96	6
NMTAP	15	192	0
NMTAP	15	288	0
NMTAP	16	0	7
NMTAP	16	48	7
NMTAP	16	96	0
NMTAP	16	144	0
NMTAP	16	192	6
NMTAP	16	240	6
NMTAP	16	288	1
NMTAP	16	336	1
NMTAP	17	0	2
NMTAP	17	0	5
NMTAP	17	48	2
NMTAP	17	48	5
NMTAP	17	96	2
NMTAP	17	96	5
NMTAP	17	192	3
NMSTR	17	192	4
NMSI_	17	192	4	96	48	7
NMSTR	18	0	0
NMSI_	18	0	0	96	48	4
NMSTR	18	0	1
NMSI_	18	0	1	96	48	4
NMTAP	18	192	5
NMTAP	18	288	3
NMTAP	18	288	5
NMSTR	19	0	6
NMSI_	19	0	6	96	48	3
NMSTR	19	0	7
NMSI_	19	0	7	96	48	3
NMTAP	19	192	2
NMTAP	19	288	2
NMTAP	19	288	4
NMTAP	20	0	2
NMTAP	20	0	3
NMTAP	20	96	0
NMTAP	20	96	1
NMTAP	20	192	6
NMTAP	20	192	7
NMSTR	20	288	4
NMSCL	20	288	4	96	192	7
NMTAP	20	288	5
NMTTP	21	0	0	C	1	M1
NMTAP	21	288	6
NMTAP	21	288	7
NMHLD	22	0	5	96
NMHLD	22	96	7	96
NMHLD	22	192	0	96
NMTAP	22	288	2
NMHLD	23	0	2	96
NMHLD	23	96	0	96
NMHLD	23	192	7	96
NMTAP	23	288	5
NMHLD	24	0	1	96
NMHLD	24	0	6	96
NMTAP	24	144	0
NMTAP	24	144	7
NMTAP	24	192	0
NMSTR	24	192	7
NMSF_	24	192	7	96	192	3
BRTAP	25	192	2
BRTAP	25	192	4
NMTAP	26	0	2
NMTAP	26	96	0
NMTAP	26	96	1
NMTAP	26	192	6
NMTAP	26	240	6
NMTAP	26	288	6
NMTAP	26	288	7
NMTAP	27	0	5
NMTAP	27	96	6
NMTAP	27	96	7
NMTAP	27	192	1
NMTAP	27	240	1
NMTAP	27	288	0
NMTAP	27	288	1
NMHLD	28	0	2	96
NMTAP	28	96	3
NMHLD	28	192	5	96
NMTAP	28	288	4
NMTAP	29	0	3
NMTAP	29	0	5
NMTAP	29	96	3
NMTAP	29	96	5
NMTAP	29	192	2
NMTAP	29	192	4
NMTAP	29	288	2
NMTAP	29	288	4
NMHLD	30	0	1	192
NMTAP	30	96	0
NMTAP	30	192	7
NMTAP	30	288	0
NMTAP	30	288	6
NMHLD	31	0	6	192
NMTAP	31	96	7
NMTAP	31	192	0
NMTAP	31	288	1
NMTAP	31	288	7
NMTAP	32	0	2
NMTAP	32	48	2
NMTAP	32	96	2
NMTAP	32	96	3
NMTAP	32	192	5
NMTAP	32	240	5
NMTAP	32	288	4
NMTAP	32	288	5
NMTAP	33	0	3
NMTAP	33	48	3
NMTAP	33	96	4
NMTAP	33	144	4
NMTAP	33	192	2
BRTAP	33	288	1
BRTAP	33	288	5
NMHLD	34	0	6	192
NMTAP	34	96	7
NMTAP	34	144	7
NMTAP	34	192	7
NMTAP	34	288	0
NMTAP	34	288	6
NMHLD	35	0	1	192
NMTAP	35	96	0
NMTAP	35	144	0
NMTAP	35	192	0
NMTAP	35	288	1
NMTAP	35	288	7
NMHLD	36	0	2	192
NMTAP	36	96	3
NMTAP	36	144	3
NMTAP	36	192	3
NMTAP	36	288	2
NMTAP	36	288	4
NMHLD	37	0	5	192
NMTAP	37	96	4
NMTAP	37	144	4
NMTAP	37	192	4
NMTAP	37	288	3
NMTAP	37	288	5
NMHLD	38	0	1	192
NMTAP	38	96	2
NMTAP	38	144	2
NMTAP	38	192	2
NMTAP	38	288	1
NMTAP	38	288	2
NMHLD	39	0	6	192
NMTAP	39	96	5
NMTAP	39	144	5
NMTAP	39	192	5
NMTAP	39	288	5
NMTAP	39	288	6
NMTAP	40	0	2
NMTAP	40	48	2
NMTAP	40	96	0
NMTAP	40	192	5
NMTAP	40	240	5
NMTAP	40	288	7
NMHLD	41	0	3	192
NMTAP	41	0	4
NMSTR	41	192	5
NMSI_	41	192	5	96	48	1
NMTAP	42	0	0
NMTAP	42	0	2
NMTAP	42	48	0
NMTAP	42	48	2
NMTAP	42	96	0
NMTAP	42	96	2
NMTAP	42	192	0
NMTAP	42	192	1
NMTAP	42	288	6
NMTAP	42	288	7
NMTAP	43	0	5
NMTAP	43	0	7
NMTAP	43	48	5
NMTAP	43	48	7
NMTAP	43	96	5
NMTAP	43	96	7
NMTAP	43	192	6
NMTAP	43	192	7
NMTAP	43	288	0
NMTAP	43	288	1
NMHLD	44	0	2	96
NMHLD	44	96	3	96
NMHLD	44	192	4	96
NMTAP	44	288	5
NMTAP	45	0	3
NMSTR	45	0	6
NMSXR	45	0	6	96	192	5
NMTAP	46	0	4
NMTAP	46	0	6
NMTAP	46	48	4
NMTAP	46	48	6
NMTAP	46	96	4
NMTAP	46	96	6
NMTAP	46	192	4
NMTAP	46	192	5
NMTAP	46	288	2
NMTAP	46	288	3
NMTAP	47	0	1
NMTAP	47	0	3
NMTAP	47	48	1
NMTAP	47	48	3
NMTAP	47	96	1
NMTAP	47	96	3
NMTAP	47	192	2
NMTAP	47	192	3
NMTAP	47	288	4
NMTAP	47	288	5
NMHLD	48	0	6	144
NMTAP	48	96	0
NMHLD	48	144	0	144
NMTAP	48	240	7
NMTAP	48	288	7
NMTAP	49	0	0
NMTAP	49	0	7
NMTAP	49	96	3
NMTAP	49	96	4
BRTAP	49	192	1
BRTAP	49	192	6
NMSTR	50	0	2
NMSCR	50	0	2	96	192	5
NMTAP	50	288	6
NMSTR	51	0	6
NMSCR	51	0	6	96	192	1
NMTAP	51	288	2
NMSTR	52	0	2
NMSCL	52	0	2	96	192	7
NMTAP	52	288	6
NMSTR	53	0	6
NMSCL	53	0	6	96	192	3
NMTAP	53	288	1
NMSTR	54	0	1
NMSLR	54	0	1	96	192	7
NMTAP	54	288	6
NMSTR	55	0	6
NMSLL	55	0	6	96	192	0
NMTAP	55	288	1
NMSTR	56	0	1
NMSLL	56	0	1	96	192	3
NMTAP	56	288	4
NMHLD	57	0	2	192
NMHLD	57	0	4	192
EXTAP	57	288	6
NMHLD	58	0	7	384
NMTTP	58	96	7	E	0	M1
NMTTP	58	192	6	E	0	M1
NMTTP	58	288	5	E	0	M1
NMHLD	59	0	0	384
NMTTP	59	96	1	E	0	M1
NMTTP	59	192	2	E	0	M1
NMTTP	59	288	3	E	0	M1
NMHLD	60	0	6	384
NMTTP	60	96	5	E	0	M1
NMTTP	60	192	6	D	0	M1
NMTTP	60	288	7	E	0	M1
NMTHO	61	0	0	192	C	0	M1
EXHLD	62	0	0	96
EXHLD	62	0	7	96
EXTAP	62	192	1
EXTAP	62	192	6
EXTAP	62	264	2
EXTAP	62	264	5
EXTAP	62	336	3
EXTAP	62	336	4
NMTAP	63	48	2
NMTAP	63	48	5
NMTAP	63	96	2
NMTAP	63	96	5
NMTAP	63	144	2
NMTAP	63	144	5
NMTAP	63	240	1
NMTAP	63	240	6
NMSTR	63	288	1
NMSI_	63	288	1	96	216	5
NMTAP	63	288	6
CNSI_	64	216	5	0	144	7
CNSI_	64	360	7	0	216	3
NMSTR	65	288	4
NMSF_	65	288	4	96	216	0
NMTAP	67	0	1
NMTAP	67	0	7
NMTAP	67	48	1
NMTAP	67	48	7
NMTAP	67	96	1
NMTAP	67	96	7
NMTAP	67	192	3
NMTAP	67	192	4
BRTAP	67	288	1
BRTAP	67	288	6
NMSTR	68	0	0
NMSI_	68	0	0	96	48	5
NMSTR	68	0	1
NMSI_	68	0	1	96	48	4
NMSTR	68	192	6
NMSI_	68	192	6	96	48	3
NMSTR	68	192	7
NMSI_	68	192	7	96	48	2
NMTAP	69	0	0
NMTAP	69	0	1
NMTAP	69	96	2
NMTAP	69	96	3
NMTAP	69	192	4
NMTAP	69	192	5
NMTAP	69	288	6
NMTAP	69	288	7
NMTAP	70	0	0
NMSTR	70	0	1
NMSI_	70	0	1	96	48	3
NMSTR	70	192	6
NMSI_	70	192	6	96	48	4
NMTAP	70	192	7
BRTAP	71	0	2
BRTAP	71	0	3
BRTAP	71	96	0
BRTAP	71	96	1
BRTAP	71	192	6
BRTAP	71	192	7
BRTAP	71	288	4
BRTAP	71	288	5
NMSTR	72	0	2
NMSI_	72	0	2	96	48	7
NMSTR	72	0	3
NMSI_	72	0	3	96	48	6
NMSTR	72	192	4
NMSI_	72	192	4	96	48	1
NMSTR	72	192	5
NMSI_	72	192	5	96	48	0
NMTAP	73	0	2
NMTAP	73	0	7
NMTAP	73	96	4
NMTAP	73	96	5
NMTAP	73	192	2
NMTAP	73	192	3
NMTAP	73	288	0
NMTAP	73	288	5
NMTAP	74	0	6
NMTAP	74	0	7
NMTAP	74	96	4
NMTAP	74	96	5
NMTAP	74	192	2
NMTAP	74	192	3
NMSTR	74	288	0
NMSCL	74	288	0	96	192	2
NMTAP	74	288	1
NMTTP	75	0	0	C	1	M1
NMTAP	75	288	1
NMTAP	75	336	1
NMHLD	76	0	0	96
NMTAP	76	96	1
NMTAP	76	192	2
NMTAP	76	192	7
NMTAP	76	288	6
NMTAP	76	336	6
NMHLD	77	0	7	96
NMTAP	77	96	6
NMTAP	77	192	0
NMTAP	77	192	5
NMTAP	77	288	1
NMTAP	77	336	1
NMHLD	78	0	0	96
NMHLD	78	96	7	96
NMHLD	78	192	5	96
NMSTR	78	288	3
NMSUL	78	288	3	96	96	7
NMSUR	78	288	3	96	96	7
BRTAP	79	192	0
BRTAP	79	192	6
NMTAP	79	288	2
NMTAP	79	288	4
EXTAP	80	0	1
EXTAP	80	0	5
EXHLD	80	48	1	192
EXHLD	80	48	5	192
EXTAP	80	336	3
EXTAP	80	336	7
EXTAP	81	48	3
EXTAP	81	48	7
EXSTR	81	96	3
NMSXR	81	96	3	96	96	1
EXSTR	81	96	7
NMSXR	81	96	7	96	96	5
NMTAP	82	0	0
NMTAP	82	96	1
NMTAP	82	96	7
NMTAP	82	192	2
NMTAP	82	240	3
NMTAP	82	288	1
NMTAP	82	288	4
NMTAP	83	0	7
NMTAP	83	96	0
NMTAP	83	96	6
NMTAP	83	192	5
NMTAP	83	240	4
NMTAP	83	288	3
NMTAP	83	288	6
NMTAP	84	0	1
NMTAP	84	48	1
NMTAP	84	96	7
NMTAP	84	144	7
NMTAP	84	192	0
NMTAP	84	240	0
NMTAP	84	288	6
NMTAP	84	336	6
NMTAP	85	0	1
NMTAP	85	0	6
NMTAP	85	48	1
NMTAP	85	48	6
NMTAP	85	96	1
NMTAP	85	96	6
NMSTR	85	192	0
NMSCR	85	192	0	96	48	3
NMSTR	85	192	7
NMSCL	85	192	7	96	48	4
EXTAP	86	0	3
EXTAP	86	0	4
NMTAP	86	96	2
NMTAP	86	96	3
NMTAP	86	192	1
NMTAP	86	192	2
NMTAP	86	288	0
NMTAP	86	288	1
NMTAP	87	0	0
NMTAP	87	0	7
NMTAP	87	96	6
NMTAP	87	96	7
NMTAP	87	192	5
NMTAP	87	192	6
NMTAP	87	288	4
NMTAP	87	288	5
NMTAP	88	0	3
NMTAP	88	0	4
NMTAP	88	96	4
NMTAP	88	96	5
NMTAP	88	192	5
NMTAP	88	192	6
NMTAP	88	288	6
NMTAP	88	288	7
NMTAP	89	0	0
NMTAP	89	0	7
NMTAP	89	96	0
NMTAP	89	96	1
NMTAP	89	192	1
NMTAP	89	192	2
NMTAP	89	288	2
NMTAP	89	288	3
NMHLD	90	0	3	48
NMHLD	90	0	4	48
NMHLD	90	96	1	48
NMHLD	90	96	2	48
NMHLD	90	192	0	48
NMHLD	90	192	7	48
NMHLD	90	288	5	48
NMHLD	90	288	6	48
NMHLD	91	0	3	48
NMHLD	91	0	4	48
NMHLD	91	96	5	48
NMHLD	91	96	6	48
NMHLD	91	192	0	48
NMHLD	91	192	7	48
NMHLD	91	288	1	48
NMHLD	91	288	2	48
NMSTR	92	0	3
NMSXR	92	0	3	96	288	4
NMSTR	92	0	4
NMSXL	92	0	4	96	288	3
NMTAP	93	96	0
NMTAP	93	96	7
NMTAP	93	144	0
NMTAP	93	144	7
BRTAP	93	192	0
BRTAP	93	192	7

T_REC_TAP	314
T_REC_BRK	20
T_REC_XTP	16
T_REC_BXX	1
T_REC_HLD	56
T_REC_XHO	4
T_REC_BHO	0
T_REC_BXH	0
T_REC_STR	34
T_REC_BST	0
T_REC_XST	2
T_REC_XBS	1
T_REC_TTP	11
T_REC_THO	1
T_REC_SLD	38
T_REC_BSL	0
T_REC_ALL	498
T_NUM_TAP	377
T_NUM_BRK	22
T_NUM_HLD	61
T_NUM_SLD	38
T_NUM_ALL	498
T_JUDGE_TAP	399
T_JUDGE_HLD	178
T_JUDGE_SLD	38
T_JUDGE_ALL	615
TTM_EACHPAIRS	149
TTM_SCR_TAP	188500
TTM_SCR_BRK	57200
TTM_SCR_HLD	61000
TTM_SCR_SLD	57000
TTM_SCR_ALL	363700
TTM_SCR_S	350700
TTM_SCR_SS	361500
TTM_RAT_ACV	10060

