VERSION	0.00.00	1.04.00
FES_MODE	0
BPM_DEF	174.000	174.000	174.000	174.000
MET_DEF	4	4
RESOLUTION	384
CLK_DEF	384
COMPATIBLE_CODE	MA2

BPM	0	0	174.000
MET	0	0	4	4

NMTHO	1	0	0	384	C	1	M1
NMTTP	6	0	3	E	0	M1
NMTTP	6	0	5	E	0	M1
NMTTP	6	192	7	E	0	M1
NMTTP	7	0	3	E	0	M1
NMTTP	7	0	5	E	0	M1
NMTTP	7	192	1	E	0	M1
NMTTP	8	0	3	E	0	M1
NMTTP	8	0	5	E	0	M1
NMTTP	8	192	6	A	0	M1
NMTTP	8	192	7	A	0	M1
NMTTP	9	0	3	E	0	M1
NMTTP	9	0	5	E	0	M1
NMTTP	9	192	0	A	0	M1
NMTTP	9	192	1	A	0	M1
NMTTP	9	192	1	D	0	M1
EXTAP	10	0	2
EXHLD	10	0	5	384
NMTAP	10	192	4
NMHLD	11	0	2	384
NMTAP	11	96	4
NMTAP	11	192	3
NMHLD	12	0	5	384
NMTAP	12	192	4
NMHLD	13	0	2	288
NMTAP	13	144	3
NMHLD	13	192	3	96
EXTAP	14	0	3
EXHLD	14	0	4	384
NMTAP	14	192	6
NMHLD	15	0	3	384
NMTAP	15	96	2
NMTAP	15	192	1
NMTAP	16	0	4
NMTAP	16	96	2
NMTAP	16	96	3
NMTAP	16	192	0
NMTAP	16	192	1
NMTAP	16	240	1
NMTAP	16	288	6
NMTAP	16	288	7
NMTAP	16	336	6
NMTTP	17	0	2	B	0	M1
NMTTP	17	0	3	B	0	M1
NMTTP	17	0	3	E	0	M1
NMTTP	17	0	4	B	0	M1
NMTTP	17	0	4	E	0	M1
NMTTP	17	96	6	B	0	M1
NMTTP	17	96	6	A	0	M1
NMTTP	17	144	7	B	0	M1
NMTTP	17	144	7	A	0	M1
NMTTP	17	192	0	B	0	M1
NMTTP	17	192	0	A	0	M1
EXTAP	17	288	1
EXTAP	17	288	5
NMHLD	18	0	3	96
BXTAP	18	0	4
NMHLD	18	96	2	96
NMHLD	18	192	1	96
NMHLD	18	288	0	96
BXHLD	19	0	3	96
NMHLD	19	96	4	96
NMHLD	19	192	5	96
NMHLD	19	288	6	96
BXTAP	20	0	2
NMTAP	20	48	1
NMTAP	20	96	0
NMTAP	20	96	3
NMTAP	20	144	4
BXTAP	20	192	1
EXTAP	20	192	5
NMTAP	20	240	2
NMTAP	20	288	3
NMTAP	20	288	6
NMTAP	20	336	5
BXTAP	21	0	0
EXTAP	21	0	4
NMTAP	21	96	6
NMTAP	21	96	7
NMSTR	21	192	3
NMSI_	21	192	3	96	48	0
NMSI_	21	192	3	96	48	6
NMTAP	21	192	4
BRTAP	21	288	3
NMSTR	22	0	5
NMSI_	22	0	5	96	48	2
NMSTR	22	96	1
NMSI_	22	96	1	96	48	6
NMSTR	22	192	4
NMSI_	22	192	4	96	48	7
NMSTR	22	288	0
NMSI_	22	288	0	96	48	3
NMSTR	23	0	5
NMSCR	23	0	5	96	96	1
NMSTR	23	96	1
NMSUR	23	96	1	96	96	5
NMTAP	23	144	2
NMTAP	23	192	3
NMTAP	23	288	0
NMSTR	24	0	2
NMSI_	24	0	2	96	48	5
NMSTR	24	96	6
NMSI_	24	96	6	96	48	1
NMSTR	24	192	3
NMSI_	24	192	3	96	48	0
NMSTR	24	288	7
NMSI_	24	288	7	96	48	4
NMSTR	25	0	2
NMSCL	25	0	2	96	96	6
NMSTR	25	96	6
NMSUL	25	96	6	96	96	2
NMTAP	25	144	5
NMTAP	25	192	4
NMTAP	25	288	7
EXSTR	26	0	0
NMSCR	26	0	0	96	96	4
EXHLD	26	0	6	96
NMTAP	26	144	7
NMHLD	26	192	0	96
NMTAP	26	288	1
EXTAP	27	0	2
EXSTR	27	0	7
NMSCL	27	0	7	96	96	3
NMTAP	27	72	1
NMTAP	27	144	0
NMHLD	27	192	7	96
NMTAP	27	288	6
NMTAP	27	336	0
NMTAP	27	360	1
EXHLD	28	0	2	96
EXSTR	28	0	4
NMSCR	28	0	4	96	96	0
NMTAP	28	144	3
NMHLD	28	192	4	96
NMTAP	28	288	5
EXTAP	29	0	3
EXTAP	29	0	6
NMTAP	29	72	1
NMTAP	29	72	4
NMTAP	29	144	6
NMTAP	29	144	7
NMTAP	29	192	1
NMTAP	29	192	5
NMTAP	29	240	3
NMTAP	29	288	1
NMTAP	29	288	5
NMSTR	30	0	6
NMSI_	30	0	6	96	48	3
NMSTR	30	96	2
NMSI_	30	96	2	96	48	7
NMSTR	30	192	5
NMSI_	30	192	5	96	48	0
NMSTR	30	288	1
NMSI_	30	288	1	96	48	4
NMSTR	31	0	6
NMSCR	31	0	6	96	96	2
NMSTR	31	96	2
NMSUR	31	96	2	96	96	6
NMTAP	31	144	3
NMTAP	31	192	4
NMTAP	31	288	0
NMSTR	32	0	1
NMSI_	32	0	1	96	48	4
NMSTR	32	96	5
NMSI_	32	96	5	96	48	0
NMSTR	32	192	2
NMSI_	32	192	2	96	48	7
NMSTR	32	288	6
NMSI_	32	288	6	96	48	3
NMSTR	33	0	1
NMSCL	33	0	1	96	96	5
NMSTR	33	96	5
NMSUL	33	96	5	96	96	1
NMTAP	33	144	4
NMTAP	33	192	3
NMTAP	33	288	7
EXSTR	34	0	0
NMSI_	34	0	0	96	48	3
EXSTR	34	0	6
NMSI_	34	0	6	96	48	3
NMTAP	34	192	5
NMTAP	34	224	4
NMTAP	34	256	6
NMTAP	34	288	2
NMTAP	34	320	3
NMTAP	34	352	1
EXTAP	35	0	0
EXTAP	35	0	7
NMTAP	35	72	2
NMTAP	35	72	3
NMTAP	35	144	4
NMTAP	35	144	5
NMHLD	35	192	6	96
NMHLD	35	192	7	96
NMTAP	35	336	0
NMTAP	35	360	1
EXSTR	36	0	2
NMSI_	36	0	2	96	48	7
EXSTR	36	0	4
NMSI_	36	0	4	96	48	7
NMTTP	36	192	0	A	0	M1
NMTTP	36	208	1	D	0	M1
NMTTP	36	224	1	A	0	M1
NMTTP	36	240	2	D	0	M1
NMTTP	36	256	2	A	0	M1
NMTTP	36	272	3	D	0	M1
NMTTP	36	288	3	A	0	M1
NMTTP	36	304	4	D	0	M1
NMTTP	36	320	4	A	0	M1
NMTTP	36	336	5	D	0	M1
NMTTP	36	352	5	A	0	M1
NMTTP	36	368	6	D	0	M1
EXTAP	37	0	7
NMTAP	37	64	1
EXTAP	37	96	0
EXTAP	37	96	1
NMTAP	37	160	6
EXTAP	37	192	6
EXTAP	37	192	7
NMTAP	37	256	5
EXTAP	37	288	4
EXTAP	37	288	5
NMTAP	37	352	2
BXTAP	38	0	2
BXSTR	38	0	3
NMSCL	38	0	3	96	384	6
CNSLL	39	96	6	0	192	0
NMTAP	40	0	1
NMHLD	40	0	5	576
NMTAP	40	96	2
NMTAP	40	192	3
NMTAP	40	288	4
NMTAP	41	0	6
NMTAP	41	96	7
NMTAP	41	192	0
NMTAP	41	288	1
NMTAP	41	320	7
NMTAP	41	352	1
EXHLD	42	0	2	576
EXTAP	42	0	6
NMTAP	42	96	5
NMTAP	42	192	4
NMTAP	42	288	3
NMTAP	43	0	1
NMTAP	43	96	0
NMTAP	43	192	7
NMTAP	43	288	6
NMTAP	43	320	0
NMTAP	43	352	6
EXSTR	44	0	1
BRSI_	44	0	1	96	48	5
EXHLD	44	0	5	96
EXHLD	44	192	2	96
EXSTR	44	192	6
BRSI_	44	192	6	96	48	2
BRTAP	45	0	0
NMTAP	45	0	5
BRTAP	45	96	1
NMTAP	45	96	6
BRTAP	45	192	2
NMTAP	45	192	7
BRTAP	45	288	3
NMTAP	45	288	4
EXTAP	46	0	6
NMTAP	46	32	6
NMTAP	46	64	0
NMTAP	46	96	7
NMTAP	46	128	7
NMSTR	46	160	1
NMSI_	46	160	1	96	64	4
NMSTR	46	192	0
NMSI_	46	192	0	96	64	5
NMTAP	46	256	1
NMTAP	46	288	0
NMTAP	47	0	2
NMTAP	47	32	2
NMTAP	47	64	4
NMTAP	47	96	3
NMTAP	47	128	3
NMSTR	47	160	5
NMSI_	47	160	5	96	64	0
NMSTR	47	192	4
NMSI_	47	192	4	96	64	1
NMTAP	47	256	5
NMTAP	47	288	4
NMTAP	48	0	6
NMTAP	48	32	6
NMTAP	48	64	0
NMTAP	48	96	7
NMTAP	48	128	7
NMSTR	48	160	1
NMSI_	48	160	1	96	64	4
NMSTR	48	192	0
NMSI_	48	192	0	96	64	5
NMTAP	48	256	1
NMTAP	48	288	0
NMTAP	49	0	2
NMTAP	49	32	2
NMTAP	49	64	4
NMTAP	49	96	3
NMTAP	49	128	3
NMTAP	49	160	5
BXTAP	49	192	4
BXTAP	49	192	5
BXTAP	49	256	0
BXTAP	49	256	7
BXTAP	49	320	2
BXTAP	49	320	3
EXTAP	50	0	1
NMTAP	50	32	1
NMTAP	50	64	7
NMTAP	50	96	0
NMTAP	50	128	0
NMSTR	50	160	6
NMSV_	50	160	6	96	64	3
NMSTR	50	192	7
NMSCR	50	192	7	96	64	2
NMTAP	50	256	6
NMTAP	50	288	7
NMTAP	51	0	5
NMTAP	51	32	5
NMTAP	51	64	3
NMTAP	51	96	4
NMTAP	51	128	4
NMSTR	51	160	2
NMSV_	51	160	2	96	64	7
NMSTR	51	192	3
NMSCR	51	192	3	96	64	6
NMTAP	51	256	2
NMTAP	51	288	3
NMTAP	52	0	1
NMTAP	52	32	1
NMTAP	52	64	7
NMTAP	52	96	0
NMTAP	52	128	0
NMSTR	52	160	6
NMSV_	52	160	6	96	64	3
NMSTR	52	192	7
NMSCR	52	192	7	96	64	2
NMTAP	52	256	6
NMTAP	52	288	7
NMTAP	53	0	5
NMTAP	53	32	5
NMTAP	53	64	3
NMTAP	53	96	4
NMTAP	53	128	4
NMTAP	53	160	2
BXHLD	53	192	3	64
NMTAP	53	288	0
NMTAP	53	320	0
NMTAP	53	352	0
BXSTR	54	0	1
NMSCR	54	0	1	96	384	7
BXTAP	54	0	7
NMTTP	54	192	0	C	0	M1
NMSTR	55	0	7
NMSCR	55	0	7	96	384	5
NMTTP	55	192	0	C	0	M1
NMSTR	56	0	5
NMSCR	56	0	5	96	384	3
NMTTP	56	192	0	C	0	M1
NMSTR	57	0	3
NMSCR	57	0	3	96	288	1
NMTTP	57	192	0	C	0	M1
EXHLD	58	0	5	768
NMTTP	58	144	7	E	0	M1
NMTTP	58	192	0	E	0	M1
NMTTP	58	240	1	E	0	M1
NMTTP	58	288	2	E	0	M1
NMTTP	58	336	3	E	0	M1
NMTAP	59	0	4
NMTAP	59	96	6
NMTAP	59	192	7
NMTAP	59	288	0
NMHLD	60	0	2	576
NMTTP	60	144	1	E	0	M1
NMTTP	60	192	0	E	0	M1
NMTTP	60	240	7	E	0	M1
NMTTP	60	288	6	E	0	M1
NMTTP	60	336	5	E	0	M1
NMTAP	61	0	3
NMTAP	61	96	1
NMTAP	61	192	0
NMTAP	61	288	1
NMTAP	61	288	6
EXTAP	62	0	3
EXTAP	62	0	4
NMTAP	62	96	4
NMTAP	62	96	5
NMTAP	62	192	3
NMTAP	62	192	4
NMTAP	62	288	2
NMTAP	62	288	3
NMTAP	63	0	3
NMTAP	63	0	4
NMTAP	63	96	4
NMTAP	63	96	5
NMTAP	63	192	3
NMSTR	63	192	4
NMSCR	63	192	4	96	96	0
NMTAP	63	288	2
NMTAP	64	0	1
NMTAP	64	96	0
NMTAP	64	96	7
NMTAP	64	192	6
NMTAP	64	192	7
NMTAP	64	288	0
NMTAP	64	288	7
NMTAP	65	0	0
NMTAP	65	0	1
NMTAP	65	96	0
NMTAP	65	96	7
NMTAP	65	192	6
NMSTR	65	192	7
NMSI_	65	192	7	96	48	3
NMTAP	65	288	4
EXTAP	66	0	4
EXTAP	66	0	5
NMTAP	66	48	4
NMTAP	66	48	5
NMTAP	66	96	3
NMTAP	66	96	4
NMTAP	66	144	3
NMTAP	66	144	4
NMTAP	66	192	2
NMTAP	66	192	3
NMTAP	66	240	2
NMTAP	66	240	3
NMTAP	66	288	3
NMTAP	66	288	4
NMTAP	66	336	3
NMTAP	66	336	4
EXTAP	67	0	4
EXTAP	67	0	5
NMTAP	67	48	3
NMTAP	67	48	6
NMTAP	67	96	2
NMTAP	67	96	7
NMTAP	67	144	0
NMTAP	67	144	1
NMTAP	67	192	2
NMTAP	67	192	3
NMTAP	67	240	4
NMTAP	67	240	5
NMTAP	67	288	6
NMTAP	67	288	7
EXTAP	68	0	1
NMTAP	68	24	0
NMTAP	68	48	1
NMTAP	68	72	0
NMTAP	68	96	1
NMTAP	68	120	0
NMTAP	68	144	1
NMTAP	68	168	0
EXTAP	68	192	2
NMTAP	68	216	3
NMTAP	68	240	2
NMTAP	68	264	3
NMTAP	68	288	2
NMTAP	68	312	3
NMTAP	68	336	2
EXHLD	69	0	4	192
EXTAP	69	0	5
NMSTR	69	96	7
NMSI_	69	96	7	96	48	3
BRTAP	69	288	1
BRTAP	69	288	5
EXSTR	70	0	3
NMSI_	70	0	3	96	48	7
EXTAP	70	0	6
NMTAP	70	72	4
NMTAP	70	96	3
NMSTR	70	144	5
NMSI_	70	144	5	96	48	2
NMTAP	70	216	6
NMTAP	70	240	5
NMTAP	70	288	7
NMTAP	70	312	0
NMTAP	70	336	1
NMTAP	70	360	2
NMSTR	71	0	4
NMSI_	71	0	4	96	48	0
NMTAP	71	72	3
NMTAP	71	96	4
NMSTR	71	144	2
NMSI_	71	144	2	96	48	5
NMTAP	71	216	1
NMTAP	71	240	2
NMTAP	71	288	0
NMTAP	71	312	7
NMTAP	71	336	6
NMTAP	71	360	5
NMSTR	72	0	3
NMSI_	72	0	3	96	48	7
NMTAP	72	72	4
NMTAP	72	96	3
NMSTR	72	144	5
NMSI_	72	144	5	96	48	2
NMTAP	72	216	6
NMTAP	72	240	5
NMTAP	72	288	7
NMTAP	72	312	0
NMTAP	72	336	1
NMTAP	72	360	2
NMSTR	73	0	4
NMSI_	73	0	4	96	48	0
NMTAP	73	72	3
NMTAP	73	96	4
NMTAP	73	144	2
NMTAP	73	216	1
NMTAP	73	240	7
NMTAP	73	288	6
NMTAP	73	312	0
NMTAP	73	336	6
NMTAP	73	360	0
EXSTR	74	0	7
NMSI_	74	0	7	96	48	3
NMTAP	74	72	0
NMTAP	74	96	7
NMSTR	74	144	1
NMSI_	74	144	1	96	48	6
NMTAP	74	216	2
NMTAP	74	240	1
NMTAP	74	288	3
NMTAP	74	312	4
NMTAP	74	336	5
NMTAP	74	360	6
EXSTR	75	0	0
NMSI_	75	0	0	96	48	4
NMTAP	75	72	7
NMTAP	75	96	0
NMTAP	75	144	6
NMTAP	75	216	3
NMTAP	75	240	5
NMTAP	75	288	2
NMTAP	75	312	3
NMTAP	75	336	2
NMTAP	75	360	3
EXSTR	76	0	2
BRSI_	76	0	2	96	48	0
BRSI_	76	0	2	96	48	4
NMTAP	76	64	2
EXTAP	76	96	2
EXSTR	76	192	5
BRSI_	76	192	5	96	48	3
BRSI_	76	192	5	96	48	7
NMTAP	76	256	5
EXTAP	76	288	5
NMTAP	77	0	0
NMTAP	77	0	2
NMTAP	77	64	6
NMTAP	77	96	5
NMTAP	77	96	7
NMTAP	77	160	1
NMSTR	77	192	0
NMSI_	77	192	0	96	48	5
NMSTR	77	192	2
NMSI_	77	192	2	96	48	5
BRTAP	77	288	0
BRTAP	77	288	2
EXSTR	78	0	3
NMSUL	78	0	3	96	72	7
NMTAP	78	72	4
NMTAP	78	96	3
NMSTR	78	144	5
NMSCL	78	144	5	96	48	2
NMTAP	78	216	6
NMTAP	78	240	5
NMTAP	78	288	7
NMTAP	78	312	0
NMTAP	78	336	1
NMTAP	78	360	2
NMSTR	79	0	4
NMSUR	79	0	4	96	72	0
NMTAP	79	72	3
NMTAP	79	96	4
NMSTR	79	144	2
NMSCR	79	144	2	96	48	5
NMTAP	79	216	1
NMTAP	79	240	2
NMTAP	79	288	0
NMTAP	79	312	7
NMTAP	79	336	6
NMTAP	79	360	5
NMSTR	80	0	3
NMSUL	80	0	3	96	72	7
NMTAP	80	72	4
NMTAP	80	96	3
NMSTR	80	144	5
NMSCL	80	144	5	96	48	2
NMTAP	80	216	6
NMTAP	80	240	5
NMTAP	80	288	7
NMTAP	80	312	0
NMTAP	80	336	1
NMTAP	80	360	2
NMSTR	81	0	4
NMSUR	81	0	4	96	72	0
NMTAP	81	72	3
NMTAP	81	96	4
NMSTR	81	144	2
NMSCR	81	144	2	96	48	5
NMTAP	81	216	1
NMTAP	81	240	2
NMTAP	81	288	0
NMTAP	81	312	7
NMTAP	81	336	6
NMTAP	81	360	5
EXTAP	82	0	1
EXTAP	82	0	4
NMTAP	82	96	4
NMTAP	82	96	5
NMTAP	82	144	5
NMTAP	82	192	5
NMTAP	82	192	6
NMTAP	82	240	6
NMTAP	82	288	6
NMTAP	82	288	7
NMTAP	82	336	7
EXTAP	83	0	0
EXTAP	83	0	7
NMTAP	83	48	0
NMTAP	83	96	0
NMTAP	83	96	1
NMTAP	83	144	1
NMTAP	83	192	1
NMTAP	83	192	2
NMTAP	83	240	2
NMTAP	83	288	2
NMTAP	83	288	3
EXSTR	84	0	3
NMSI_	84	0	3	96	48	0
EXSTR	84	0	5
NMSI_	84	0	5	96	48	0
NMTAP	84	192	1
NMTAP	84	216	7
NMTAP	84	240	2
NMTAP	84	264	6
NMTAP	84	288	3
NMTAP	84	312	5
NMTAP	84	336	2
NMTAP	84	360	6
NMTAP	85	0	1
NMTAP	85	72	3
NMTAP	85	72	4
NMTAP	85	144	0
NMTAP	85	144	6
NMSTR	85	192	0
NMSI_	85	192	0	96	48	3
NMSTR	85	192	6
NMSI_	85	192	6	96	48	3
BRHLD	86	0	1	768
BRHLD	86	0	5	768

T_REC_TAP	346
T_REC_BRK	9
T_REC_XTP	37
T_REC_BXX	12
T_REC_HLD	19
T_REC_XHO	9
T_REC_BHO	2
T_REC_BXH	2
T_REC_STR	61
T_REC_BST	0
T_REC_XST	17
T_REC_XBS	2
T_REC_TTP	52
T_REC_THO	1
T_REC_SLD	77
T_REC_BSL	6
T_REC_ALL	652
T_NUM_TAP	513
T_NUM_BRK	33
T_NUM_HLD	29
T_NUM_SLD	77
T_NUM_ALL	652
T_JUDGE_TAP	536
T_JUDGE_HLD	180
T_JUDGE_SLD	83
T_JUDGE_ALL	799
TTM_EACHPAIRS	92
TTM_SCR_TAP	256500
TTM_SCR_BRK	85800
TTM_SCR_HLD	29000
TTM_SCR_SLD	115500
TTM_SCR_ALL	486800
TTM_SCR_S	469000
TTM_SCR_SS	483500
TTM_RAT_ACV	10068

