VERSION	0.00.00	1.04.00
FES_MODE	0
BPM_DEF	174.000	174.000	174.000	174.000
MET_DEF	4	4
RESOLUTION	384
CLK_DEF	384
COMPATIBLE_CODE	MA2

BPM	0	0	174.000
MET	0	0	4	4

BXHLD	2	0	2	1152
BXTAP	2	0	4
NMHLD	4	0	4	576
NMTAP	6	0	3
NMHLD	6	0	5	384
NMHLD	7	0	4	384
NMHLD	8	0	3	384
NMTAP	9	0	2
NMTAP	9	192	3
NMTAP	9	192	4
EXTAP	10	0	2
EXHLD	10	0	5	384
NMTAP	10	192	4
NMTAP	11	0	4
NMTAP	11	96	4
NMTAP	11	192	3
NMTAP	11	192	5
NMHLD	12	0	2	192
NMTAP	12	0	5
NMTAP	12	192	3
NMHLD	13	0	3	96
NMHLD	13	0	4	96
EXTAP	13	144	3
EXTAP	13	144	4
EXTAP	13	192	3
EXTAP	13	192	4
EXHLD	14	0	2	384
EXTAP	14	0	4
NMTAP	14	192	3
NMTAP	15	0	3
NMTAP	15	96	3
NMTAP	15	192	2
NMTAP	15	192	4
NMTAP	15	288	3
NMTAP	16	0	2
NMTAP	16	0	4
NMTAP	16	96	1
NMTAP	16	192	0
NMTAP	16	288	7
NMSTR	17	0	0
NMSI_	17	0	0	96	96	4
NMTAP	17	0	6
EXTAP	17	288	5
BXTAP	18	0	4
NMTAP	18	0	5
NMTAP	18	96	4
NMTAP	18	96	5
NMTAP	18	192	4
NMTAP	18	288	4
BXTAP	19	0	3
NMTAP	19	0	4
NMTAP	19	96	3
NMTAP	19	96	4
NMTAP	19	192	3
NMTAP	19	288	3
BXTAP	20	0	2
NMTAP	20	0	3
NMTAP	20	96	2
NMTAP	20	96	3
BXTAP	20	192	1
NMTAP	20	288	1
BXTAP	21	0	0
NMTAP	21	0	1
NMTAP	21	192	3
NMTAP	21	192	4
BRTAP	21	288	0
BRTAP	21	288	7
NMTAP	22	0	6
NMTAP	22	96	5
NMTAP	22	96	7
NMTAP	22	192	1
NMTAP	22	288	0
NMTAP	22	288	2
NMTAP	23	0	3
NMTAP	23	0	4
NMTAP	23	96	6
NMTAP	23	144	6
NMTAP	23	192	7
NMTAP	23	288	0
NMTAP	23	288	5
NMTAP	24	0	3
NMTAP	24	96	0
NMTAP	24	96	1
NMTAP	24	192	4
NMTAP	24	288	6
NMTAP	24	288	7
NMTAP	25	0	0
NMTAP	25	0	1
NMTAP	25	96	2
NMTAP	25	144	2
NMTAP	25	192	3
NMTAP	25	288	1
NMTAP	25	288	5
EXSTR	26	0	0
NMSCR	26	0	0	96	96	3
NMTAP	26	0	6
NMSTR	26	192	4
NMSCR	26	192	4	96	96	7
NMSTR	27	0	1
NMSCR	27	0	1	96	96	4
NMTAP	27	192	5
NMTAP	27	240	5
NMTAP	27	288	4
NMTAP	27	288	6
NMSTR	28	0	7
NMSCL	28	0	7	96	96	4
NMSTR	28	192	1
NMSUR	28	192	1	96	96	5
EXHLD	29	0	6	72
EXHLD	29	72	4	72
EXTAP	29	144	5
EXTAP	29	192	5
EXTAP	29	288	3
EXTAP	29	288	4
NMTAP	30	0	1
NMTAP	30	0	5
NMTAP	30	96	6
NMTAP	30	96	7
NMTAP	30	192	2
NMTAP	30	192	3
NMTAP	30	288	0
NMTAP	30	288	1
NMTAP	31	0	6
NMTAP	31	0	7
NMTAP	31	96	5
NMTAP	31	144	5
NMTAP	31	192	4
NMTAP	31	192	6
NMTAP	31	288	0
NMTAP	31	288	7
NMTAP	32	0	2
NMTAP	32	0	3
NMTAP	32	96	0
NMTAP	32	96	6
NMTAP	32	192	4
NMTAP	32	192	5
NMTAP	32	288	1
NMTAP	32	288	7
NMTAP	33	0	2
NMTAP	33	0	3
NMTAP	33	96	1
NMTAP	33	144	1
NMTAP	33	192	0
NMTAP	33	192	1
NMTAP	33	288	2
NMTAP	33	288	7
BRTAP	34	0	3
BRSTR	34	0	6
NMSCL	34	0	6	96	96	3
NMSTR	34	192	2
NMSCL	34	192	2	96	96	7
NMSTR	35	0	5
NMSCL	35	0	5	96	96	2
EXTAP	35	192	0
EXTAP	35	288	0
EXTAP	35	288	7
NMHLD	36	0	6	96
NMHLD	36	96	4	96
NMHLD	36	192	2	96
NMTAP	36	288	0
NMTAP	37	0	1
NMTAP	37	0	7
NMTAP	37	96	3
NMTAP	37	96	5
BRTAP	37	192	0
BRTAP	37	192	7
NMTAP	37	288	1
NMTAP	37	288	6
BRTAP	38	0	3
BRHLD	38	0	4	480
NMHLD	39	0	3	96
NMHLD	39	192	2	96
NMHLD	39	192	3	96
NMTAP	40	0	3
NMTAP	40	0	4
NMTAP	40	96	4
NMTAP	40	192	4
NMTAP	40	288	4
NMHLD	41	0	4	96
NMHLD	41	0	5	96
NMHLD	41	192	3	96
NMHLD	41	192	4	96
NMHLD	42	0	5	192
NMTAP	42	96	4
NMTAP	42	192	4
NMTAP	42	288	3
NMHLD	43	0	2	192
NMTAP	43	96	3
NMTAP	43	192	3
NMTAP	43	288	2
EXTAP	44	0	0
EXTAP	44	0	1
NMTAP	44	96	5
EXTAP	44	192	6
EXTAP	44	192	7
NMTAP	44	288	2
BRTAP	45	0	0
NMTAP	45	0	5
BRTAP	45	96	1
NMTAP	45	96	4
BRTAP	45	192	2
NMTAP	45	192	3
NMTAP	45	288	0
EXTAP	45	288	7
NMTAP	46	0	2
NMHLD	46	0	5	288
NMTAP	46	96	4
NMTAP	46	192	6
NMTAP	46	288	4
NMHLD	47	0	2	288
NMTAP	47	0	3
NMTAP	47	96	1
NMTAP	47	192	3
NMTAP	47	288	5
NMSTR	48	0	6
NMSI_	48	0	6	96	48	3
NMHLD	48	0	7	96
NMHLD	48	192	0	96
NMSTR	48	192	1
NMSI_	48	192	1	96	48	4
NMTAP	49	0	6
NMTAP	49	0	7
NMTAP	49	96	4
NMTAP	49	96	5
EXTAP	49	192	3
EXTAP	49	256	3
EXTAP	49	320	2
EXTAP	49	320	4
EXHLD	50	0	1	96
BXTAP	50	0	5
NMTAP	50	96	3
NMTAP	50	192	6
NMTAP	50	192	7
EXTAP	50	288	1
EXTAP	50	288	3
NMTAP	51	0	2
NMHLD	51	0	6	96
NMTAP	51	96	4
NMTAP	51	192	0
NMTAP	51	192	1
NMTAP	51	288	4
NMTAP	51	288	6
BRTAP	52	0	1
BRTAP	52	0	3
NMTAP	52	96	6
NMTAP	52	96	7
BRTAP	52	192	0
BRTAP	52	192	1
NMTAP	52	288	4
NMTAP	52	288	5
BRSTR	53	0	6
NMSI_	53	0	6	96	48	3
BRSTR	53	0	7
NMSI_	53	0	7	96	48	3
BRSTR	53	192	0
NMSI_	53	192	0	96	48	4
BRSTR	53	192	1
NMSI_	53	192	1	96	48	4
BRSTR	54	0	6
NMSCL	54	0	6	96	1056	1
BRTAP	54	0	7
NMHLD	58	0	2	384
NMTAP	58	0	3
NMTTP	58	192	2	B	0	M1
NMHLD	59	0	3	384
NMTTP	59	192	3	B	0	M1
NMHLD	60	0	4	384
NMTTP	60	192	4	B	0	M1
NMTAP	61	0	5
NMTAP	61	192	3
NMTAP	61	192	4
NMTAP	61	288	3
NMTAP	61	288	4
NMSTR	62	0	3
NMSCL	62	0	3	96	192	0
NMTAP	62	0	4
NMTAP	62	288	7
NMSTR	63	0	7
NMSCL	63	0	7	96	192	4
NMTAP	63	288	2
NMSTR	64	0	2
NMSCL	64	0	2	96	192	7
NMTAP	64	288	6
NMSTR	65	0	6
NMSCL	65	0	6	96	192	3
NMTAP	65	288	2
NMTAP	66	0	2
NMTAP	66	48	2
NMTAP	66	96	4
NMTAP	66	144	4
NMTAP	66	192	3
NMTAP	66	240	3
NMTAP	66	288	5
NMTAP	66	336	5
NMTAP	67	0	3
NMTAP	67	48	3
NMTAP	67	96	4
NMTAP	67	144	4
NMTAP	67	192	2
NMTAP	67	240	2
NMTAP	67	288	5
NMTAP	67	336	5
EXHLD	68	0	6	96
EXHLD	68	0	7	96
EXHLD	68	192	0	96
EXHLD	68	192	1	96
EXSTR	69	0	0
NMSF_	69	0	0	96	96	4
EXTAP	69	0	7
BRTAP	69	288	2
BRTAP	69	288	6
EXTAP	70	0	6
EXTAP	70	0	7
EXTAP	70	72	1
EXTAP	70	72	7
NMTAP	70	144	1
NMTAP	70	144	3
NMTAP	70	216	3
NMTAP	70	216	4
NMTAP	70	288	2
NMTAP	70	288	6
EXTAP	71	0	0
EXTAP	71	0	1
EXTAP	71	72	0
EXTAP	71	72	6
NMTAP	71	144	4
NMTAP	71	144	6
NMTAP	71	216	3
NMTAP	71	216	4
NMTAP	71	288	1
NMTAP	71	288	5
NMHLD	72	0	2	72
NMHLD	72	72	1	72
NMHLD	72	144	0	72
NMTAP	72	216	7
NMTAP	72	288	0
NMTAP	72	288	6
NMTAP	73	0	3
NMHLD	73	0	5	72
NMHLD	73	72	6	72
NMHLD	73	144	7	72
NMTAP	73	216	0
BRTAP	73	288	1
BRTAP	73	288	7
EXTAP	74	0	0
EXTAP	74	0	1
EXTAP	74	72	0
EXTAP	74	72	6
NMTAP	74	144	4
NMTAP	74	144	6
NMTAP	74	216	3
NMTAP	74	216	4
NMTAP	74	288	1
NMTAP	74	288	5
NMTAP	75	0	6
NMTAP	75	0	7
NMTAP	75	72	1
NMTAP	75	72	7
NMTAP	75	144	1
NMTAP	75	144	3
NMTAP	75	216	3
NMTAP	75	216	4
EXTAP	75	288	2
EXTAP	75	288	5
NMSTR	76	0	4
NMSI_	76	0	4	96	48	0
NMTAP	76	0	6
NMTAP	76	192	1
NMSTR	76	192	3
NMSI_	76	192	3	96	48	7
BRTAP	77	0	0
NMTAP	77	0	6
BRTAP	77	96	1
NMTAP	77	96	5
BRHLD	77	192	2	96
NMTAP	77	192	4
BRTAP	77	288	7
EXTAP	78	0	4
EXTAP	78	0	6
NMTAP	78	72	0
NMTAP	78	72	7
NMTAP	78	144	1
NMTAP	78	144	3
NMTAP	78	216	3
NMTAP	78	216	4
NMTAP	78	288	2
NMTAP	78	288	6
EXTAP	79	0	1
EXTAP	79	0	3
NMTAP	79	72	0
NMTAP	79	72	7
NMTAP	79	144	4
NMTAP	79	144	6
NMTAP	79	216	3
NMTAP	79	216	4
NMTAP	79	288	1
NMTAP	79	288	5
NMHLD	80	0	2	72
NMTAP	80	0	3
NMHLD	80	72	1	72
NMHLD	80	144	0	72
NMTAP	80	216	7
EXTAP	80	288	2
EXTAP	80	288	6
NMTAP	81	0	4
NMHLD	81	0	5	72
NMHLD	81	72	6	72
NMHLD	81	144	7	72
NMTAP	81	216	0
EXTAP	81	288	1
EXTAP	81	288	5
NMTAP	82	0	2
NMTAP	82	48	2
NMTAP	82	96	4
NMTAP	82	144	4
NMTAP	82	192	3
NMTAP	82	240	3
NMTAP	82	288	5
NMTAP	82	336	5
NMTAP	83	0	1
NMTAP	83	48	1
NMTAP	83	96	7
NMTAP	83	144	7
NMTAP	83	192	0
NMTAP	83	240	0
NMTAP	83	288	6
NMTAP	83	336	6
NMTAP	84	0	6
NMTAP	84	0	7
NMTAP	84	96	2
NMTAP	84	96	3
NMTAP	84	192	0
NMTAP	84	192	1
NMTAP	84	288	4
NMTAP	84	288	5
NMSTR	85	0	6
NMSI_	85	0	6	96	48	2
NMSTR	85	96	0
NMSI_	85	96	0	96	48	4
NMSTR	85	192	7
NMSI_	85	192	7	96	48	3
NMTAP	85	288	2
BRTAP	86	0	0
BRTAP	86	0	4

T_REC_TAP	260
T_REC_BRK	23
T_REC_XTP	48
T_REC_BXX	7
T_REC_HLD	39
T_REC_XHO	9
T_REC_BHO	2
T_REC_BXH	1
T_REC_STR	18
T_REC_BST	6
T_REC_XST	2
T_REC_XBS	0
T_REC_TTP	3
T_REC_THO	0
T_REC_SLD	26
T_REC_BSL	0
T_REC_ALL	444
T_NUM_TAP	331
T_NUM_BRK	39
T_NUM_HLD	48
T_NUM_SLD	26
T_NUM_ALL	444
T_JUDGE_TAP	367
T_JUDGE_HLD	204
T_JUDGE_SLD	26
T_JUDGE_ALL	597
TTM_EACHPAIRS	139
TTM_SCR_TAP	165500
TTM_SCR_BRK	101400
TTM_SCR_HLD	48000
TTM_SCR_SLD	39000
TTM_SCR_ALL	353900
TTM_SCR_S	339500
TTM_SCR_SS	350000
TTM_RAT_ACV	10111

