VERSION	0.00.00	1.04.00
FES_MODE	0
BPM_DEF	160.000	160.000	160.000	160.000
MET_DEF	4	4
RESOLUTION	384
CLK_DEF	384
COMPATIBLE_CODE	MA2

BPM	0	0	160.000
MET	0	0	4	4

EXHLD	2	0	3	1152
EXSTR	2	0	4
NMSI_	2	0	4	96	192	7
NMSTR	3	0	7
NMSCL	3	0	7	96	192	4
NMTTP	4	0	4	E	0	M1
NMTTP	4	192	5	E	0	M1
NMTTP	5	0	3	E	0	M1
NMTAP	5	192	3
NMTAP	5	192	4
NMTAP	5	288	3
NMTAP	5	288	4
EXSTR	6	0	3
NMSI_	6	0	3	96	192	0
EXHLD	6	0	4	960
NMSTR	7	0	0
NMSCR	7	0	0	96	192	3
NMHLD	8	0	3	240
NMTAP	8	336	3
NMTAP	8	336	4
NMTAP	9	48	4
NMTAP	9	48	6
NMTAP	9	144	0
NMTAP	9	144	7
NMTAP	9	240	1
NMTAP	9	240	3
NMTAP	9	336	4
NMTAP	9	360	3
NMHLD	10	0	5	96
NMTAP	10	96	4
NMHLD	10	144	4	96
NMTAP	10	240	5
NMTAP	10	288	4
NMTAP	10	336	3
NMHLD	11	0	2	240
NMTAP	11	96	4
NMHLD	11	144	4	96
NMTAP	11	288	5
NMTAP	11	312	3
NMTAP	11	336	5
NMTAP	11	360	3
NMHLD	12	0	5	96
NMTAP	12	96	4
NMTAP	12	192	3
NMTAP	12	192	5
NMTAP	12	288	2
NMTAP	12	336	2
NMTAP	13	0	1
NMTAP	13	0	3
NMTAP	13	72	0
NMTAP	13	72	7
NMTAP	13	144	4
NMTAP	13	144	6
NMTAP	13	216	3
NMTAP	13	216	4
BRTAP	13	288	1
BRTAP	13	288	3
BRTAP	13	336	0
BRHLD	13	336	4	528
NMTAP	15	0	5
NMTAP	15	96	5
NMTAP	15	192	2
NMTAP	15	216	4
NMTAP	15	240	3
NMTAP	15	264	4
BRTAP	15	288	1
NMTAP	16	0	1
NMTAP	16	0	3
NMTAP	16	48	2
NMTAP	16	48	4
NMTAP	16	96	5
NMTAP	16	120	4
NMTAP	16	168	3
NMTAP	16	168	6
NMTAP	16	216	5
NMTAP	16	240	4
NMTAP	16	288	2
NMTAP	16	288	6
NMTAP	16	336	6
NMTAP	17	0	3
NMTAP	17	0	5
NMTAP	17	48	2
NMTAP	17	48	4
NMTAP	17	96	1
NMTAP	17	120	0
NMTAP	17	168	2
NMTAP	17	168	7
NMTAP	17	216	1
NMTAP	17	240	0
NMTAP	17	288	2
NMTAP	17	288	6
NMTAP	17	336	6
NMTAP	18	0	3
NMTAP	18	0	5
NMTAP	18	48	2
NMTAP	18	48	4
NMTAP	18	96	1
NMTAP	18	120	3
NMTAP	18	168	0
NMTAP	18	168	4
NMTAP	18	216	1
NMTAP	18	240	3
NMTAP	18	288	0
NMTAP	18	288	6
NMTAP	18	336	0
NMTAP	18	336	6
NMTAP	19	0	1
NMTAP	19	24	2
NMTAP	19	48	3
NMTAP	19	72	6
NMTAP	19	96	5
NMTAP	19	120	4
NMTAP	19	144	0
NMTAP	19	168	1
NMTAP	19	192	2
NMTAP	19	216	7
NMTAP	19	240	6
NMTAP	19	264	5
BRTAP	19	288	0
NMTAP	20	0	1
NMTAP	20	0	3
NMTAP	20	48	2
NMTAP	20	48	4
NMTAP	20	96	5
NMTAP	20	120	4
NMTAP	20	168	3
NMTAP	20	168	6
NMTAP	20	216	5
NMTAP	20	240	4
NMTAP	20	288	2
NMTAP	20	288	6
NMTAP	20	336	6
NMTAP	21	0	3
NMTAP	21	0	5
NMTAP	21	48	2
NMTAP	21	48	4
NMTAP	21	96	1
NMTAP	21	120	0
NMTAP	21	168	2
NMTAP	21	168	7
NMTAP	21	216	1
NMTAP	21	240	0
NMTAP	21	288	2
NMTAP	21	288	6
NMTAP	21	336	2
NMTAP	21	336	6
NMTAP	22	0	5
NMTAP	22	24	3
NMTAP	22	48	4
NMTAP	22	72	2
NMTAP	22	96	3
NMTAP	22	120	2
NMTAP	22	144	6
NMTAP	22	168	4
NMTAP	22	192	5
NMTAP	22	216	2
NMTAP	22	240	3
NMTAP	22	264	2
NMTAP	22	288	4
NMTAP	22	312	3
NMTAP	22	336	5
NMTAP	22	360	4
EXTAP	23	0	6
EXTAP	23	72	0
EXTAP	23	72	7
EXTAP	23	144	1
EXTAP	23	144	3
NMTAP	23	216	5
NMTAP	23	240	4
NMTAP	23	288	2
NMTAP	23	288	6
NMHLD	23	336	2	96
NMHLD	23	336	6	96
NMTAP	24	96	3
NMSTR	24	96	5
NMSI_	24	96	5	96	48	3
NMTAP	24	192	1
NMTAP	24	288	0
NMHLD	24	336	0	96
NMTAP	25	48	2
NMSTR	25	96	3
NMSI_	25	96	3	96	48	7
NMTAP	25	192	1
NMTAP	25	288	2
NMHLD	25	336	2	96
NMTAP	26	48	4
NMTAP	26	96	5
NMTAP	26	144	3
NMHLD	26	144	6	96
NMTAP	26	240	4
NMTAP	26	288	3
NMTAP	26	336	2
NMSTR	26	336	4
NMSCR	26	336	4	96	144	0
NMTAP	27	96	3
NMTAP	27	144	3
NMTTP	27	240	2	B	0	M1
NMTTP	27	240	2	E	0	M1
EXTAP	27	336	1
EXTAP	27	336	7
NMTAP	28	48	2
NMTAP	28	48	6
NMSTR	28	96	2
NMSI_	28	96	2	96	48	4
NMTAP	28	96	6
NMTAP	28	192	4
NMTAP	28	288	6
NMHLD	28	336	6	96
NMTAP	29	48	5
NMSTR	29	96	4
NMSI_	29	96	4	96	48	0
NMTAP	29	192	5
NMTAP	29	288	1
NMTAP	29	288	3
NMTAP	29	336	1
NMSTR	29	336	3
NMSCR	29	336	3	96	144	0
NMSTR	30	96	0
NMSLL	30	96	0	96	96	3
NMTAP	30	192	2
NMTAP	30	240	2
NMTAP	30	336	0
NMTAP	31	48	1
NMTAP	31	48	7
NMTAP	31	96	2
NMTAP	31	96	6
NMTAP	31	144	3
NMTAP	31	144	5
NMTAP	31	240	0
NMTAP	31	264	7
BXTAP	31	288	1
BXTAP	31	288	6
NMSTR	32	0	0
NMSI_	32	0	0	96	48	4
NMTAP	32	0	5
NMTAP	32	96	0
NMSTR	32	96	6
NMSI_	32	96	6	96	48	3
NMTAP	32	192	2
NMTAP	32	192	6
NMSTR	32	288	1
NMSCR	32	288	1	96	48	4
NMTAP	33	0	4
CNSUL	33	48	4	0	48	0
CNSV_	33	96	0	0	144	5
NMTAP	33	96	5
NMTAP	33	192	6
NMTAP	33	240	6
NMHLD	33	288	6	96
NMSTR	34	0	7
NMSCL	34	0	7	96	48	4
NMSTR	34	96	0
NMSCR	34	96	0	96	48	3
NMTAP	34	96	7
NMTAP	34	192	0
NMTAP	34	192	7
NMSTR	34	288	6
NMSSL	34	288	6	96	144	2
NMTAP	35	0	2
NMTAP	35	96	0
NMHLD	35	192	1	96
NMTAP	35	288	3
NMTAP	35	336	2
NMTAP	35	336	4
NMSTR	36	0	3
NMSI_	36	0	3	96	48	7
NMTAP	36	0	5
NMTAP	36	96	3
NMSTR	36	96	6
NMSCL	36	96	6	96	48	3
NMTAP	36	192	0
NMTAP	36	192	6
NMHLD	36	288	1	96
NMSTR	37	0	3
NMSI_	37	0	3	96	48	6
NMTAP	37	48	3
NMTAP	37	96	2
NMSTR	37	192	3
BRSI_	37	192	3	96	48	1
NMTAP	37	240	3
NMSTR	37	288	7
NMSLR	37	288	7	96	144	5
EXHLD	38	0	1	288
NMSTR	38	288	6
NMSI_	38	288	6	96	72	2
NMHLD	39	0	2	288
CNSI_	39	72	2	0	72	4
NMTAP	39	288	7
NMTAP	39	336	7
NMTAP	40	0	4
NMTAP	40	0	6
NMTAP	40	48	3
NMTAP	40	96	2
NMTAP	40	96	4
NMTAP	40	144	1
NMTAP	40	192	0
NMTAP	40	192	7
NMSTR	40	240	6
BRSI_	40	240	6	96	48	3
NMTAP	40	288	3
BXHLD	40	336	1	288
CNSI_	41	0	3	0	48	0
NMTAP	41	240	7
NMTAP	41	264	7
NMTAP	41	288	0
NMTAP	41	288	6
BRSTR	42	0	1
NMSI_	42	0	1	96	48	4
NMTAP	42	48	7
NMTAP	42	96	1
NMSTR	42	144	6
NMSCL	42	144	6	96	48	3
NMTAP	42	192	7
NMTAP	42	240	6
NMSTR	42	288	0
NMSI_	42	288	0	96	48	4
NMTAP	42	336	2
NMSTR	43	0	0
NMSCL	43	0	0	96	48	5
NMSCR	43	0	0	96	48	3
NMTAP	43	96	0
NMTAP	43	192	1
NMTAP	43	192	7
NMTAP	43	240	2
NMSTR	43	240	6
NMSLL	43	240	6	96	96	0
NMTAP	43	336	3
NMSTR	44	0	1
NMSLR	44	0	1	96	96	7
NMTAP	44	96	4
NMSTR	44	144	6
NMSCL	44	144	6	96	48	3
NMTAP	44	240	3
NMHLD	44	288	1	96
NMTAP	45	0	7
NMTAP	45	48	2
NMTAP	45	72	3
NMTAP	45	96	1
NMTAP	45	144	5
NMTAP	45	168	4
NMTAP	45	192	6
NMTAP	45	240	2
NMTAP	45	264	0
NMTAP	45	288	1
NMTAP	45	312	0
NMTAP	45	336	1
NMTAP	45	360	0
NMSTR	46	0	2
NMSCR	46	0	2	96	48	5
NMTAP	46	48	7
NMTAP	46	96	2
NMTAP	46	96	6
NMTAP	46	192	6
NMTAP	46	240	5
NMTAP	46	240	7
NMTAP	46	288	0
NMTAP	46	288	4
NMTAP	46	336	1
NMSTR	46	336	3
NMSI_	46	336	3	96	48	7
NMTAP	47	48	2
NMTAP	47	96	2
CNSI_	47	96	7	0	48	5
NMTAP	47	192	3
NMTAP	47	240	3
NMTAP	47	288	2
NMTAP	47	288	4
NMTAP	47	336	1
NMTAP	47	336	5
NMTAP	48	0	0
NMSTR	48	0	6
NMSI_	48	0	6	96	48	2
NMTAP	48	48	5
NMTAP	48	48	7
NMTAP	48	96	0
NMTAP	48	96	6
NMTAP	48	144	0
NMSTR	48	192	1
NMSCR	48	192	1	96	48	4
NMTAP	48	192	7
NMSTR	48	240	0
BRSCL	48	240	0	96	48	5
NMTAP	48	240	2
NMTAP	48	288	1
BRTAP	48	336	0
NMSTR	49	96	4
NMSF_	49	96	4	96	48	0
NMTAP	49	96	5
NMTAP	49	192	4
NMTAP	49	336	1
NMTAP	49	336	7
NMSTR	50	0	6
NMSI_	50	0	6	96	48	3
NMTAP	50	48	0
NMTAP	50	96	6
NMSTR	50	144	1
NMSCR	50	144	1	96	48	4
NMTAP	50	192	0
NMTAP	50	240	1
NMSTR	50	288	7
BRSI_	50	288	7	96	48	3
NMTAP	50	336	5
BRSTR	51	0	7
BRSCL	51	0	7	96	48	4
BRSCR	51	0	7	96	48	2
BRTAP	51	96	7
BRTAP	51	192	0
BRTAP	51	192	6
BRSTR	51	240	1
BRSLR	51	240	1	96	96	7
BRTAP	51	240	5
NMTAP	51	336	4
NMSTR	52	0	6
BRSLL	52	0	6	96	96	0
NMTAP	52	96	3
NMSTR	52	144	1
BRSCR	52	144	1	96	48	4
NMTAP	52	240	4
NMHLD	52	288	6	96
NMTAP	53	0	0
NMTAP	53	48	5
NMTAP	53	72	4
NMTAP	53	96	6
NMTAP	53	144	2
NMTAP	53	168	3
NMTAP	53	192	1
NMTAP	53	240	5
NMTAP	53	264	7
NMTAP	53	288	6
NMTAP	53	312	7
NMTAP	53	336	6
NMTAP	53	360	7
NMSTR	54	0	5
BRSI_	54	0	5	96	48	0
NMTAP	54	48	0
NMTAP	54	96	1
NMTAP	54	96	5
NMTAP	54	192	1
NMTAP	54	240	0
NMTAP	54	240	2
NMTAP	54	288	3
NMTAP	54	288	7
NMSTR	54	336	4
BRSI_	54	336	4	96	48	0
NMTAP	54	336	6
NMTAP	55	0	3
NMTAP	55	48	5
CNSCR	55	96	0	0	48	2
NMTAP	55	96	5
NMTAP	55	192	6
NMTAP	55	216	4
NMTAP	55	240	5
NMTAP	55	288	3
NMTAP	55	288	4
NMTAP	55	336	2
NMTAP	56	0	1
NMTAP	56	0	3
NMTAP	56	48	0
NMTAP	56	96	4
NMTAP	56	96	6
NMTAP	56	144	7
NMSTR	56	192	2
NMSI_	56	192	2	96	48	7
NMSTR	56	240	6
NMSI_	56	240	6	96	48	3
NMTAP	56	288	2
BRTAP	56	336	6
NMSTR	57	48	1
NMSCR	57	48	1	96	48	4
NMSTR	57	48	4
NMSCR	57	48	4	96	48	7
NMTAP	57	144	1
NMTAP	57	144	4
NMTAP	57	240	3
NMTAP	57	240	6
NMTAP	57	336	0
NMTAP	57	336	7
NMTAP	57	360	1
NMTAP	57	360	6
BRHLD	58	0	2	96
BRTAP	58	0	5
NMTAP	58	96	4
NMTAP	58	144	3
NMTAP	58	144	5
NMTAP	58	192	2
NMTAP	58	240	1
NMTAP	58	240	3
NMTAP	58	288	4
NMTAP	58	336	3
NMTAP	58	336	5
NMSTR	59	0	6
NMSI_	59	0	6	96	48	2
NMTAP	59	48	6
NMTAP	59	96	7
NMTAP	59	144	0
NMSTR	59	192	1
NMSI_	59	192	1	96	48	5
NMTAP	59	240	1
NMTAP	59	288	0
NMTAP	59	336	7
NMHLD	60	0	6	48
NMHLD	60	48	4	48
NMTAP	60	96	5
NMSTR	60	144	6
NMSI_	60	144	6	96	48	3
NMSTR	60	240	3
BRSCR	60	240	3	96	192	1
NMTAP	60	240	6
NMTTP	60	336	2	B	1	M1
NMTTP	60	336	2	E	0	M1
NMTTP	60	336	3	E	0	M1
NMTAP	61	240	0
NMTAP	61	240	1
NMTAP	61	288	2
NMTAP	61	288	7
NMTAP	62	0	1
NMTAP	62	0	4
NMTAP	62	48	2
NMTAP	62	72	3
NMTAP	62	120	5
NMTAP	62	144	4
NMTAP	62	192	2
NMTAP	62	216	3
NMTAP	62	264	6
NMTAP	62	288	4
NMTAP	62	336	3
NMTAP	62	336	5
NMTAP	63	0	2
NMTAP	63	0	4
NMTAP	63	48	1
NMTAP	63	72	0
NMTAP	63	120	2
NMTAP	63	144	3
NMTAP	63	192	5
NMTAP	63	216	4
NMTAP	63	264	6
NMTAP	63	288	7
NMTAP	63	336	0
NMTAP	63	336	5
NMTAP	64	0	1
NMTAP	64	24	1
NMTAP	64	48	2
NMTAP	64	72	2
NMTAP	64	96	3
NMTAP	64	120	3
NMTAP	64	144	4
NMTAP	64	168	4
NMTAP	64	192	5
NMTAP	64	216	5
NMTAP	64	240	6
NMTAP	64	264	6
NMTAP	64	288	7
NMTAP	64	312	7
BXSTR	64	336	0
NMSI_	64	336	0	96	48	2
BXSTR	64	336	6
NMSI_	64	336	6	96	48	2
BXSTR	65	48	0
NMSI_	65	48	0	96	48	4
BXSTR	65	48	6
NMSI_	65	48	6	96	48	4
BXTAP	65	144	0
BXTAP	65	144	6
NMTAP	65	240	0
NMTAP	65	240	6
NMTAP	65	288	1
NMTAP	65	288	5
NMTAP	65	336	1
NMTAP	65	336	7
NMHLD	66	0	2	336
NMHLD	66	0	6	336
NMTAP	67	48	3
NMSTR	67	48	5
NMSUR	67	48	5	96	144	2
NMHLD	68	0	1	288
NMHLD	68	0	3	288
NMTAP	68	336	1
NMTAP	68	336	3
NMTAP	69	48	2
NMTAP	69	48	3
NMHLD	69	144	4	96
NMHLD	69	144	5	96
NMTAP	69	288	5
NMTAP	69	312	4
NMTAP	69	336	5
NMTAP	69	360	4
NMHLD	70	0	6	96
NMHLD	70	144	6	96
NMTAP	70	288	4
NMTAP	70	288	5
NMTAP	70	336	3
NMTAP	70	336	4
NMHLD	71	0	2	96
NMTAP	71	0	3
NMTAP	71	144	2
NMTAP	71	144	3
NMTAP	71	240	1
NMTAP	71	240	5
NMSTR	71	288	0
BRSI_	71	288	0	96	48	4
NMTAP	71	312	6
NMTAP	71	336	1
NMTAP	71	360	5
BRTAP	72	0	0
NMSTR	72	96	5
NMSCR	72	96	5	96	96	2
NMSTR	72	192	2
NMSCL	72	192	2	96	96	5
NMTAP	72	288	4
NMSTR	73	0	3
NMSI_	73	0	3	96	48	1
NMSTR	73	96	3
NMSLR	73	96	3	96	96	7
NMTAP	73	96	4
EXTAP	73	192	0
NMTAP	73	288	1
NMTAP	73	336	2
NMHLD	74	0	3	96
NMSTR	74	0	7
NMSI_	74	0	7	96	48	3
NMTAP	74	96	7
NMTAP	74	192	2
NMTAP	74	192	4
NMSTR	74	240	1
NMSI_	74	240	1	96	48	3
NMSTR	74	240	5
NMSI_	74	240	5	96	48	3
NMTAP	74	288	0
NMTAP	74	288	6
BRSTR	74	336	1
NMSXR	74	336	1	96	240	6
BRTAP	74	336	5
BXHLD	76	0	0	288
NMSTR	76	288	6
NMSI_	76	288	6	96	48	0
NMTAP	76	304	1
NMTAP	76	304	5
NMTAP	76	320	2
NMTAP	76	320	4
NMTAP	76	336	3
BRSTR	77	0	2
NMSI_	77	0	2	96	48	6
NMTAP	77	96	2
BRSTR	77	96	4
BRSCR	77	96	4	96	96	3
BRTAP	77	192	4
NMTTP	77	192	4	E	1	M1
NMTAP	77	336	0
NMTAP	77	336	1
BRTAP	78	0	3
BRTAP	78	0	7
NMTAP	78	96	6
NMTAP	78	96	7
BRSTR	78	144	0
BRSI_	78	144	0	96	48	2
BRSTR	78	144	4
BRSI_	78	144	4	96	48	6
BRTAP	78	240	0
BRTAP	78	240	4
CNSV_	78	288	2	0	48	7
CNSV_	78	288	6	0	48	3
NMTAP	79	0	0
NMTAP	79	0	4
NMTAP	79	48	1
NMTAP	79	72	3
NMTAP	79	96	2
NMTAP	79	120	4
NMTAP	79	144	3
NMTAP	79	168	5
NMTAP	79	192	4
NMTAP	79	216	6
NMTAP	79	240	4
NMTAP	79	264	6
NMTAP	79	288	0
NMTAP	79	312	7
NMTAP	79	336	0
NMTAP	79	360	7
NMSTR	80	0	1
NMSI_	80	0	1	96	48	5
NMTAP	80	48	0
NMTAP	80	48	2
BRTAP	80	96	1
NMTAP	80	192	7
NMSTR	80	240	6
NMSI_	80	240	6	96	48	2
NMTAP	80	288	5
NMTAP	80	288	7
BRTAP	80	336	6
NMTAP	81	48	0
NMTAP	81	96	1
NMTAP	81	96	7
NMTAP	81	144	2
NMTAP	81	144	6
NMTAP	81	192	5
NMTAP	81	216	3
NMTAP	81	240	4
NMTAP	81	264	2
NMTAP	81	288	3
NMTAP	81	312	1
NMTAP	81	336	4
NMTAP	81	360	0
NMSTR	82	0	5
NMSI_	82	0	5	96	48	0
NMSTR	82	48	1
NMSI_	82	48	1	96	48	4
NMTAP	82	96	5
NMTAP	82	144	1
BXSTR	82	192	7
NMSCL	82	192	7	96	48	4
BXSTR	82	240	4
BRSUR	82	240	4	96	48	0
BRSV_	82	240	4	96	48	1
NMTAP	82	288	7
NMTTP	82	336	4	A	1	M1
NMHLD	83	96	2	96
NMSTR	83	96	3
NMSI_	83	96	3	96	48	7
NMTAP	83	192	3
NMTAP	83	288	0
NMTAP	83	288	6
BRSTR	84	0	1
NMSCR	84	0	1	96	48	4
NMTAP	84	48	0
NMTAP	84	48	2
NMTAP	84	96	1
NMSTR	84	144	6
NMSI_	84	144	6	96	48	2
NMTAP	84	192	5
NMTAP	84	192	7
NMTAP	84	240	6
NMSTR	84	288	0
BRSCL	84	288	0	96	48	5
BRSCR	84	288	0	96	48	3
NMTAP	84	336	4
BRSTR	85	0	0
BRSF_	85	0	0	96	48	4
BRTAP	85	96	0
BRTAP	85	192	2
BRTAP	85	192	6
BRSTR	85	240	0
BRSLR	85	240	0	96	96	6
BRTAP	85	240	4
NMTAP	85	336	3
NMSTR	86	0	5
BRSLR	86	0	5	96	96	3
NMTAP	86	96	0
NMSTR	86	144	2
BRSI_	86	144	2	96	48	6
NMTAP	86	240	4
NMSTR	86	288	4
BRSCL	86	288	4	96	96	5
CNSI_	86	288	6	0	48	0
NMHLD	87	0	1	96
NMTTP	87	96	5	E	0	M1
NMTTP	87	108	4	E	0	M1
NMTTP	87	120	3	E	0	M1
NMTTP	87	132	2	E	0	M1
NMTTP	87	144	1	E	0	M1
NMTTP	87	156	0	E	0	M1
NMTTP	87	168	7	E	0	M1
NMTTP	87	180	6	E	0	M1
NMTTP	87	192	0	C	0	M1
NMTTP	87	192	5	E	0	M1
BRTAP	87	288	0
BRTAP	87	288	7
NMSTR	88	0	2
NMSI_	88	0	2	96	48	7
NMSTR	88	0	6
NMSI_	88	0	6	96	48	3
NMTAP	88	48	3
NMTAP	88	48	7
NMTAP	88	96	2
NMTAP	88	96	6
NMTAP	88	192	0
NMTAP	88	192	4
NMTAP	88	240	1
NMSTR	88	288	2
NMSCL	88	288	2	96	48	7
NMTAP	88	288	7
NMTAP	88	336	3
NMTAP	89	0	2
NMSTR	89	0	6
NMSI_	89	0	6	96	48	3
NMTAP	89	48	5
BRTAP	89	96	2
BRTAP	89	96	6
NMTAP	89	192	2
NMTAP	89	192	4
NMTAP	89	240	1
NMTAP	89	240	5
NMSTR	89	288	0
NMSI_	89	288	0	96	48	2
NMSTR	89	336	7
NMSI_	89	336	7	96	48	4
NMSTR	90	0	0
NMSI_	90	0	0	96	48	3
NMSTR	90	48	7
NMSI_	90	48	7	96	48	5
NMSTR	90	96	0
NMSCR	90	96	0	96	48	2
NMSTR	90	144	7
NMSI_	90	144	7	96	48	3
NMSTR	90	192	0
NMSI_	90	192	0	96	48	5
NMSTR	90	240	7
BRSCL	90	240	7	96	144	0
NMTAP	90	288	0
BXTAP	90	336	7
NMTAP	91	240	0
NMTAP	91	240	7
NMSTR	91	288	1
BRSI_	91	288	1	96	48	5
NMHLD	91	288	6	768
BRTAP	92	0	1
NMTAP	93	288	0
NMHLD	94	0	2	72
NMHLD	94	72	3	72
NMHLD	94	144	4	72
NMHLD	94	216	5	72
NMTAP	94	288	6
NMTAP	94	336	6
NMTAP	95	0	3
NMHLD	95	0	5	72
NMHLD	95	72	4	72
NMHLD	95	144	3	72
NMTAP	95	216	2
NMSTR	95	288	2
NMSI_	95	288	2	96	48	6
NMTAP	95	312	3
NMTAP	95	336	1
BXHLD	96	0	0	1536
BXSTR	96	0	2
BRSCR	96	0	2	96	576	0
NMTTP	96	1	0	C	1	M1
CNSSR	97	288	0	0	864	4

T_REC_TAP	503
T_REC_BRK	30
T_REC_XTP	8
T_REC_BXX	5
T_REC_HLD	40
T_REC_XHO	3
T_REC_BHO	2
T_REC_BXH	3
T_REC_STR	83
T_REC_BST	11
T_REC_XST	2
T_REC_XBS	7
T_REC_TTP	21
T_REC_THO	0
T_REC_SLD	79
T_REC_BSL	28
T_REC_ALL	825
T_NUM_TAP	617
T_NUM_BRK	86
T_NUM_HLD	43
T_NUM_SLD	79
T_NUM_ALL	825
T_JUDGE_TAP	670
T_JUDGE_HLD	227
T_JUDGE_SLD	107
T_JUDGE_ALL	1004
TTM_EACHPAIRS	162
TTM_SCR_TAP	308500
TTM_SCR_BRK	223600
TTM_SCR_HLD	43000
TTM_SCR_SLD	118500
TTM_SCR_ALL	693600
TTM_SCR_S	664450
TTM_SCR_SS	685000
TTM_RAT_ACV	10125

