VERSION	0.00.00	1.04.00
FES_MODE	0
BPM_DEF	160.000	160.000	160.000	160.000
MET_DEF	4	4
RESOLUTION	384
CLK_DEF	384
COMPATIBLE_CODE	MA2

BPM	0	0	160.000
MET	0	0	4	4

EXSTR	2	0	0
NMSI_	2	0	0	96	480	3
NMHLD	4	0	5	384
EXSTR	6	0	7
NMSI_	6	0	7	96	480	4
NMHLD	8	0	2	336
NMTAP	8	336	3
NMTAP	9	48	1
NMTAP	9	48	4
NMTAP	9	144	4
NMTAP	9	144	5
NMTAP	9	240	3
NMTAP	9	240	6
NMTAP	9	336	7
NMHLD	10	0	7	384
NMTAP	10	96	4
NMTAP	10	288	2
NMHLD	11	0	0	384
NMTAP	11	96	3
NMTAP	11	288	5
NMTAP	12	0	7
NMTAP	12	96	7
NMTAP	12	192	1
NMTAP	12	288	1
BXTAP	13	0	6
BXTAP	13	72	7
BXTAP	13	144	0
BXTAP	13	216	1
NMTAP	13	288	7
NMHLD	13	336	7	432
NMTAP	15	0	4
NMSTR	15	96	4
NMSI_	15	96	4	96	96	0
NMHLD	16	0	6	96
NMTAP	16	96	7
NMHLD	16	192	1	96
NMTAP	16	288	0
NMTAP	17	0	0
NMTAP	17	0	6
NMTAP	17	96	0
NMTAP	17	96	6
NMTAP	17	192	1
NMTAP	17	192	7
NMTAP	17	288	1
NMTAP	17	288	7
NMHLD	18	0	6	96
NMTAP	18	96	4
NMHLD	18	192	1	96
NMTAP	18	288	3
NMTAP	19	0	7
NMTAP	19	96	4
NMTAP	19	96	6
NMTAP	19	192	0
NMTAP	19	288	1
NMTAP	19	288	3
NMHLD	20	0	6	96
NMTAP	20	96	7
NMHLD	20	192	1	96
NMTAP	20	288	0
NMTAP	21	0	0
NMTAP	21	0	6
NMTAP	21	96	0
NMTAP	21	96	6
NMTAP	21	192	1
NMTAP	21	192	7
NMTAP	21	288	1
NMTAP	21	288	7
NMTAP	22	0	4
NMHLD	22	0	6	96
NMTAP	22	96	5
NMHLD	22	192	1	96
NMTAP	22	192	3
NMSTR	22	288	2
NMSUR	22	288	2	96	192	4
EXTAP	23	288	1
EXTAP	23	288	5
NMHLD	24	0	6	384
NMTAP	24	192	4
NMTAP	24	288	3
NMHLD	25	0	2	288
NMTAP	25	192	4
NMTAP	25	288	5
NMSTR	26	0	6
NMSI_	26	0	6	96	96	3
NMSTR	26	192	2
NMSI_	26	192	2	96	96	7
NMTAP	27	0	5
NMTAP	27	96	3
NMTAP	27	96	6
NMTAP	27	192	7
NMTAP	27	288	0
NMHLD	28	0	1	384
NMTAP	28	192	3
NMTAP	28	288	4
NMHLD	29	0	5	288
NMTAP	29	192	3
NMTAP	29	288	2
NMSTR	30	0	1
NMSI_	30	0	1	96	96	4
NMTAP	30	192	5
NMSTR	30	288	5
NMSXL	30	288	5	96	192	3
NMTAP	31	192	1
NMTAP	31	288	2
NMTAP	31	288	4
NMTAP	32	0	7
NMTAP	32	96	7
NMTAP	32	192	1
NMTAP	32	192	5
NMTAP	32	288	1
NMTAP	32	288	5
NMHLD	33	0	4	96
NMHLD	33	0	6	96
NMHLD	33	192	1	96
NMHLD	33	192	3	96
NMTAP	34	0	0
NMTAP	34	96	0
NMTAP	34	192	2
NMTAP	34	192	6
NMTAP	34	288	2
NMTAP	34	288	6
NMHLD	35	0	6	96
NMHLD	35	0	7	96
NMHLD	35	192	0	96
NMHLD	35	192	1	96
NMTAP	36	0	7
NMTAP	36	96	7
NMTAP	36	192	1
NMTAP	36	192	5
NMTAP	36	288	1
NMTAP	36	288	5
NMTAP	37	0	2
NMTAP	37	0	6
NMSTR	37	96	2
NMSCR	37	96	2	96	96	5
NMSTR	37	96	6
NMSCR	37	96	6	96	96	1
NMTAP	38	0	4
NMTAP	38	96	4
NMTAP	38	192	2
NMTAP	38	192	6
NMTAP	38	288	2
NMTAP	38	288	6
NMHLD	39	0	6	96
NMHLD	39	0	7	96
NMHLD	39	192	0	96
NMHLD	39	192	1	96
NMTAP	40	0	2
NMTAP	40	96	4
NMSTR	40	192	6
BRSI_	40	192	6	96	96	2
BRTAP	41	288	7
NMTAP	42	0	0
NMHLD	42	0	6	96
NMTAP	42	96	4
NMHLD	42	192	1	96
NMTAP	42	192	7
NMTAP	42	288	3
NMTAP	43	0	5
NMSTR	43	96	2
NMSI_	43	96	2	96	96	7
NMSTR	43	96	6
NMSI_	43	96	6	96	96	3
EXTAP	44	0	0
NMTAP	44	96	1
NMTAP	44	96	3
NMTAP	44	192	7
NMTAP	44	288	4
NMTAP	44	288	6
NMTAP	45	0	2
NMTAP	45	96	4
NMTAP	45	192	3
NMTAP	45	192	5
NMTAP	45	288	3
NMTAP	45	288	5
NMHLD	46	0	1	96
NMTAP	46	0	7
NMTAP	46	96	3
NMTAP	46	192	0
NMHLD	46	192	6	96
NMTAP	46	288	4
NMHLD	47	0	1	96
NMTAP	47	0	7
NMTAP	47	96	3
NMTAP	47	192	4
NMTAP	47	192	6
NMTAP	47	288	7
NMTAP	48	0	7
NMTAP	48	96	4
NMTAP	48	96	6
NMTAP	48	192	0
NMTAP	48	288	1
NMTAP	48	288	3
NMTAP	49	0	6
NMTAP	49	48	6
NMSTR	49	96	4
NMSF_	49	96	4	96	96	0
NMHLD	50	0	1	96
NMTAP	50	0	7
NMTAP	50	96	3
NMTAP	50	192	0
NMHLD	50	192	6	96
NMTAP	50	288	4
NMTAP	51	0	2
NMSTR	51	96	1
BRSI_	51	96	1	96	96	6
NMSTR	51	96	5
BRSI_	51	96	5	96	96	2
EXTAP	52	0	7
NMTAP	52	96	4
NMTAP	52	96	6
NMTAP	52	192	0
NMTAP	52	288	1
NMTAP	52	288	3
NMTAP	53	0	5
NMTAP	53	48	5
NMTAP	53	96	3
NMTAP	53	192	2
NMTAP	53	192	4
NMTAP	53	288	2
NMTAP	53	288	4
NMTAP	54	0	0
NMHLD	54	0	6	96
NMTAP	54	96	4
NMHLD	54	192	1	96
NMTAP	54	192	7
NMTAP	54	288	3
NMTAP	55	0	0
NMHLD	55	0	6	96
NMTAP	55	96	4
NMTAP	55	192	3
NMTAP	55	192	5
NMTAP	55	288	2
NMTAP	55	288	4
NMTAP	56	0	0
NMTAP	56	0	1
NMTAP	56	96	0
NMTAP	56	96	7
NMSTR	56	192	6
NMSI_	56	192	6	96	96	4
NMSTR	56	192	7
NMSI_	56	192	7	96	96	3
CNSI_	57	0	3	0	96	1
CNSI_	57	0	4	0	96	0
EXTAP	57	288	0
EXTAP	57	288	7
NMHLD	58	0	1	384
NMSTR	58	96	0
NMSI_	58	96	0	96	96	3
NMHLD	59	0	5	384
NMSTR	59	96	4
NMSI_	59	96	4	96	96	7
NMTAP	60	0	0
NMTAP	60	96	2
NMTAP	60	192	7
NMTAP	60	288	5
NMTAP	61	0	3
NMTAP	61	96	1
NMTAP	61	192	4
NMTAP	61	288	6
NMHLD	62	0	7	384
NMSTR	62	96	6
NMSI_	62	96	6	96	96	1
NMHLD	63	0	3	384
NMSTR	63	96	2
NMSI_	63	96	2	96	96	5
NMTAP	64	0	6
NMTAP	64	96	5
NMTAP	64	96	7
NMTAP	64	192	1
NMTAP	64	288	0
NMSTR	64	288	2
NMSUR	64	288	2	96	288	5
NMHLD	66	0	4	384
NMHLD	66	0	7	672
NMTTP	67	192	4	B	0	M1
NMTTP	67	192	5	B	0	M1
NMTTP	67	288	1	B	0	M1
NMTTP	67	288	2	B	0	M1
NMHLD	68	0	0	672
NMHLD	68	0	3	384
NMTTP	69	192	5	B	0	M1
NMTTP	69	192	6	B	0	M1
NMTTP	69	288	0	B	0	M1
NMTTP	69	288	7	B	0	M1
NMHLD	70	0	2	96
NMHLD	70	0	3	96
NMTAP	70	192	1
NMTAP	70	288	1
NMHLD	71	0	4	96
NMHLD	71	0	5	96
NMTAP	71	192	6
NMTAP	71	288	6
NMHLD	72	0	1	96
NMTAP	72	96	3
NMHLD	72	192	6	96
NMTAP	72	288	4
NMTAP	73	0	5
NMTAP	73	96	7
NMTAP	73	192	0
NMTAP	73	288	2
NMHLD	74	0	6	96
NMTAP	74	96	7
NMTAP	74	192	3
NMTAP	74	192	4
BRHLD	74	288	0	384
BRHLD	74	288	1	384
NMSTR	76	0	7
NMSI_	76	0	7	96	192	4
EXTAP	76	288	3
EXTAP	76	336	3
EXTAP	77	0	2
EXTAP	77	0	4
NMSTR	77	96	1
NMSI_	77	96	1	96	96	6
NMSTR	77	96	5
NMSI_	77	96	5	96	96	2
NMTAP	78	0	6
NMTAP	78	0	7
NMTAP	78	96	4
NMTAP	78	192	0
NMTAP	78	192	1
NMTAP	78	288	3
NMTAP	79	0	4
NMTAP	79	0	6
NMTAP	79	96	7
NMTAP	79	192	1
NMTAP	79	192	3
NMTAP	79	288	0
NMSTR	80	0	0
NMSI_	80	0	0	96	96	3
NMSTR	80	0	4
NMSI_	80	0	4	96	96	7
NMTAP	80	288	2
NMSTR	81	0	3
NMSI_	81	0	3	96	96	0
NMSTR	81	0	7
NMSI_	81	0	7	96	96	4
NMTAP	81	288	5
NMHLD	82	0	7	96
NMTAP	82	96	4
NMHLD	82	192	0	96
NMTAP	82	288	3
NMTAP	83	0	6
NMTAP	83	96	6
NMTAP	83	96	7
NMTAP	83	192	1
NMTAP	83	288	0
NMTAP	83	288	1
BRHLD	84	0	1	96
BRHLD	84	0	3	96
BRHLD	84	144	0	96
BRHLD	84	144	7	96
BRTAP	84	288	4
BRTAP	84	288	6
NMTAP	85	0	4
NMTAP	85	0	5
NMSTR	85	96	6
BRSI_	85	96	6	96	96	3
NMSTR	85	96	7
BRSI_	85	96	7	96	96	2
NMTAP	86	0	0
NMHLD	86	0	1	96
NMTAP	86	96	7
NMHLD	86	192	6	96
NMTAP	86	192	7
NMTAP	86	288	0
NMTAP	87	0	0
NMTAP	87	0	1
NMTAP	87	96	2
NMTAP	87	96	3
NMTAP	87	192	4
NMTAP	87	192	5
NMTAP	87	288	6
NMTAP	87	288	7
NMSTR	88	0	6
NMSI_	88	0	6	96	96	3
NMSTR	88	0	7
NMSI_	88	0	7	96	96	2
NMTAP	88	288	1
NMHLD	89	0	2	96
NMTAP	89	0	3
NMTAP	89	96	0
NMTAP	89	192	4
NMHLD	89	192	5	96
NMTAP	89	288	7
NMTAP	90	0	0
NMHLD	90	0	7	96
NMTAP	90	96	5
NMHLD	90	192	0	96
NMTAP	90	192	7
NMSTR	90	288	2
NMSUR	90	288	2	96	288	5
NMHLD	92	0	6	672
NMHLD	93	0	7	288
NMHLD	94	0	0	192
NMTAP	94	0	1
NMTAP	94	192	6
NMTAP	95	0	6
NMHLD	95	0	7	192
NMTAP	95	192	1
NMTAP	95	288	1
NMTTP	96	0	0	C	1	M1

T_REC_TAP	233
T_REC_BRK	3
T_REC_XTP	10
T_REC_BXX	4
T_REC_HLD	66
T_REC_XHO	0
T_REC_BHO	6
T_REC_BXH	0
T_REC_STR	33
T_REC_BST	0
T_REC_XST	2
T_REC_XBS	0
T_REC_TTP	9
T_REC_THO	0
T_REC_SLD	30
T_REC_BSL	5
T_REC_ALL	401
T_NUM_TAP	287
T_NUM_BRK	18
T_NUM_HLD	66
T_NUM_SLD	30
T_NUM_ALL	401
T_JUDGE_TAP	294
T_JUDGE_HLD	286
T_JUDGE_SLD	35
T_JUDGE_ALL	615
TTM_EACHPAIRS	99
TTM_SCR_TAP	143500
TTM_SCR_BRK	46800
TTM_SCR_HLD	66000
TTM_SCR_SLD	45000
TTM_SCR_ALL	301300
TTM_SCR_S	290550
TTM_SCR_SS	299500
TTM_RAT_ACV	10060

