VERSION	0.00.00	1.04.00
FES_MODE	0
BPM_DEF	160.000	160.000	240.000	128.000
MET_DEF	4	4
RESOLUTION	384
CLK_DEF	384
COMPATIBLE_CODE	MA2

BPM	0	0	160.000
BPM	46	0	240.000
BPM	66	288	128.000
BPM	74	288	160.000
MET	0	0	4	4
MET	46	0	4	6
MET	49	0	4	5
MET	50	96	4	6
MET	51	288	8	15
MET	66	288	4	4

EXTAP	2	0	0
EXTAP	2	24	0
EXTAP	2	96	1
EXTAP	2	96	7
EXTAP	2	192	3
EXTAP	2	192	5
EXTAP	2	264	2
EXTAP	2	264	6
EXTAP	2	336	3
EXTAP	2	336	4
NMTAP	3	0	2
NMHLD	3	48	2	72
NMHLD	3	120	0	72
NMHLD	3	192	7	72
NMHLD	3	264	5	72
NMTAP	3	336	4
EXTAP	4	0	6
EXTAP	4	48	6
EXTAP	4	120	0
EXTAP	4	120	6
EXTAP	4	192	5
EXTAP	4	192	7
EXTAP	4	264	1
EXTAP	4	264	3
EXTAP	4	336	4
EXTAP	4	336	5
NMTAP	5	0	5
NMHLD	5	48	5	72
NMHLD	5	120	7	72
NMHLD	5	192	0	72
NMHLD	5	264	2	72
NMTAP	5	336	3
NMTAP	6	0	1
NMHLD	6	48	1	72
NMHLD	6	120	2	72
NMHLD	6	192	3	72
NMTAP	6	264	4
NMTAP	6	336	4
NMTAP	6	336	5
NMTAP	7	0	6
NMHLD	7	48	6	72
NMHLD	7	120	5	72
NMHLD	7	192	4	72
NMTAP	7	264	3
NMTAP	7	336	2
NMTAP	7	336	3
NMTAP	8	0	1
NMHLD	8	48	1	72
NMHLD	8	120	3	72
NMHLD	8	192	4	72
NMHLD	8	264	6	72
NMTAP	8	336	7
NMSTR	9	0	7
NMSUR	9	0	7	96	120	1
CNSCR	9	216	1	0	72	4
NMSTR	10	0	5
NMSCR	10	0	5	96	96	0
NMSTR	10	96	0
NMSCR	10	96	0	96	96	3
NMSTR	10	192	3
NMSCR	10	192	3	96	96	6
NMSTR	10	288	6
NMSCR	10	288	6	96	96	1
NMSTR	11	0	1
NMSCR	11	0	1	96	96	4
NMSTR	11	96	4
NMSCR	11	96	4	96	96	7
NMSTR	11	192	7
BRSI_	11	192	7	96	48	3
NMTAP	11	288	2
NMSTR	12	0	2
NMSI_	12	0	2	96	96	7
NMSTR	12	96	7
NMSI_	12	96	7	96	96	4
NMSTR	12	192	4
NMSI_	12	192	4	96	96	1
NMSTR	12	288	1
NMSI_	12	288	1	96	96	6
NMSTR	13	0	6
NMSI_	13	0	6	96	96	3
NMSTR	13	96	3
NMSI_	13	96	3	96	96	0
NMSTR	13	192	0
BRSI_	13	192	0	96	48	4
NMTAP	13	288	5
EXTAP	14	0	6
EXTAP	14	0	7
NMTAP	14	48	5
NMTAP	14	96	2
NMTAP	14	96	4
NMTAP	14	144	1
NMTAP	14	192	1
NMTAP	14	192	3
NMTAP	14	240	4
NMTAP	14	288	3
NMTAP	14	288	5
NMTAP	14	336	6
NMTAP	15	0	0
NMTAP	15	0	6
NMTAP	15	48	5
NMTAP	15	96	3
NMTAP	15	96	4
NMTAP	15	144	2
NMTAP	15	192	1
NMTAP	15	192	7
NMTAP	15	240	2
NMTAP	15	288	3
NMTAP	15	288	5
NMTAP	15	336	6
NMTAP	16	0	0
NMTAP	16	24	7
NMTAP	16	48	0
NMTAP	16	72	7
NMTAP	16	96	0
NMTAP	16	120	7
NMTAP	16	144	0
NMTAP	16	168	7
NMTAP	16	192	1
NMTAP	16	216	6
NMTAP	16	240	0
NMTAP	16	264	7
NMSTR	16	288	1
NMSI_	16	288	1	96	32	5
NMTAP	16	312	6
NMTAP	16	336	0
NMTAP	16	360	7
BRTAP	17	0	1
NMTTP	17	288	0	B	0	M1
NMTTP	17	288	0	E	0	M1
NMTTP	17	288	1	E	0	M1
NMTTP	17	288	7	B	0	M1
NMTTP	17	288	7	E	0	M1
BRTAP	18	0	3
BRTAP	18	0	4
NMTAP	18	48	1
NMTAP	18	72	3
NMTAP	18	96	2
NMTAP	18	144	5
NMTAP	18	168	3
NMTAP	18	192	4
NMTAP	18	240	1
NMTAP	18	264	3
NMTAP	18	288	2
NMTAP	18	336	5
NMTAP	18	360	3
NMTAP	19	0	4
NMTAP	19	48	1
NMTAP	19	72	3
NMTAP	19	96	2
NMTAP	19	144	5
NMTAP	19	168	3
NMTAP	19	192	4
NMTAP	19	240	2
NMTAP	19	264	2
NMTAP	19	288	3
NMTAP	19	336	5
NMTAP	19	360	5
NMTAP	20	0	4
NMTAP	20	48	6
NMTAP	20	72	4
NMTAP	20	96	5
NMTAP	20	144	2
NMTAP	20	168	4
NMTAP	20	192	3
NMTAP	20	240	6
NMTAP	20	264	4
NMTAP	20	288	5
NMTAP	20	336	2
NMTAP	20	360	4
NMTAP	21	0	3
NMTAP	21	48	6
NMTAP	21	72	4
NMTAP	21	96	5
NMTAP	21	144	2
NMTAP	21	168	4
NMTAP	21	192	3
NMTAP	21	240	5
NMTAP	21	264	5
NMTAP	21	288	4
NMTAP	21	336	2
NMTAP	21	360	2
NMTAP	22	0	3
NMTAP	22	48	1
NMTAP	22	72	3
NMTAP	22	96	2
NMTAP	22	144	5
NMTAP	22	168	5
NMTAP	22	192	4
NMTAP	22	240	1
NMTAP	22	264	3
NMTAP	22	288	2
NMTAP	22	336	5
NMTAP	22	360	5
NMTAP	23	0	4
NMTAP	23	48	6
NMTAP	23	72	4
NMTAP	23	96	5
NMTAP	23	144	2
NMTAP	23	168	2
NMTAP	23	192	3
NMTAP	23	240	6
NMTAP	23	264	4
NMTAP	23	288	5
NMTAP	23	336	2
NMTAP	23	360	2
NMTAP	24	0	3
NMTAP	24	48	2
NMTAP	24	72	3
NMTAP	24	96	1
NMTAP	24	144	5
NMTAP	24	168	4
NMTAP	24	192	6
NMTAP	24	240	2
NMTAP	24	264	3
NMTAP	24	288	0
NMTAP	24	336	1
NMTAP	24	336	7
NMSTR	25	0	2
NMSLR	25	0	2	96	96	0
NMSTR	25	0	6
NMSLL	25	0	6	96	96	0
EXSTR	25	288	0
NMSI_	25	288	0	96	48	3
NMTAP	26	0	0
NMSTR	26	0	4
NMSI_	26	0	4	96	48	7
NMSTR	26	96	2
NMSI_	26	96	2	96	48	5
NMTAP	26	96	4
NMTAP	26	192	2
NMSTR	26	192	6
NMSI_	26	192	6	96	48	1
NMSTR	26	288	0
NMSI_	26	288	0	96	48	3
NMTAP	26	288	6
NMTAP	27	0	0
NMSTR	27	0	4
NMSI_	27	0	4	96	48	7
NMTAP	27	96	2
NMTAP	27	96	4
NMTAP	27	192	3
NMTAP	27	288	3
NMSTR	27	288	7
NMSI_	27	288	7	96	48	2
NMTAP	27	312	2
NMTAP	27	312	6
NMTAP	27	336	1
NMTAP	27	336	5
EXSTR	28	0	5
NMSI_	28	0	5	96	48	0
EXTAP	28	0	7
EXSTR	28	96	2
NMSI_	28	96	2	96	48	7
NMTAP	28	96	5
NMTAP	28	192	2
NMTAP	28	192	6
NMSTR	28	288	0
BRSUL	28	288	0	96	120	7
NMTAP	28	288	4
CNSI_	29	120	7	0	72	5
CNSCL	29	192	5	0	96	1
EXSTR	29	288	6
NMSI_	29	288	6	96	48	3
NMSTR	30	0	2
NMSI_	30	0	2	96	48	7
NMTAP	30	0	6
NMTAP	30	96	2
NMSTR	30	96	5
NMSI_	30	96	5	96	48	0
NMSTR	30	192	1
NMSI_	30	192	1	96	48	4
NMTAP	30	192	5
NMTAP	30	288	1
NMSTR	30	288	7
NMSI_	30	288	7	96	48	3
NMTAP	31	0	1
NMTAP	31	0	7
NMTAP	31	96	0
NMTAP	31	96	4
NMSTR	31	192	0
NMSI_	31	192	0	96	48	4
NMTAP	31	192	4
NMTAP	31	216	1
NMTAP	31	216	5
NMTAP	31	240	2
NMTAP	31	240	6
NMTAP	31	264	3
NMTAP	31	264	7
NMTAP	31	288	0
NMHLD	32	0	1	48
EXTAP	32	48	0
EXTAP	32	60	7
EXTAP	32	72	6
EXTAP	32	84	5
EXTAP	32	96	4
NMTAP	32	144	2
NMHLD	32	192	6	48
EXTAP	32	240	7
EXTAP	32	252	0
EXTAP	32	264	1
EXTAP	32	276	2
EXSTR	32	288	3
NMSCL	32	288	3	96	288	4
NMTAP	32	336	5
NMTAP	34	0	0
NMTAP	34	0	7
BRTAP	34	48	2
BRTAP	34	48	6
NMTAP	34	144	5
NMTAP	34	168	4
NMSTR	34	192	6
NMSLL	34	192	6	96	96	0
NMSTR	34	240	3
NMSI_	34	240	3	96	48	1
NMTAP	35	48	7
NMTAP	35	96	1
NMTAP	35	96	6
NMTAP	35	144	2
NMTAP	35	168	4
NMSTR	35	192	3
NMSI_	35	192	3	96	48	0
NMSTR	35	240	3
NMSI_	35	240	3	96	48	6
BRTAP	36	0	7
NMTTP	36	96	5	E	0	M1
NMTTP	36	96	5	A	0	M1
NMTTP	36	96	5	D	0	M1
NMTTP	36	144	2	A	0	M1
NMTTP	36	144	3	E	0	M1
NMTTP	36	144	3	D	0	M1
NMTTP	36	192	3	B	0	M1
NMTTP	36	192	4	B	0	M1
NMTTP	36	192	4	E	0	M1
NMTAP	36	240	0
NMTAP	36	264	7
NMTAP	36	288	0
NMTAP	36	336	1
NMTAP	36	336	6
NMTAP	37	0	5
NMTAP	37	24	3
NMTAP	37	48	4
NMTAP	37	72	2
NMSTR	37	96	3
NMSI_	37	96	3	96	48	7
NMTAP	37	144	3
NMSTR	37	192	1
NMSI_	37	192	1	96	48	5
NMTAP	37	240	1
NMHLD	37	288	6	96
NMTAP	38	0	0
BRTAP	38	48	1
BRTAP	38	48	5
NMTAP	38	144	2
NMTAP	38	168	3
NMSTR	38	192	1
NMSI_	38	192	1	96	48	5
NMSTR	38	240	0
NMSI_	38	240	0	96	48	4
NMTAP	39	24	2
NMTAP	39	72	2
NMTAP	39	96	3
NMTAP	39	144	2
NMTAP	39	144	3
NMSTR	39	192	4
NMSI_	39	192	4	96	48	7
NMSTR	39	240	4
NMSI_	39	240	4	96	48	1
BRTAP	40	0	0
BRTAP	40	48	0
NMTAP	40	144	2
NMTAP	40	144	6
NMTAP	40	192	3
NMTAP	40	216	5
NMTAP	40	240	3
NMTAP	40	264	5
NMTAP	40	288	2
NMTAP	40	312	6
NMTAP	40	336	2
NMTAP	40	360	6
NMTAP	41	0	1
NMTAP	41	24	7
NMTAP	41	48	1
NMTAP	41	72	7
NMTAP	41	96	0
NMTAP	41	120	7
NMTAP	41	144	0
NMTAP	41	168	7
EXHLD	41	240	1	48
EXHLD	41	240	6	48
EXHLD	41	336	3	48
EXHLD	41	336	4	48
BXTAP	42	48	3
BXTAP	42	48	4
EXTAP	42	64	2
EXTAP	42	64	5
EXTAP	42	80	1
EXTAP	42	80	6
EXSTR	42	96	0
NMSCR	42	96	0	96	1152	7
EXSTR	42	96	7
NMSCL	42	96	7	96	1152	0
NMHLD	46	0	0	192
NMHLD	46	0	1	192
NMHLD	46	288	1	48
NMHLD	46	288	3	48
NMHLD	47	0	3	48
NMHLD	47	0	4	48
NMHLD	47	96	4	48
NMHLD	47	96	6	48
NMHLD	47	192	6	192
NMHLD	47	192	7	192
NMHLD	48	96	4	48
NMHLD	48	96	6	48
NMHLD	48	192	3	48
NMHLD	48	192	4	48
NMHLD	48	288	1	48
NMHLD	48	288	3	48
NMHLD	49	0	0	192
NMHLD	49	0	1	192
NMHLD	49	288	2	48
NMHLD	49	288	3	48
NMHLD	50	0	4	48
NMHLD	50	0	5	48
NMTAP	50	96	6
NMTAP	50	96	7
NMTAP	50	192	0
NMTAP	50	240	0
NMTAP	50	288	6
NMTAP	50	336	6
NMTAP	51	0	2
NMTAP	51	48	2
NMTAP	51	96	4
NMTAP	51	144	4
BRTAP	51	192	3
BRTAP	51	192	4
NMHLD	51	288	1	144
NMTAP	52	0	0
NMHLD	52	48	7	144
NMTAP	52	144	0
NMHLD	52	192	1	144
NMTAP	52	288	0
NMHLD	52	336	7	96
NMTAP	53	48	0
NMTAP	53	144	6
NMTAP	53	144	7
NMHLD	53	240	6	144
NMTAP	53	336	7
NMHLD	54	0	0	144
NMTAP	54	96	7
NMHLD	54	144	6	144
NMTAP	54	240	7
NMHLD	54	288	0	96
NMTAP	55	0	7
NMTAP	55	96	0
NMTAP	55	96	1
NMHLD	55	192	2	144
NMTAP	55	288	1
NMHLD	55	336	0	144
NMTAP	56	48	1
NMHLD	56	96	2	144
NMTAP	56	192	1
NMHLD	56	240	0	96
NMTAP	56	336	7
NMTAP	57	48	6
NMTAP	57	48	7
NMHLD	57	144	5	144
NMTAP	57	240	6
NMHLD	57	288	7	144
NMTAP	58	0	6
NMHLD	58	48	5	144
NMTAP	58	144	6
NMHLD	58	192	7	96
NMTAP	58	288	0
NMTAP	59	0	0
NMTAP	59	0	1
NMHLD	59	96	1	144
NMTAP	59	192	2
NMHLD	59	240	3	144
NMTAP	59	336	2
NMHLD	60	0	1	144
NMTAP	60	96	2
NMHLD	60	144	3	96
NMHLD	60	240	4	96
NMTAP	60	336	5
NMTAP	61	0	4
NMHLD	61	48	6	144
NMTAP	61	144	5
NMHLD	61	192	4	144
NMTAP	61	288	5
NMHLD	61	336	6	144
NMTAP	62	48	5
NMHLD	62	96	4	96
NMHLD	62	192	3	96
NMTAP	62	288	2
NMTAP	62	336	3
NMHLD	63	0	1	144
NMTAP	63	96	7
NMHLD	63	144	7	144
NMTAP	63	240	5
NMHLD	63	288	5	144
NMTAP	64	0	3
NMHLD	64	48	3	144
NMTAP	64	144	1
NMHLD	64	192	1	144
NMTAP	64	288	7
NMHLD	64	336	7	144
NMTAP	65	48	0
NMTAP	65	96	0
NMTTP	65	144	0	C	1	M1
NMTTP	65	144	1	B	0	M1
NMTTP	65	144	6	B	0	M1
NMTAP	66	288	7
NMTAP	66	312	7
NMTAP	66	360	4
NMHLD	66	360	5	72
NMTAP	67	48	6
NMTAP	67	72	6
NMTAP	67	120	6
NMTAP	67	120	7
NMTAP	67	192	1
NMTAP	67	192	2
NMHLD	67	264	4	96
NMTAP	67	264	5
NMTAP	67	336	6
NMHLD	67	360	6	96
NMTAP	68	24	7
NMTAP	68	72	7
NMTAP	68	144	6
NMTAP	68	144	7
NMTAP	68	176	4
NMTAP	68	176	5
NMTAP	68	208	2
NMTAP	68	208	3
NMTAP	68	240	0
NMTAP	68	240	1
NMTAP	68	288	0
NMTAP	68	312	0
NMHLD	68	360	2	72
NMTAP	68	360	3
NMTAP	69	48	1
NMTAP	69	72	1
NMTAP	69	120	0
NMTAP	69	120	1
NMTAP	69	192	5
NMTAP	69	192	6
NMSTR	69	264	2
NMSI_	69	264	2	72	48	4
NMTAP	69	264	3
NMSTR	69	336	5
NMSI_	69	336	5	72	48	7
CNSCR	70	0	4	0	24	5
NMSTR	70	24	0
NMSI_	70	24	0	72	48	2
CNSCR	70	72	7	0	24	0
NMSTR	70	96	3
NMSCR	70	96	3	72	72	6
NMSSL	70	96	3	72	72	7
CNSCR	70	144	2	0	24	3
NMTAP	70	288	0
NMTAP	70	312	0
NMHLD	70	360	2	72
NMTAP	70	360	3
NMTAP	71	48	1
NMTAP	71	72	1
NMTAP	71	120	0
NMTAP	71	120	1
NMTAP	71	192	5
NMTAP	71	192	6
NMTAP	71	264	2
NMHLD	71	264	3	96
NMTAP	71	336	1
NMHLD	71	360	1	96
NMTAP	72	24	0
NMTAP	72	72	0
NMTAP	72	144	0
NMTAP	72	144	1
NMTAP	72	176	2
NMTAP	72	176	3
NMTAP	72	208	4
NMTAP	72	208	5
NMTAP	72	240	6
NMTAP	72	240	7
NMTAP	72	288	7
NMTAP	72	312	7
NMTAP	72	360	4
NMHLD	72	360	5	72
NMTAP	73	48	6
NMTAP	73	72	6
NMTAP	73	120	6
NMTAP	73	120	7
NMTAP	73	192	1
NMTAP	73	192	2
EXTAP	73	264	5
NMTAP	73	288	4
NMTAP	73	312	5
EXTAP	73	336	2
NMTAP	73	360	3
NMTAP	74	0	2
EXTAP	74	24	6
NMTAP	74	48	7
NMTAP	74	72	6
EXTAP	74	96	1
NMTAP	74	120	0
NMTAP	74	144	1
EXTAP	74	168	5
NMTAP	74	192	2
NMTAP	74	216	6
EXTAP	74	240	1
BXSTR	74	288	0
NMSXL	74	288	0	96	480	5
BXSTR	74	288	7
NMSXR	74	288	7	96	480	2
NMTTP	74	296	0	E	0	M1
NMTTP	74	304	0	B	0	M1
NMTTP	74	304	7	B	0	M1
NMTTP	74	312	0	C	1	M1
NMTTP	74	312	1	B	0	M1
NMTTP	74	312	2	E	0	M1
NMTTP	74	312	6	B	0	M1
NMTTP	74	312	6	E	0	M1
NMTTP	74	320	2	A	0	M1
NMTTP	74	320	3	B	0	M1
NMTTP	74	320	3	E	0	M1
NMTTP	74	320	4	B	0	M1
NMTTP	74	320	5	E	0	M1
NMTTP	74	320	5	A	0	M1
NMHLD	76	288	2	768
NMTTP	77	0	3	E	0	M1
NMTTP	77	12	3	A	0	M1
NMTTP	77	192	5	E	0	M1
NMTTP	77	204	4	A	0	M1
NMTTP	78	0	3	E	0	M1
NMTTP	78	12	3	A	0	M1
NMTTP	78	192	5	E	0	M1
NMTTP	78	204	4	A	0	M1
NMHLD	78	288	5	768
NMTTP	79	0	5	E	0	M1
NMTTP	79	12	4	A	0	M1
NMTTP	79	192	3	E	0	M1
NMTTP	79	204	3	A	0	M1
NMTTP	80	0	5	E	0	M1
NMTTP	80	12	4	A	0	M1
NMTTP	80	192	3	E	0	M1
NMTTP	80	204	3	A	0	M1
NMHLD	80	288	2	384
NMTAP	81	0	3
NMTAP	81	192	3
NMHLD	81	288	5	384
NMTAP	82	0	4
NMTAP	82	192	4
NMTAP	82	288	3
NMTAP	82	336	2
NMTAP	83	0	5
NMTAP	83	48	6
NMTAP	83	96	2
NMTAP	83	144	1
NMTAP	83	192	6
NMTAP	83	240	7
BXTAP	83	288	0
BXTAP	83	312	0
BXTAP	83	336	0
BXTAP	83	360	0
BXTAP	84	0	0
BXTAP	84	24	0
BXTAP	84	48	0
BXTAP	84	72	0
BXTAP	84	96	0
BXTAP	84	120	0
BXTAP	84	144	0
BXTAP	84	168	0
BXSTR	84	192	1
NMSV_	84	192	1	96	48	3
BXSTR	84	192	7
NMSV_	84	192	7	96	48	4
NMTTP	84	288	0	C	1	M1
NMTAP	85	96	1
NMTAP	85	96	4
NMTAP	85	144	2
NMTAP	85	168	3
NMTAP	85	216	5
NMTAP	85	240	4
NMTAP	85	288	3
NMTAP	85	288	6
NMTAP	85	336	5
NMTAP	85	360	4
NMTAP	86	24	2
NMTAP	86	48	3
NMSTR	86	96	3
NMSI_	86	96	3	96	48	0
NMSI_	86	96	3	96	48	6
NMTAP	86	96	4
NMTAP	86	288	7
NMTAP	86	336	7
NMTAP	87	0	0
NMTAP	87	0	6
NMTAP	87	96	6
NMTAP	87	96	7
NMTAP	87	144	7
NMTAP	87	168	6
NMTAP	87	216	0
NMTAP	87	240	7
NMTAP	87	288	0
NMTAP	87	288	1
NMTAP	87	336	0
NMTAP	87	360	1
NMTAP	88	24	7
NMTAP	88	48	0
NMSTR	88	96	6
NMSI_	88	96	6	96	48	3
NMSTR	88	96	7
NMSI_	88	96	7	96	48	3
NMTAP	88	288	1
NMTAP	88	336	1
NMTAP	89	0	0
NMTAP	89	0	1
NMTAP	89	96	0
NMTAP	89	96	2
NMTAP	89	144	7
NMTAP	89	168	1
NMTAP	89	216	6
NMTAP	89	240	0
NMTAP	89	288	5
NMTAP	89	288	7
NMTAP	89	336	0
NMTAP	89	360	6
NMTAP	90	24	1
NMTAP	90	48	7
NMTAP	90	96	2
NMTAP	90	96	7
NMTAP	90	144	1
NMTAP	90	168	0
NMTAP	90	216	6
NMTAP	90	240	7
NMTAP	90	288	5
NMTAP	90	312	4
NMTAP	90	336	5
NMTAP	90	360	3
NMTAP	91	0	5
NMTAP	91	24	2
NMTAP	91	48	5
NMTAP	91	72	1
NMTAP	91	96	5
NMTAP	91	120	0
NMTAP	91	144	5
NMTAP	91	168	7
NMSTR	91	192	5
NMSI_	91	192	5	96	48	2
NMTTP	91	288	6	D	0	M1
NMTTP	91	300	6	E	0	M1
NMTTP	91	312	0	C	1	M1
NMTTP	91	324	2	E	0	M1
NMTTP	91	336	2	D	0	M1
EXHLD	92	288	0	144
EXHLD	92	288	7	144
EXTAP	93	96	0
EXTAP	93	96	7
EXTAP	93	144	0
EXTAP	93	144	7
BRTAP	93	192	1
BRSTR	93	192	6
NMSI_	93	192	6	96	36	3
NMSTR	93	288	1
NMSI_	93	288	1	96	36	5
NMTAP	93	288	6
NMTAP	93	336	0
NMTAP	94	0	1
NMSTR	94	0	4
NMSI_	94	0	4	96	36	0
NMTAP	94	48	3
NMSTR	94	96	2
NMSI_	94	96	2	96	36	7
NMTAP	94	96	4
NMTAP	94	144	1
NMTAP	94	192	2
NMSTR	94	192	6
NMSI_	94	192	6	96	36	1
NMTAP	94	240	5
NMSTR	94	288	0
NMSCR	94	288	0	96	36	3
NMTAP	94	288	6
NMTAP	94	336	7
NMTAP	95	0	0
NMSTR	95	0	4
NMSCR	95	0	4	96	36	7
NMTAP	95	48	5
NMSTR	95	96	2
NMSI_	95	96	2	96	48	5
NMTAP	95	96	4
NMTAP	95	144	1
NMTAP	95	192	2
NMSTR	95	192	6
NMSI_	95	192	6	96	48	3
NMTAP	95	240	7
NMSTR	95	288	0
NMSI_	95	288	0	96	48	3
NMTAP	95	288	6
NMTAP	95	336	1
NMTAP	96	0	0
NMTAP	96	0	4
NMTAP	96	48	5
NMSTR	96	96	2
NMSI_	96	96	2	96	36	7
NMSTR	96	96	6
NMSI_	96	96	6	96	36	3
NMTAP	96	144	3
NMTAP	96	144	7
BRTAP	96	192	2
BRTAP	96	192	6
NMSTR	96	288	0
NMSI_	96	288	0	96	48	4
NMTAP	96	288	4
NMTAP	96	336	1
NMTAP	97	0	0
NMSTR	97	0	7
NMSI_	97	0	7	96	48	2
NMTAP	97	48	6
NMSTR	97	96	3
NMSI_	97	96	3	96	48	7
NMTAP	97	96	7
NMTAP	97	144	4
NMTAP	97	192	3
NMSTR	97	192	5
NMSI_	97	192	5	96	48	1
NMTAP	97	240	6
NMSTR	97	288	2
NMSI_	97	288	2	96	48	7
NMTAP	97	288	5
NMTAP	97	336	3
NMTAP	98	0	2
NMSTR	98	0	6
NMSCL	98	0	6	96	48	3
NMTAP	98	48	5
NMSTR	98	96	0
BRSSL	98	96	0	96	48	4
NMTAP	98	96	6
NMTAP	98	144	7
NMTAP	98	192	0
NMTAP	98	288	2
NMTAP	98	288	5
NMTAP	98	336	1
NMTAP	98	360	3
NMTAP	99	0	2
NMTAP	99	24	3
BRTAP	99	48	0
NMTAP	99	96	1
NMTAP	99	96	7
NMTAP	99	144	6
NMTAP	99	168	4
NMTAP	99	192	5
NMTAP	99	216	4
BRTAP	99	240	7
NMTAP	99	288	0
NMTAP	99	312	7
NMTAP	99	336	0
NMTAP	99	360	7
NMTAP	100	0	0
NMTAP	100	12	1
NMTAP	100	24	2
NMTAP	100	36	3
NMTAP	100	48	7
NMTAP	100	60	6
NMTAP	100	72	5
NMTAP	100	84	4
NMSTR	100	96	0
BRSF_	100	96	0	96	48	4
NMTAP	100	144	2
NMTAP	100	144	6
BRTAP	100	192	0
NMSTR	100	288	3
NMSI_	100	288	3	96	48	0
NMSTR	100	288	6
NMSI_	100	288	6	96	48	2
NMTAP	101	96	1
NMTAP	101	96	3
NMTAP	101	144	4
NMTAP	101	144	6
NMSTR	101	192	0
BRSXL	101	192	0	96	696	3
NMSTR	101	192	7
BRSXR	101	192	7	96	696	4
NMTAP	101	216	1
NMTAP	101	216	6
BRTAP	101	264	0
BRTAP	101	264	7

T_REC_TAP	484
T_REC_BRK	20
T_REC_XTP	46
T_REC_BXX	14
T_REC_HLD	87
T_REC_XHO	6
T_REC_BHO	0
T_REC_BXH	0
T_REC_STR	71
T_REC_BST	1
T_REC_XST	7
T_REC_XBS	4
T_REC_TTP	53
T_REC_THO	0
T_REC_SLD	78
T_REC_BSL	7
T_REC_ALL	878
T_NUM_TAP	661
T_NUM_BRK	46
T_NUM_HLD	93
T_NUM_SLD	78
T_NUM_ALL	878
T_JUDGE_TAP	700
T_JUDGE_HLD	198
T_JUDGE_SLD	85
T_JUDGE_ALL	983
TTM_EACHPAIRS	143
TTM_SCR_TAP	330500
TTM_SCR_BRK	119600
TTM_SCR_HLD	93000
TTM_SCR_SLD	117000
TTM_SCR_ALL	660100
TTM_SCR_S	635850
TTM_SCR_SS	655500
TTM_RAT_ACV	10070

