VERSION	0.00.00	1.04.00
FES_MODE	0
BPM_DEF	160.000	160.000	240.000	128.000
MET_DEF	4	4
RESOLUTION	384
CLK_DEF	384
COMPATIBLE_CODE	MA2

BPM	0	0	160.000
BPM	46	0	240.000
BPM	66	288	128.000
BPM	74	288	160.000
MET	0	0	4	4
MET	46	0	4	6
MET	49	0	4	5
MET	50	96	4	6
MET	51	288	8	15
MET	66	288	4	4

NMTTP	2	0	1	B	0	M1
NMTTP	2	0	2	B	0	M1
NMTTP	2	0	3	B	0	M1
NMTTP	2	0	4	B	0	M1
NMTTP	2	0	5	B	0	M1
NMTTP	2	0	6	B	0	M1
EXSTR	2	96	0
NMSCR	2	96	0	96	48	3
EXSTR	2	96	7
NMSCL	2	96	7	96	48	4
NMTAP	3	0	2
NMTAP	3	48	2
NMTAP	3	96	3
NMTAP	3	192	2
NMTAP	3	192	4
NMHLD	3	288	3	288
NMSTR	3	288	5
NMSXL	3	288	5	96	192	4
NMTAP	5	0	5
NMTAP	5	48	5
NMTAP	5	96	4
NMTAP	5	192	3
NMTAP	5	192	5
NMTAP	5	288	2
NMTAP	5	288	4
NMTAP	6	0	1
NMTAP	6	48	1
NMTAP	6	96	3
NMTAP	6	192	2
NMTAP	6	192	3
NMTAP	6	288	4
NMTAP	6	288	5
NMTAP	7	0	6
NMTAP	7	48	6
NMTAP	7	96	4
NMTAP	7	192	4
NMTAP	7	192	5
NMTAP	7	288	2
NMTAP	7	288	3
NMTAP	8	0	1
NMTAP	8	48	1
NMTAP	8	96	3
NMTAP	8	192	2
NMTAP	8	192	3
NMTAP	8	288	4
NMTAP	8	288	5
NMTTP	9	0	0	C	1	M1
NMTTP	9	0	2	E	0	M1
NMTTP	9	0	6	E	0	M1
NMHLD	10	0	0	48
NMHLD	10	0	1	48
NMHLD	10	96	1	48
NMHLD	10	96	2	48
NMHLD	10	192	2	48
NMHLD	10	192	3	48
NMHLD	10	288	1	48
NMHLD	10	288	2	48
NMTAP	11	0	0
NMTAP	11	48	0
NMTAP	11	96	3
NMTAP	11	144	3
NMHLD	11	192	1	96
NMHLD	11	192	2	96
NMHLD	12	0	6	48
NMHLD	12	0	7	48
NMHLD	12	96	5	48
NMHLD	12	96	6	48
NMHLD	12	192	4	48
NMHLD	12	192	5	48
NMHLD	12	288	5	48
NMHLD	12	288	6	48
NMTAP	13	0	7
NMTAP	13	48	7
NMTAP	13	96	4
NMTAP	13	144	4
NMHLD	13	192	5	96
NMHLD	13	192	6	96
NMHLD	14	0	0	48
NMHLD	14	0	3	48
NMHLD	14	96	0	48
NMHLD	14	96	3	48
NMHLD	14	192	4	48
NMHLD	14	192	7	48
NMHLD	14	288	4	48
NMHLD	14	288	7	48
NMTAP	15	0	0
NMTAP	15	0	7
NMTAP	15	48	0
NMTAP	15	48	7
NMTAP	15	96	0
NMTAP	15	96	7
NMTAP	15	192	3
NMTAP	15	192	4
NMTAP	15	240	3
NMTAP	15	240	4
NMTAP	15	288	3
NMTAP	15	288	4
NMHLD	16	0	1	96
NMHLD	16	0	5	96
NMSTR	16	192	0
NMSI_	16	192	0	96	48	4
NMTTP	17	0	0	B	0	M1
NMTTP	17	0	0	C	1	M1
NMTTP	17	0	1	B	0	M1
NMTTP	17	0	6	B	0	M1
NMTTP	17	0	7	B	0	M1
NMSTR	18	0	7
NMSI_	18	0	7	96	48	5
NMSTR	18	96	0
NMSI_	18	96	0	96	48	4
NMSTR	18	192	7
NMSI_	18	192	7	96	48	5
NMSTR	18	288	0
NMSI_	18	288	0	96	48	4
NMSTR	19	0	7
NMSI_	19	0	7	96	48	5
NMSTR	19	96	0
NMSI_	19	96	0	96	48	4
NMSTR	19	192	7
NMSI_	19	192	7	96	48	5
NMSTR	19	288	0
NMSI_	19	288	0	96	48	4
NMSTR	20	0	7
NMSI_	20	0	7	96	48	5
NMSTR	20	96	0
NMSI_	20	96	0	96	48	4
NMSTR	20	192	7
NMSI_	20	192	7	96	48	5
NMSTR	20	288	0
NMSI_	20	288	0	96	48	4
NMSTR	21	0	7
NMSI_	21	0	7	96	48	5
NMSTR	21	96	0
NMSI_	21	96	0	96	48	4
NMSTR	21	192	7
NMSI_	21	192	7	96	48	5
NMTAP	21	288	0
NMTAP	21	336	0
NMSTR	22	0	0
NMSI_	22	0	0	96	48	2
NMSTR	22	96	7
NMSI_	22	96	7	96	48	3
NMSTR	22	192	0
NMSI_	22	192	0	96	48	2
NMSTR	22	288	7
NMSI_	22	288	7	96	48	3
NMSTR	23	0	0
NMSI_	23	0	0	96	48	2
NMSTR	23	96	7
NMSI_	23	96	7	96	48	3
NMSTR	23	192	0
NMSI_	23	192	0	96	48	2
NMSTR	23	288	7
NMSI_	23	288	7	96	48	3
NMSTR	24	0	0
NMSI_	24	0	0	96	48	2
NMSTR	24	96	7
NMSI_	24	96	7	96	48	3
NMSTR	24	192	0
NMSI_	24	192	0	96	48	2
NMSTR	24	288	7
NMSI_	24	288	7	96	48	3
NMSTR	25	0	0
NMSCR	25	0	0	96	144	7
NMTAP	26	0	2
NMTAP	26	0	3
NMTAP	26	48	1
NMTAP	26	96	2
NMTAP	26	96	3
NMTAP	26	144	4
NMTAP	26	192	2
NMTAP	26	192	3
NMTAP	26	240	1
NMTAP	26	288	2
NMTAP	26	288	3
NMTAP	26	336	4
NMTAP	27	0	2
NMTAP	27	0	3
NMTAP	27	48	1
NMTAP	27	96	2
NMTAP	27	96	3
NMTAP	27	144	4
NMTAP	27	192	2
NMTAP	27	192	3
NMTAP	27	240	1
NMTAP	27	288	0
NMTAP	27	288	3
NMTAP	28	0	4
NMTAP	28	0	5
NMTAP	28	48	6
NMTAP	28	96	4
NMTAP	28	96	5
NMTAP	28	144	3
NMTAP	28	192	4
NMTAP	28	192	5
NMTAP	28	240	6
NMTAP	28	288	4
NMTAP	28	288	5
NMTAP	28	336	3
NMHLD	29	0	4	96
NMHLD	29	0	5	96
NMTTP	29	192	4	B	1	M1
NMTTP	29	192	5	E	0	M1
NMHLD	30	0	6	48
NMHLD	30	0	7	48
NMHLD	30	96	3	48
NMHLD	30	96	4	48
NMHLD	30	192	0	48
NMHLD	30	192	1	48
NMHLD	30	288	3	48
NMHLD	30	288	4	48
NMHLD	31	0	4	48
NMHLD	31	0	6	48
NMHLD	31	96	1	48
NMHLD	31	96	3	48
NMTAP	31	192	2
NMTAP	31	216	3
NMTAP	31	240	2
NMTAP	31	264	3
NMTAP	31	288	2
NMTAP	32	0	4
NMTAP	32	0	5
NMTAP	32	48	3
NMTAP	32	48	6
NMTAP	32	144	2
NMTAP	32	144	3
NMTAP	32	192	1
NMTAP	32	192	4
NMSTR	32	288	6
NMSI_	32	288	6	96	96	3
NMHLD	32	288	7	384
CNSI_	33	96	3	0	48	5
CNSCR	33	144	5	0	144	2
BRTAP	34	0	0
BRTAP	34	0	5
NMTAP	34	144	2
NMTAP	34	144	5
NMSTR	34	192	3
NMSCL	34	192	3	96	48	0
NMSTR	34	192	4
NMSCR	34	192	4	96	48	7
NMTTP	35	48	3	E	0	M1
NMTTP	35	48	5	E	0	M1
NMTTP	35	96	2	B	0	M1
NMTTP	35	96	5	B	0	M1
NMTTP	35	144	1	B	0	M1
NMTTP	35	144	6	B	0	M1
NMTTP	35	192	1	E	0	M1
NMTTP	35	192	7	E	0	M1
NMTAP	35	288	0
NMTAP	35	288	7
NMHLD	36	0	1	48
NMHLD	36	0	3	48
NMHLD	36	96	4	48
NMHLD	36	96	6	48
NMHLD	36	192	2	48
NMHLD	36	192	3	48
NMHLD	36	288	4	48
NMHLD	36	288	5	48
NMTTP	37	0	6	E	1	M1
NMTTP	37	48	7	E	1	M1
NMTTP	37	96	0	E	1	M1
NMTTP	37	144	1	E	1	M1
NMTTP	37	192	2	E	1	M1
NMHLD	38	0	4	96
NMHLD	38	0	5	96
NMTAP	38	144	4
NMTAP	38	144	6
NMSTR	38	192	4
NMSI_	38	192	4	96	48	2
NMHLD	38	192	6	96
NMHLD	39	0	2	96
NMHLD	39	0	3	96
NMTAP	39	144	1
NMTAP	39	144	3
NMHLD	39	192	1	96
NMSTR	39	192	3
NMSI_	39	192	3	96	48	5
NMHLD	40	0	4	96
NMHLD	40	0	5	96
NMTAP	40	144	4
NMTAP	40	144	6
NMSTR	40	192	4
NMSI_	40	192	4	96	48	2
NMHLD	40	192	6	96
NMHLD	41	0	2	96
NMHLD	41	0	3	96
NMTAP	41	144	1
NMTAP	41	144	3
NMHLD	41	192	1	96
NMSTR	41	192	3
NMSI_	41	192	3	96	48	5
BXSTR	42	0	3
NMSV_	42	0	3	96	192	1
BXHLD	42	0	7	1152
CNSCL	42	288	1	0	864	5
EXHLD	46	0	3	192
EXHLD	46	0	6	192
NMTAP	46	288	4
NMTAP	46	288	5
NMTAP	47	0	4
NMTAP	47	0	5
NMTAP	47	96	4
NMTAP	47	96	5
EXHLD	47	192	1	192
EXHLD	47	192	4	192
NMTAP	48	96	2
NMTAP	48	96	3
NMTAP	48	192	2
NMTAP	48	192	3
NMTAP	48	288	2
NMTAP	48	288	3
EXHLD	49	0	3	192
EXHLD	49	0	6	192
NMTTP	49	288	3	B	0	M1
NMTTP	49	288	3	E	0	M1
NMTTP	49	288	6	B	0	M1
NMTTP	49	288	7	E	0	M1
EXHLD	50	96	1	192
EXHLD	50	96	4	192
NMTTP	51	0	1	B	0	M1
NMTTP	51	0	1	E	0	M1
NMTTP	51	0	4	B	0	M1
NMTTP	51	0	5	E	0	M1
NMTTP	51	288	6	B	0	M1
NMTTP	52	0	4	B	0	M1
NMTTP	52	96	2	B	0	M1
NMTTP	52	192	0	B	0	M1
NMTTP	52	288	6	E	0	M1
NMTTP	53	0	4	E	0	M1
NMTTP	53	96	2	E	0	M1
NMTTP	53	192	0	E	0	M1
NMTTP	53	288	6	A	0	M1
NMTTP	54	0	4	A	0	M1
NMTTP	54	96	2	A	0	M1
NMTTP	54	192	0	A	0	M1
NMTTP	54	288	6	D	0	M1
NMTTP	55	0	4	D	0	M1
NMTTP	55	96	2	D	0	M1
NMTTP	55	192	1	B	0	M1
NMTTP	55	288	3	B	0	M1
NMTTP	56	0	5	B	0	M1
NMTTP	56	96	7	B	0	M1
NMTTP	56	192	2	E	0	M1
NMTTP	56	288	4	E	0	M1
NMTTP	57	0	6	E	0	M1
NMTTP	57	96	0	E	0	M1
NMTTP	57	192	1	A	0	M1
NMTTP	57	288	3	A	0	M1
NMTTP	58	0	5	A	0	M1
NMTTP	58	96	7	A	0	M1
NMTTP	58	192	2	D	0	M1
NMTTP	58	288	4	D	0	M1
NMTTP	59	0	6	D	0	M1
NMHLD	59	96	2	96
NMHLD	59	192	3	96
NMHLD	59	288	4	96
NMHLD	60	0	5	96
NMTAP	60	96	6
NMTAP	60	192	5
NMTAP	60	288	4
NMTAP	61	0	4
NMTAP	61	0	6
NMHLD	61	96	5	96
NMHLD	61	192	4	96
NMHLD	61	288	3	96
NMHLD	62	0	2	96
NMTAP	62	96	1
NMTAP	62	192	1
NMTAP	62	288	1
NMTAP	62	288	3
NMHLD	63	0	2	96
NMHLD	63	96	3	96
NMHLD	63	192	4	96
NMHLD	63	288	5	96
NMTAP	64	0	6
NMTAP	64	96	5
NMTAP	64	192	4
NMTAP	64	288	4
NMTAP	64	288	6
NMTAP	65	0	5
NMTAP	65	96	1
NMTAP	65	96	6
EXSTR	65	144	1
NMSLL	65	144	1	96	336	4
EXSTR	65	144	6
NMSLR	65	144	6	96	336	3
BXHLD	66	288	2	72
BXHLD	66	288	5	72
NMHLD	67	0	5	72
NMHLD	67	0	7	72
NMHLD	67	96	4	72
NMHLD	67	96	6	72
NMHLD	67	192	3	72
NMHLD	67	192	5	72
NMHLD	67	288	1	72
NMHLD	67	288	2	72
NMHLD	68	0	0	72
NMHLD	68	0	7	72
NMHLD	68	96	2	72
NMHLD	68	96	4	72
NMHLD	68	192	3	72
NMHLD	68	192	7	72
NMHLD	68	288	2	72
NMHLD	68	288	5	72
NMHLD	69	0	0	72
NMHLD	69	0	2	72
NMHLD	69	96	1	72
NMHLD	69	96	3	72
NMHLD	69	192	2	72
NMHLD	69	192	4	72
NMHLD	69	288	5	72
NMHLD	69	288	6	72
NMHLD	70	0	0	72
NMHLD	70	0	7	72
NMHLD	70	96	3	72
NMHLD	70	96	5	72
NMHLD	70	192	1	72
NMHLD	70	192	4	72
NMSTR	70	288	2
NMSI_	70	288	2	96	48	4
NMSTR	71	0	0
NMSI_	71	0	0	96	48	6
NMSTR	71	96	1
NMSI_	71	96	1	96	48	5
NMSTR	71	192	4
NMSI_	71	192	4	96	48	2
NMSTR	71	288	6
NMSI_	71	288	6	96	48	0
NMSTR	72	0	5
NMSI_	72	0	5	96	48	1
NMSTR	72	96	4
NMSSL	72	96	4	96	96	0
NMSTR	72	288	5
NMSI_	72	288	5	96	48	3
NMSTR	73	0	7
NMSI_	73	0	7	96	48	1
NMSTR	73	96	6
NMSI_	73	96	6	96	48	2
NMSTR	73	192	3
NMSI_	73	192	3	96	48	5
NMSTR	73	288	1
NMSI_	73	288	1	96	48	7
NMSTR	74	0	2
NMSI_	74	0	2	96	48	6
NMSTR	74	96	5
NMSI_	74	96	5	96	48	1
NMSTR	74	192	0
NMSF_	74	192	0	96	384	4
NMHLD	76	288	4	1440
NMTTP	77	0	6	E	0	M1
NMTTP	77	192	2	E	0	M1
NMTTP	78	0	6	E	0	M1
NMTTP	78	192	2	E	0	M1
NMTTP	79	0	6	E	0	M1
NMTTP	79	192	2	E	0	M1
NMTTP	80	0	6	E	0	M1
NMTTP	80	192	2	E	0	M1
NMTAP	80	288	4
NMTAP	81	0	4
NMTAP	81	0	5
NMTAP	81	96	4
NMTAP	81	192	3
NMTAP	81	192	4
NMTAP	81	288	4
NMTAP	82	0	4
NMTAP	82	0	6
NMTAP	82	96	4
NMTAP	82	192	2
NMTAP	82	192	4
NMTAP	82	288	2
NMTAP	82	288	3
NMTAP	83	0	3
NMTAP	83	0	4
NMTAP	83	96	4
NMTAP	83	96	5
EXTAP	83	192	0
EXTAP	83	192	7
BXTAP	83	288	1
BXTAP	83	312	0
BXTAP	83	336	1
BXTAP	83	360	0
BXTAP	84	0	1
BXTAP	84	24	0
BXTAP	84	48	1
BXTAP	84	72	0
BXTAP	84	96	1
BXTAP	84	120	0
BXTAP	84	144	1
BXTAP	84	168	0
BXTAP	84	192	1
NMTTP	84	288	0	B	0	M1
NMTTP	84	288	0	E	0	M1
NMTTP	84	288	0	A	0	M1
NMTTP	84	288	0	D	1	M1
NMTTP	84	288	1	E	0	M1
NMTTP	84	288	7	B	0	M1
NMTTP	84	288	7	E	0	M1
NMTTP	84	288	7	A	0	M1
NMHLD	85	96	6	72
NMHLD	85	168	5	72
NMSTR	85	240	4
BRSF_	85	240	4	96	144	0
EXTAP	85	288	4
NMTAP	86	192	0
NMTAP	86	192	6
NMTAP	86	240	1
NMTAP	86	264	0
NMHLD	86	288	1	96
NMTAP	87	0	3
NMTAP	87	48	4
NMHLD	87	96	6	72
NMTAP	87	168	4
NMTAP	87	240	3
NMTAP	87	240	4
NMTAP	87	288	2
NMTAP	87	312	3
NMTAP	87	336	2
NMTAP	87	360	3
NMTAP	88	0	2
NMTAP	88	48	1
NMTAP	88	48	4
NMHLD	88	96	0	96
NMTAP	88	192	7
NMTAP	88	240	1
NMTAP	88	240	6
NMHLD	88	288	2	72
NMTAP	88	360	3
NMTAP	89	48	1
NMTAP	89	48	4
NMHLD	89	96	5	72
NMTAP	89	168	4
NMTAP	89	240	3
NMTAP	89	240	6
NMHLD	89	288	7	72
NMTAP	89	360	5
NMTAP	90	48	1
NMTAP	90	48	6
NMHLD	90	96	0	72
NMTAP	90	168	2
NMTAP	90	240	1
NMTAP	90	240	6
NMHLD	90	288	5	72
NMTAP	90	360	4
NMTAP	91	48	2
NMTAP	91	72	3
NMTAP	91	96	2
NMTAP	91	168	4
NMTAP	91	168	6
NMTAP	91	240	0
NMTAP	91	240	7
NMTTP	91	288	0	B	0	M1
NMTTP	91	288	0	C	1	M1
NMTTP	91	288	1	B	0	M1
NMTTP	91	288	2	B	0	M1
NMTTP	91	288	3	B	0	M1
NMTTP	91	288	4	B	0	M1
NMTTP	91	288	5	B	0	M1
NMTTP	91	288	6	B	0	M1
NMTTP	91	288	7	B	0	M1
EXHLD	92	288	1	96
EXTAP	92	288	3
NMTAP	93	0	0
EXTAP	93	96	6
EXTAP	93	96	7
EXTAP	93	144	6
EXTAP	93	144	7
BXTAP	93	192	0
BXTAP	93	192	4
NMTAP	93	288	1
NMTAP	93	312	3
NMTAP	93	336	1
NMTAP	94	0	6
NMTAP	94	24	4
NMTAP	94	48	6
NMSTR	94	96	0
NMSI_	94	96	0	96	48	2
NMSI_	94	96	0	96	48	4
NMTAP	94	288	5
NMTAP	94	312	4
NMTAP	94	336	5
NMTAP	95	0	2
NMTAP	95	24	3
NMTAP	95	48	2
NMTAP	95	96	6
NMTAP	95	120	4
NMTAP	95	144	6
NMTAP	95	192	1
NMTAP	95	216	3
NMTAP	95	240	1
NMTAP	95	288	0
NMTAP	95	288	7
NMTAP	95	336	0
NMTAP	95	336	7
NMTAP	96	0	6
NMTAP	96	24	7
NMTAP	96	48	6
NMTAP	96	72	7
NMSTR	96	96	6
NMSI_	96	96	6	96	48	2
NMTAP	96	192	7
NMTAP	96	288	1
NMTAP	96	312	3
NMTAP	96	336	1
NMTAP	97	0	0
NMTAP	97	0	3
NMTAP	97	96	6
NMTAP	97	120	4
NMTAP	97	144	6
NMTAP	97	192	4
NMTAP	97	192	7
NMSTR	97	288	1
NMSI_	97	288	1	96	48	5
NMTAP	97	336	1
NMSTR	98	0	6
NMSI_	98	0	6	96	48	3
NMTAP	98	48	6
NMSTR	98	96	0
NMSI_	98	96	0	96	48	4
NMTAP	98	144	0
NMTAP	98	192	7
NMTAP	98	288	6
NMTAP	98	312	4
NMTAP	98	336	6
NMTAP	99	0	0
NMTAP	99	0	5
NMTAP	99	96	1
NMTAP	99	120	3
NMTAP	99	144	1
NMTAP	99	192	2
NMTAP	99	192	7
BXTAP	99	288	6
BXTAP	99	288	7
NMTAP	99	336	6
NMTAP	99	336	7
BXTAP	100	0	0
BXTAP	100	0	1
NMTAP	100	48	0
NMTAP	100	48	1
BRSTR	100	96	2
BRSI_	100	96	2	96	48	7
BRSTR	100	96	3
BRSI_	100	96	3	96	48	6
NMSTR	100	288	0
NMSI_	100	288	0	96	48	4
NMSTR	100	288	5
NMSI_	100	288	5	96	48	7
NMTAP	101	96	0
NMTAP	101	96	3
NMTAP	101	144	1
NMTAP	101	144	6
NMTAP	101	192	0
NMTAP	101	192	7
NMTAP	101	216	0
NMTAP	101	216	7
BXSTR	101	264	1
NMSXR	101	264	1	96	504	3
BXSTR	101	264	6
NMSXL	101	264	6	96	504	4

T_REC_TAP	265
T_REC_BRK	2
T_REC_XTP	8
T_REC_BXX	19
T_REC_HLD	119
T_REC_XHO	9
T_REC_BHO	0
T_REC_BXH	3
T_REC_STR	60
T_REC_BST	2
T_REC_XST	4
T_REC_XBS	3
T_REC_TTP	92
T_REC_THO	0
T_REC_SLD	67
T_REC_BSL	3
T_REC_ALL	656
T_NUM_TAP	429
T_NUM_BRK	32
T_NUM_HLD	128
T_NUM_SLD	67
T_NUM_ALL	656
T_JUDGE_TAP	455
T_JUDGE_HLD	266
T_JUDGE_SLD	70
T_JUDGE_ALL	791
TTM_EACHPAIRS	147
TTM_SCR_TAP	214500
TTM_SCR_BRK	83200
TTM_SCR_HLD	128000
TTM_SCR_SLD	100500
TTM_SCR_ALL	526200
TTM_SCR_S	507350
TTM_SCR_SS	523000
TTM_RAT_ACV	10061

