VERSION	0.00.00	1.04.00
FES_MODE	0
BPM_DEF	160.000	160.000	240.000	128.000
MET_DEF	4	4
RESOLUTION	384
CLK_DEF	384
COMPATIBLE_CODE	MA2

BPM	0	0	160.000
BPM	46	0	240.000
BPM	66	288	128.000
BPM	74	288	160.000
MET	0	0	4	4
MET	46	0	4	6
MET	49	0	4	5
MET	50	96	4	6
MET	51	288	8	15
MET	66	288	4	4

NMTAP	2	0	2
NMTAP	2	96	2
NMTAP	2	192	1
NMTAP	2	192	3
NMTAP	3	0	3
NMTAP	3	0	4
NMTAP	3	96	3
NMTAP	3	96	4
NMTAP	3	192	3
NMTAP	3	192	4
NMTAP	4	0	5
NMTAP	4	96	5
NMTAP	4	192	4
NMTAP	4	192	6
NMTAP	5	0	0
NMTAP	5	0	7
NMTAP	5	96	0
NMTAP	5	96	7
NMTAP	5	192	0
NMTAP	5	192	7
NMTAP	6	0	6
NMTAP	6	96	6
NMTAP	6	192	5
NMTAP	6	192	7
NMTAP	7	0	3
NMTAP	7	0	4
NMTAP	7	96	3
NMTAP	7	96	4
NMTAP	7	192	3
NMTAP	7	192	4
NMTAP	8	0	1
NMTAP	8	96	1
NMTAP	8	192	0
NMTAP	8	192	2
EXTAP	9	0	0
EXTAP	9	0	7
EXTAP	9	96	0
EXTAP	9	96	7
EXTAP	9	192	0
EXTAP	9	192	7
NMTTP	10	0	1	B	0	L1
NMTTP	10	96	2	B	0	L1
NMTTP	10	192	3	B	0	L1
NMTTP	11	0	6	B	0	L1
NMTTP	11	96	5	B	0	L1
NMTTP	11	192	4	B	0	L1
NMTTP	12	0	0	B	0	L1
NMTTP	12	96	1	B	0	L1
NMTTP	12	192	2	B	0	L1
NMTTP	12	192	3	B	0	L1
NMTTP	13	0	7	B	0	L1
NMTTP	13	96	6	B	0	L1
NMTTP	13	192	4	B	0	L1
NMTTP	13	192	5	B	0	L1
NMTTP	14	0	1	B	0	L1
NMTTP	14	96	2	B	0	L1
NMTTP	14	192	3	B	0	L1
NMTTP	14	288	4	B	0	L1
NMTTP	15	0	5	B	0	L1
NMTTP	15	96	6	B	0	L1
NMTTP	15	192	0	B	0	L1
NMTTP	15	192	7	B	0	L1
NMTTP	16	0	5	B	0	L1
NMTTP	16	96	4	B	0	L1
NMTTP	16	192	3	B	0	L1
NMTTP	16	288	2	B	0	L1
NMTTP	17	0	0	C	1	L1
NMTAP	18	0	1
NMTAP	18	96	1
NMTAP	18	192	1
NMTAP	18	288	0
NMTAP	18	288	1
NMTAP	19	0	2
NMTAP	19	96	2
NMTAP	19	192	2
NMTAP	19	288	2
NMTAP	19	288	3
NMTAP	20	0	4
NMTAP	20	96	4
NMTAP	20	192	4
NMTAP	20	288	4
NMTAP	20	288	5
NMTAP	21	0	6
NMTAP	21	0	7
NMTAP	21	96	6
NMTAP	21	96	7
NMTAP	21	192	6
NMTAP	21	192	7
NMTAP	22	0	6
NMTAP	22	96	6
NMTAP	22	192	6
NMTAP	22	288	6
NMTAP	22	288	7
NMTAP	23	0	5
NMTAP	23	96	5
NMTAP	23	192	5
NMTAP	23	288	4
NMTAP	23	288	5
NMTAP	24	0	3
NMTAP	24	96	3
NMTAP	24	192	3
NMTAP	24	288	2
NMTAP	24	288	3
BRTAP	25	0	0
BRTAP	25	0	1
NMTAP	26	0	2
NMTAP	26	96	2
NMTAP	26	192	1
NMTAP	26	288	1
NMTAP	27	0	0
NMTAP	27	96	0
NMTAP	27	192	6
NMTAP	27	192	7
NMTAP	28	0	5
NMTAP	28	96	5
NMTAP	28	192	6
NMTAP	28	288	6
NMTAP	29	0	7
NMTAP	29	96	7
NMTAP	29	192	0
NMTAP	29	192	1
NMTAP	30	0	1
NMTAP	30	96	1
NMTAP	30	192	2
NMTAP	30	288	2
NMTAP	31	0	3
NMTAP	31	96	3
NMTAP	31	192	4
NMTAP	31	192	5
NMTAP	32	0	6
NMTAP	32	96	6
NMTAP	32	192	5
NMTAP	32	288	5
EXTAP	33	0	3
EXTAP	33	0	4
NMHLD	34	0	2	192
NMHLD	34	192	3	192
NMHLD	35	0	4	192
NMTAP	35	192	5
NMHLD	36	0	5	192
NMHLD	36	192	4	192
NMHLD	37	0	3	192
NMTAP	37	192	2
NMHLD	38	0	1	192
NMHLD	38	192	2	192
NMHLD	39	0	3	192
NMTAP	39	192	4
NMHLD	40	0	6	192
NMHLD	40	192	5	192
NMHLD	41	0	4	192
NMTAP	41	192	3
NMHLD	42	0	2	1152
NMHLD	42	0	5	1152
EXTAP	46	0	3
EXTAP	46	0	4
EXTAP	46	288	1
EXTAP	46	288	3
EXTAP	47	0	1
EXTAP	47	0	3
EXTAP	47	192	3
EXTAP	47	192	4
EXTAP	48	96	4
EXTAP	48	96	6
EXTAP	48	192	4
EXTAP	48	192	6
NMHLD	49	0	0	480
NMHLD	49	0	7	480
NMSTR	51	288	1
NMSI_	51	288	1	96	288	4
NMSTR	53	240	6
NMSI_	53	240	6	96	288	3
NMSTR	55	192	1
NMSI_	55	192	1	96	288	5
NMSTR	57	144	6
NMSI_	57	144	6	96	288	2
NMSTR	59	96	1
NMSUR	59	96	1	96	288	5
NMSTR	61	48	6
NMSUL	61	48	6	96	288	2
NMSTR	63	0	1
NMSLR	63	0	1	96	384	5
NMSTR	64	336	6
NMSLL	64	336	6	96	384	2
NMTAP	66	288	0
NMTAP	66	288	1
NMTAP	67	0	0
NMTAP	67	0	1
NMTAP	67	96	0
NMTAP	67	96	1
NMTAP	67	192	0
NMTAP	67	192	1
NMTAP	67	288	2
NMTAP	67	288	3
NMTAP	68	0	2
NMTAP	68	0	3
NMTAP	68	96	2
NMTAP	68	96	3
NMTAP	68	192	2
NMTAP	68	192	3
NMTAP	68	288	4
NMTAP	68	288	5
NMTAP	69	0	4
NMTAP	69	0	5
NMTAP	69	96	4
NMTAP	69	96	5
NMTAP	69	192	4
NMTAP	69	192	5
NMTAP	69	288	6
NMTAP	69	288	7
NMTAP	70	0	6
NMTAP	70	0	7
NMTAP	70	96	0
NMTAP	70	96	5
EXTAP	70	288	6
EXTAP	70	288	7
NMTAP	71	0	6
NMTAP	71	0	7
NMTAP	71	96	6
NMTAP	71	96	7
NMTAP	71	192	6
NMTAP	71	192	7
NMTAP	71	288	4
NMTAP	71	288	5
NMTAP	72	0	4
NMTAP	72	0	5
NMTAP	72	96	4
NMTAP	72	96	5
NMTAP	72	192	4
NMTAP	72	192	5
NMTAP	72	288	2
NMTAP	72	288	3
NMTAP	73	0	2
NMTAP	73	0	3
NMTAP	73	96	2
NMTAP	73	96	3
NMTAP	73	192	2
NMTAP	73	192	3
NMTAP	73	288	0
NMTAP	73	288	1
NMTAP	74	0	0
NMTAP	74	0	1
NMTAP	74	96	2
NMTAP	74	96	7
NMHLD	74	288	0	576
NMHLD	74	288	7	576
NMTAP	76	288	0
NMTAP	77	0	1
NMTAP	77	96	2
NMTAP	77	192	3
NMTAP	77	288	4
NMTAP	78	0	5
NMTAP	78	96	6
NMTAP	78	96	7
NMTAP	78	288	7
NMTAP	79	0	6
NMTAP	79	96	5
NMTAP	79	192	4
NMTAP	79	288	3
NMTAP	80	0	2
NMTAP	80	96	0
NMTAP	80	96	1
NMTAP	80	288	2
NMTAP	81	0	1
NMTAP	81	96	0
NMTAP	81	192	7
NMTAP	81	288	6
NMTAP	82	0	5
NMTAP	82	96	3
NMTAP	82	96	4
NMTAP	82	288	5
NMTAP	83	0	6
NMTAP	83	96	7
NMTAP	83	192	0
NMTAP	83	288	1
NMTAP	84	0	2
NMTAP	84	96	3
NMTAP	84	96	4
NMTAP	84	288	2
NMTAP	85	0	2
NMTAP	85	96	2
NMTAP	85	96	3
NMTAP	85	192	2
NMTAP	85	192	3
NMTAP	85	288	1
NMTAP	86	0	1
NMTAP	86	96	0
NMTAP	86	96	1
NMTAP	86	192	0
NMTAP	86	192	1
NMTAP	86	288	7
NMTAP	87	0	7
NMTAP	87	96	6
NMTAP	87	96	7
NMTAP	87	192	6
NMTAP	87	192	7
NMTAP	87	288	4
NMTAP	87	288	5
NMTAP	88	0	4
NMTAP	88	0	5
NMTAP	88	96	3
NMTAP	88	96	6
NMTAP	88	288	5
NMTAP	89	0	5
NMTAP	89	96	4
NMTAP	89	96	5
NMTAP	89	192	4
NMTAP	89	192	5
NMTAP	89	288	6
NMTAP	90	0	6
NMTAP	90	96	6
NMTAP	90	96	7
NMTAP	90	192	6
NMTAP	90	192	7
NMTAP	90	288	0
NMTAP	91	0	0
NMTAP	91	96	0
NMTAP	91	96	1
NMTAP	91	192	0
NMTAP	91	192	1
NMTAP	91	288	2
NMTAP	91	288	3
NMTAP	92	0	2
NMTAP	92	0	3
NMTAP	92	96	1
NMTAP	92	96	4
NMTAP	92	288	2
NMTAP	92	336	2
NMTAP	93	0	2
NMTAP	93	96	1
NMTAP	93	144	1
NMTAP	93	192	1
NMTAP	93	288	0
NMTAP	93	336	0
NMTAP	94	0	0
NMTAP	94	96	6
NMTAP	94	96	7
NMTAP	94	288	5
NMTAP	94	336	5
NMTAP	95	0	5
NMTAP	95	96	6
NMTAP	95	144	6
NMTAP	95	192	6
NMTAP	95	288	7
NMTAP	95	336	7
NMTAP	96	0	7
NMTAP	96	96	0
NMTAP	96	96	1
NMTAP	96	288	1
NMTAP	96	336	1
NMTAP	97	0	1
NMTAP	97	96	2
NMTAP	97	144	2
NMTAP	97	192	2
NMTAP	97	288	3
NMTAP	97	336	3
NMTAP	98	0	3
NMTAP	98	96	4
NMTAP	98	96	5
NMTAP	98	288	6
NMTAP	98	336	6
NMTAP	99	0	6
NMTAP	99	96	5
NMTAP	99	144	5
NMTAP	99	192	5
NMTAP	99	288	4
NMTAP	99	336	4
NMTAP	100	0	4
NMTAP	100	96	2
NMTAP	100	96	3
NMTAP	100	288	3
NMTAP	100	288	4
NMTAP	101	0	3
NMTAP	101	0	4
NMTHO	101	96	0	168	C	1	L1
NMTTP	101	96	2	B	0	L1
NMTTP	101	96	5	B	0	L1

T_REC_TAP	288
T_REC_BRK	2
T_REC_XTP	22
T_REC_BXX	0
T_REC_HLD	18
T_REC_XHO	0
T_REC_BHO	0
T_REC_BXH	0
T_REC_STR	8
T_REC_BST	0
T_REC_XST	0
T_REC_XBS	0
T_REC_TTP	29
T_REC_THO	1
T_REC_SLD	8
T_REC_BSL	0
T_REC_ALL	376
T_NUM_TAP	347
T_NUM_BRK	2
T_NUM_HLD	19
T_NUM_SLD	8
T_NUM_ALL	376
T_JUDGE_TAP	349
T_JUDGE_HLD	134
T_JUDGE_SLD	8
T_JUDGE_ALL	491
TTM_EACHPAIRS	97
TTM_SCR_TAP	173500
TTM_SCR_BRK	5200
TTM_SCR_HLD	19000
TTM_SCR_SLD	12000
TTM_SCR_ALL	209700
TTM_SCR_S	203250
TTM_SCR_SS	209500
TTM_RAT_ACV	10009

