VERSION	0.00.00	1.04.00
FES_MODE	0
BPM_DEF	174.000	176.000	287.000	 48.000
MET_DEF	4	4
RESOLUTION	384
CLK_DEF	384
COMPATIBLE_CODE	MA2

BPM	0	0	174.000
BPM	6	0	192.000
BPM	6	96	215.000
BPM	6	192	247.000
BPM	6	288	272.000
BPM	7	0	287.000
BPM	7	96	268.000
BPM	7	192	248.000
BPM	7	288	222.000
BPM	8	0	200.000
BPM	8	96	143.000
BPM	8	192	111.000
BPM	8	288	 48.000
BPM	9	0	 93.000
BPM	10	288	176.000
MET	0	0	4	4
MET	92	0	4	4

NMHLD	2	0	5	384
NMHLD	3	0	4	384
NMHLD	4	0	3	384
NMHLD	5	0	2	288
NMHLD	5	192	5	96
EXSTR	6	0	3
NMSF_	6	0	3	96	1008	7
NMTHO	9	0	0	672	C	1	M1
NMTTP	9	0	3	B	0	M1
NMTTP	9	0	4	B	0	M1
EXSTR	11	0	0
NMSI_	11	0	0	96	48	5
EXSTR	11	0	1
NMSI_	11	0	1	96	48	4
NMSTR	11	192	6
NMSI_	11	192	6	96	48	3
NMSTR	11	192	7
NMSI_	11	192	7	96	48	2
NMSTR	12	0	0
NMSI_	12	0	0	96	48	5
NMSTR	12	0	1
NMSI_	12	0	1	96	48	4
NMSTR	12	192	6
NMSI_	12	192	6	96	48	3
NMSTR	12	192	7
NMSI_	12	192	7	96	48	2
NMTAP	13	0	0
NMTAP	13	0	1
NMHLD	13	96	2	96
NMHLD	13	192	3	144
NMTAP	13	288	4
NMHLD	13	336	4	96
NMTAP	14	48	5
NMTAP	14	144	6
NMSTR	14	192	6
NMSI_	14	192	6	96	48	3
NMTAP	14	288	2
EXSTR	15	0	0
NMSCL	15	0	0	96	48	5
EXSTR	15	0	1
NMSCR	15	0	1	96	48	4
NMSTR	15	192	6
NMSCL	15	192	6	96	48	3
NMSTR	15	192	7
NMSCR	15	192	7	96	48	2
NMSTR	16	0	0
NMSCL	16	0	0	96	48	5
NMSTR	16	0	1
NMSCR	16	0	1	96	48	4
NMSTR	16	192	6
NMSCL	16	192	6	96	48	3
NMSTR	16	192	7
NMSCR	16	192	7	96	48	2
NMTAP	17	0	0
NMTAP	17	0	1
NMHLD	17	96	2	96
NMHLD	17	192	3	144
NMTAP	17	288	4
NMHLD	17	336	4	96
NMTAP	18	48	5
NMTAP	18	144	7
NMTAP	18	192	0
NMTAP	18	192	6
NMTAP	18	240	0
NMTAP	18	288	1
NMTAP	18	288	7
EXTAP	19	0	3
EXTAP	19	0	6
NMTAP	19	64	2
NMTAP	19	64	5
NMTAP	19	128	1
NMTAP	19	128	4
NMTAP	19	192	2
NMTAP	19	192	5
NMTAP	19	256	3
NMTAP	19	256	6
NMTAP	19	320	4
NMHLD	19	320	7	256
NMSTR	20	192	0
BRSI_	20	192	0	96	48	4
BXTAP	20	288	0
NMTAP	20	288	1
EXTAP	21	0	2
EXSTR	21	48	2
NMSSR	21	48	2	96	144	6
EXTAP	22	0	5
EXSTR	22	48	5
NMSSL	22	48	5	96	144	1
EXTAP	23	0	2
EXSTR	23	48	2
NMSI_	23	48	2	96	48	5
CNSCR	23	192	5	0	48	6
CNSI_	23	240	6	0	48	1
EXTAP	23	336	4
EXSTR	24	0	4
NMSXL	24	0	4	96	96	4
NMHLD	24	96	2	192
NMSTR	24	96	4
NMSXR	24	96	4	96	96	4
EXTAP	25	0	1
EXTAP	25	48	1
NMSTR	25	96	2
BRSV_	25	96	2	96	96	0
NMSTR	25	144	3
BRSUR	25	144	3	96	96	7
EXTAP	26	0	1
EXTAP	26	48	0
NMSTR	26	96	7
NMSUR	26	96	7	96	96	3
NMSTR	26	144	6
NMSV_	26	144	6	96	96	4
NMSTR	27	0	0
NMSCR	27	0	0	96	96	4
NMTAP	27	96	5
NMTAP	27	144	6
NMSTR	27	192	7
NMSCL	27	192	7	96	96	3
NMTAP	27	288	2
NMTAP	27	336	1
NMSTR	28	0	0
NMSI_	28	0	0	96	48	4
NMSTR	28	96	7
NMSI_	28	96	7	96	48	3
NMTAP	28	192	1
BRTAP	28	288	2
BRTAP	28	288	5
EXTAP	29	0	3
EXTAP	29	0	4
NMTAP	29	96	2
NMTAP	29	96	4
NMTAP	29	168	2
NMTAP	29	192	3
NMHLD	29	240	1	144
NMTAP	29	288	2
NMTAP	30	0	0
NMTAP	30	96	2
NMTAP	30	96	7
NMTAP	30	168	1
NMTAP	30	192	7
NMHLD	30	240	0	96
NMTAP	30	288	7
NMHLD	30	336	6	144
NMTAP	31	48	4
NMTAP	31	96	4
NMTAP	31	144	3
NMTAP	31	192	3
NMTAP	31	192	5
NMTAP	31	240	4
NMTAP	31	288	2
NMTAP	31	288	4
NMSTR	32	0	1
NMSCL	32	0	1	96	96	6
NMTAP	32	0	3
NMTAP	32	96	4
NMSTR	32	192	5
NMSCL	32	192	5	96	96	2
NMTAP	32	288	2
EXTAP	33	0	1
NMTAP	33	96	0
NMTAP	33	96	6
NMTAP	33	168	6
NMTAP	33	192	7
NMHLD	33	240	5	144
NMTAP	33	288	6
NMTAP	34	0	4
NMTAP	34	96	3
NMTAP	34	96	6
NMTAP	34	168	5
NMTAP	34	192	3
NMHLD	34	240	4	96
NMTAP	34	288	3
NMHLD	34	336	2	144
NMTAP	35	48	0
NMTAP	35	96	0
NMTAP	35	144	7
NMTAP	35	192	1
NMTAP	35	192	7
NMTAP	35	240	0
NMTAP	35	288	0
EXSTR	35	288	6
NMSI_	35	288	6	96	48	2
EXSTR	36	0	0
NMSI_	36	0	0	96	48	4
EXTAP	36	0	6
EXTAP	36	96	0
EXTAP	36	96	5
BXTAP	36	192	3
BXTAP	36	192	6
NMTAP	36	240	1
NMTAP	36	264	0
NMTAP	36	288	1
EXSTR	37	0	3
NMSXR	37	0	3	96	240	7
EXTAP	37	0	5
NMTAP	37	144	4
NMSTR	37	192	4
NMSI_	37	192	4	96	48	6
NMTAP	38	0	1
NMSTR	38	0	4
NMSXL	38	0	4	96	240	0
NMTAP	38	144	3
NMSTR	38	192	3
NMSI_	38	192	3	96	48	1
EXTAP	39	0	2
EXSTR	39	0	7
NMSXR	39	0	7	96	240	3
NMTAP	39	144	0
NMSTR	39	192	0
NMSI_	39	192	0	96	48	2
NMTAP	40	0	4
NMTAP	40	0	5
NMSTR	40	96	6
NMSXR	40	96	6	96	144	6
NMSTR	40	96	7
NMSXL	40	96	7	96	144	7
EXTAP	41	0	0
EXSTR	41	0	7
NMSI_	41	0	7	96	48	3
NMTAP	41	96	0
CNSCR	41	144	3	0	144	6
NMTAP	41	192	1
NMTAP	41	288	2
NMTAP	41	336	1
NMSTR	42	0	0
NMSI_	42	0	0	96	48	4
NMTAP	42	0	7
NMTAP	42	96	5
CNSCL	42	144	4	0	144	1
NMTAP	42	144	5
NMTAP	42	240	7
NMTAP	42	288	7
EXSTR	43	0	0
NMSI_	43	0	0	96	48	5
EXHLD	43	0	6	288
CNSUL	43	144	5	0	96	1
CNSCR	43	240	1	0	48	4
EXHLD	44	0	1	288
EXSTR	44	0	7
NMSI_	44	0	7	96	48	2
CNSUR	44	144	2	0	96	6
CNSCL	44	240	6	0	48	3
NMTAP	45	0	0
NMTAP	45	0	4
NMTAP	45	48	1
NMTAP	45	48	5
NMTAP	45	144	3
NMTAP	45	144	7
NMTAP	45	192	2
NMTAP	45	192	6
BXTAP	45	288	0
BXHLD	45	288	4	288
NMTAP	46	48	2
NMSTR	46	96	2
NMSI_	46	96	2	96	48	5
BRTAP	46	288	6
BRTAP	46	288	7
EXSTR	47	0	0
NMSI_	47	0	0	96	48	3
EXSTR	47	0	4
NMSI_	47	0	4	96	48	7
NMTAP	47	96	0
NMTAP	47	96	4
NMTAP	47	192	2
NMSTR	47	192	6
NMSCR	47	192	6	96	48	1
NMTAP	47	288	2
NMTAP	47	288	6
NMTAP	47	336	3
NMSTR	48	0	4
NMSI_	48	0	4	96	48	0
NMTAP	48	96	4
NMTAP	48	96	7
NMSTR	48	192	1
NMSCL	48	192	1	96	48	6
NMTAP	48	192	5
NMTAP	48	288	1
NMTAP	48	288	5
NMTAP	48	336	4
NMSTR	49	0	3
NMSI_	49	0	3	96	48	7
NMTAP	49	96	0
NMTAP	49	96	3
NMTAP	49	192	2
NMSTR	49	192	4
NMSI_	49	192	4	96	48	0
NMTAP	49	288	4
NMTAP	49	288	7
NMSTR	50	0	2
NMSV_	50	0	2	96	48	7
NMSTR	50	0	3
NMSV_	50	0	3	96	48	6
CNSCL	50	144	6	0	48	4
CNSCR	50	144	7	0	48	1
BRTAP	50	288	6
BRTAP	50	288	7
EXHLD	51	0	4	96
EXSTR	51	0	5
NMSXL	51	0	5	96	192	0
NMTAP	51	192	4
NMTAP	51	264	3
NMTAP	51	336	2
NMSTR	52	0	1
NMSI_	52	0	1	96	48	5
NMTAP	52	96	1
NMTAP	52	96	6
NMSTR	52	144	7
NMSI_	52	144	7	96	48	4
NMTAP	52	240	3
NMTAP	52	240	7
NMTAP	52	288	1
EXSTR	53	0	6
NMSXR	53	0	6	96	192	3
EXHLD	53	0	7	96
NMTAP	53	192	7
NMTAP	53	264	0
NMTAP	53	336	1
NMSTR	54	0	2
NMSI_	54	0	2	96	48	7
NMSTR	54	48	4
NMSI_	54	48	4	96	48	7
NMTAP	54	96	2
NMTAP	54	144	4
BRTAP	54	240	1
BRTAP	54	240	5
BRTAP	54	288	1
BRTAP	54	288	5
EXSTR	55	0	3
NMSI_	55	0	3	96	48	0
EXSTR	55	0	7
NMSI_	55	0	7	96	48	4
NMTAP	55	96	3
NMTAP	55	96	7
NMSTR	55	192	1
NMSCL	55	192	1	96	48	6
NMTAP	55	192	5
NMTAP	55	288	1
NMTAP	55	288	5
NMTAP	55	336	4
NMSTR	56	0	3
NMSI_	56	0	3	96	48	7
NMTAP	56	96	0
NMTAP	56	96	3
NMTAP	56	192	2
NMSTR	56	192	6
NMSCR	56	192	6	96	48	1
NMTAP	56	288	2
NMTAP	56	288	6
NMTAP	56	336	3
NMSTR	57	0	4
NMSI_	57	0	4	96	48	0
NMTAP	57	96	4
NMTAP	57	96	7
NMTAP	57	192	6
NMTAP	57	264	3
NMTAP	57	264	4
NMTAP	57	336	2
NMTAP	57	336	7
NMTAP	58	0	0
NMTAP	58	0	1
NMSTR	58	96	7
NMSI_	58	96	7	96	48	3
NMSTR	58	144	3
NMSCR	58	144	3	96	96	7
NMTAP	58	192	7
BRTAP	58	288	1
EXTAP	59	0	0
EXTAP	59	0	2
NMTAP	59	96	5
EXTAP	59	144	4
EXTAP	59	144	6
NMTAP	59	240	7
NMTAP	59	288	7
EXSTR	59	336	0
BRSCR	59	336	0	96	96	5
EXTAP	59	336	6
NMSTR	60	48	5
BRSUL	60	48	5	96	96	0
NMTAP	60	144	7
NMTAP	60	240	6
NMTAP	60	288	6
NMTAP	61	0	2
NMTAP	61	0	4
NMSTR	61	96	1
NMSI_	61	96	1	96	48	5
NMSTR	61	144	7
NMSI_	61	144	7	96	48	3
NMTAP	61	192	1
NMTAP	61	240	7
NMTAP	62	0	6
NMTAP	62	0	7
NMTAP	62	48	4
NMTAP	62	48	5
NMTAP	62	96	2
NMTAP	62	96	3
NMTAP	62	144	0
NMTAP	62	144	1
BRTAP	62	240	2
BRTAP	62	240	6
BRTAP	62	288	2
BRTAP	62	288	6
EXTAP	63	0	1
EXSTR	63	0	5
NMSI_	63	0	5	96	48	0
NMTAP	63	48	3
NMTAP	63	72	5
NMTAP	63	96	3
EXSTR	63	192	2
NMSI_	63	192	2	96	48	7
EXTAP	63	192	6
NMTAP	63	240	4
NMTAP	63	264	2
NMTAP	63	288	4
EXTAP	64	0	1
EXSTR	64	0	5
NMSI_	64	0	5	96	48	0
NMTAP	64	48	3
NMTAP	64	72	5
NMTAP	64	96	3
EXSTR	64	192	2
NMSI_	64	192	2	96	48	7
NMSTR	64	240	3
BRSI_	64	240	3	96	48	6
NMTAP	64	288	2
BXTAP	64	336	3
CNSI_	64	336	7	0	144	1
CNSI_	65	0	6	0	96	4
NMTAP	65	192	2
NMTAP	65	192	6
NMSTR	65	240	1
NMSI_	65	240	1	96	48	4
NMSTR	65	240	5
BRSI_	65	240	5	96	48	0
NMTAP	65	336	1
BRTAP	65	336	5
CNSCL	66	0	0	0	288	6
CNSCL	66	0	4	0	288	2
EXHLD	67	0	2	72
NMHLD	67	72	3	120
NMTAP	67	144	4
NMHLD	67	192	4	72
NMHLD	67	264	5	120
NMTAP	67	336	6
NMHLD	68	0	6	72
NMHLD	68	72	7	120
NMTAP	68	144	0
NMSTR	68	192	0
NMSV_	68	192	0	96	96	3
EXHLD	69	0	5	72
NMHLD	69	72	4	120
NMTAP	69	144	3
NMHLD	69	192	3	72
NMHLD	69	264	2	120
NMTAP	69	336	1
EXTAP	70	0	1
NMTAP	70	72	0
NMTAP	70	72	7
NMTAP	70	144	5
NMTAP	70	144	6
NMTAP	70	216	3
NMTAP	70	216	4
BRTAP	70	288	2
BRTAP	70	288	5
EXHLD	71	0	1	72
NMHLD	71	72	0	120
NMTAP	71	144	7
NMHLD	71	192	7	72
NMHLD	71	264	6	120
NMTAP	71	336	5
NMHLD	72	0	5	72
NMHLD	72	72	4	120
NMTAP	72	144	3
NMSTR	72	192	3
NMSCL	72	192	3	96	48	1
NMSCR	72	192	3	96	48	5
BXHLD	73	0	0	288
BXHLD	73	0	6	288
NMTTP	74	0	7	E	0	M1
NMTTP	74	24	6	B	0	M1
NMTTP	74	48	5	B	0	M1
NMTTP	74	72	5	E	0	M1
NMTTP	74	96	1	E	0	M1
NMTTP	74	120	1	B	0	M1
NMTTP	74	144	2	B	0	M1
NMTTP	74	168	3	E	0	M1
NMTTP	74	192	0	E	0	M1
NMTTP	74	216	7	E	0	M1
NMTTP	74	240	6	E	0	M1
NMTTP	74	264	5	E	0	M1
NMTTP	74	288	0	C	0	M1
NMTTP	74	288	4	E	1	M1
EXTAP	75	0	0
EXTAP	75	0	6
EXTAP	75	48	1
EXTAP	75	48	7
EXTAP	75	144	1
EXTAP	75	144	7
EXTAP	75	192	0
EXTAP	75	192	6
EXTAP	75	288	5
EXTAP	75	288	7
EXTAP	75	336	0
EXTAP	75	336	6
EXTAP	76	48	0
EXTAP	76	48	2
EXTAP	76	96	1
EXTAP	76	96	7
NMSTR	76	192	0
BRSI_	76	192	0	96	48	3
NMSTR	76	192	6
BRSI_	76	192	6	96	48	3
BRTAP	76	288	0
BRTAP	76	288	6
EXSTR	77	0	4
NMSCL	77	0	4	96	192	6
EXHLD	77	0	5	288
EXHLD	78	0	2	288
EXSTR	78	0	3
NMSCR	78	0	3	96	192	1
EXHLD	79	0	6	288
EXSTR	79	0	7
NMSCR	79	0	7	96	192	5
NMTAP	80	0	3
NMTAP	80	0	6
NMTAP	80	72	0
NMTAP	80	72	7
NMTAP	80	144	1
NMTAP	80	144	4
BXHLD	80	192	6	96
BXHLD	80	192	7	96
EXHLD	81	0	4	96
EXSTR	81	0	5
NMSXL	81	0	5	96	192	0
NMTAP	81	192	3
NMTAP	81	264	2
NMTAP	81	336	1
EXSTR	82	0	1
NMSLR	82	0	1	96	96	5
NMTAP	82	96	1
NMTAP	82	96	6
NMSTR	82	144	7
NMSI_	82	144	7	96	48	4
NMTAP	82	240	3
NMTAP	82	240	7
NMTAP	82	288	1
EXSTR	83	0	6
NMSXR	83	0	6	96	192	3
EXHLD	83	0	7	96
NMTAP	83	192	0
NMTAP	83	264	1
NMTAP	83	336	2
NMSTR	84	0	2
NMSI_	84	0	2	96	48	7
NMSTR	84	48	4
NMSI_	84	48	4	96	48	7
NMTAP	84	96	2
NMTAP	84	144	4
BRTAP	84	240	1
BRTAP	84	240	5
BRTAP	84	288	1
BRTAP	84	288	5
EXSTR	85	0	3
NMSV_	85	0	3	96	48	0
EXSTR	85	0	7
NMSI_	85	0	7	96	48	4
NMTAP	85	96	3
NMTAP	85	96	7
NMSTR	85	192	1
NMSCL	85	192	1	96	48	6
NMTAP	85	192	5
NMTAP	85	288	1
NMTAP	85	288	5
NMTAP	85	336	4
NMSTR	86	0	3
NMSI_	86	0	3	96	48	7
NMTAP	86	96	1
NMTAP	86	96	3
NMTAP	86	192	2
NMSTR	86	192	6
NMSCR	86	192	6	96	48	1
NMTAP	86	288	2
NMTAP	86	288	6
NMTAP	86	336	3
NMSTR	87	0	4
NMSI_	87	0	4	96	48	0
NMTAP	87	96	4
NMTAP	87	96	6
NMTAP	87	192	5
NMTAP	87	264	3
NMTAP	87	264	4
NMTAP	87	336	2
NMTAP	87	336	7
NMTAP	88	0	0
NMTAP	88	0	1
NMSTR	88	96	7
NMSI_	88	96	7	96	48	3
NMSTR	88	144	3
NMSCR	88	144	3	96	96	7
NMTAP	88	192	7
BRTAP	88	288	0
EXTAP	89	0	1
EXTAP	89	0	3
NMTAP	89	96	5
EXTAP	89	144	4
EXTAP	89	144	6
NMTAP	89	240	7
NMTAP	89	288	7
EXTAP	89	336	0
EXSTR	89	336	6
BRSCR	89	336	6	96	96	2
NMSTR	90	48	2
BRSV_	90	48	2	96	96	4
NMTAP	90	144	4
NMTAP	90	240	0
BRTAP	90	288	0
NMTAP	91	0	2
NMTAP	91	0	6
NMSTR	91	96	0
NMSI_	91	96	0	96	48	3
NMSTR	91	144	0
NMSI_	91	144	0	96	48	5
EXTAP	91	192	0
EXTAP	91	240	0
NMTAP	92	0	3
NMTAP	92	0	4
NMTAP	92	48	0
NMTAP	92	48	1
NMTAP	92	96	3
NMTAP	92	96	4
NMTAP	92	144	6
NMTAP	92	144	7
BRTAP	92	240	1
BRTAP	92	240	5
BRTAP	92	288	1
BRTAP	92	288	5
EXSTR	93	0	2
NMSCL	93	0	2	96	48	7
EXTAP	93	0	6
NMTAP	93	48	4
NMTAP	93	72	2
NMTAP	93	96	4
EXTAP	93	192	1
EXSTR	93	192	5
NMSCR	93	192	5	96	48	0
NMTAP	93	240	3
NMTAP	93	264	5
NMTAP	93	288	3
EXSTR	94	0	2
NMSCL	94	0	2	96	48	7
EXTAP	94	0	6
NMTAP	94	48	4
NMTAP	94	72	2
NMTAP	94	96	4
EXSTR	94	192	5
NMSXL	94	192	5	96	192	5
NMSTR	94	240	4
BRSXR	94	240	4	96	144	5
NMTAP	94	288	5
BXTAP	94	336	4
NMTAP	95	192	1
NMTAP	95	192	6
NMSTR	95	240	0
NMSI_	95	240	0	96	48	3
NMSTR	95	240	7
NMSI_	95	240	7	96	48	4
BRTAP	95	336	0
BRTAP	95	336	7
NMTAP	96	48	5
NMTAP	96	96	4
NMTAP	96	96	6
NMTAP	96	192	2
NMTAP	96	240	1
NMTAP	96	240	3
EXTAP	96	336	4
EXSTR	96	336	5
NMSCR	96	336	5	96	96	1
NMTAP	97	48	2
NMTAP	97	96	3
NMTAP	97	192	3
NMTAP	97	192	6
NMSTR	97	240	2
NMSI_	97	240	2	96	48	7
NMSTR	97	240	5
NMSCR	97	240	5	96	48	7
BRTAP	97	336	2
BRTAP	97	336	5
NMTAP	98	48	1
NMTAP	98	96	0
NMTAP	98	96	2
NMTAP	98	192	6
NMTAP	98	240	5
NMTAP	98	240	7
EXSTR	98	336	2
NMSI_	98	336	2	96	48	7
EXSTR	98	336	6
NMSI_	98	336	6	96	48	3
NMTAP	99	48	2
NMTAP	99	48	6
NMTAP	99	144	0
NMTAP	99	168	4
NMTAP	99	192	0
BRTAP	99	240	2
BRTAP	99	240	6
EXTAP	100	0	0
EXTAP	100	0	7
NMSTR	100	96	1
NMSI_	100	96	1	96	48	3
NMTAP	100	96	5
NMTAP	100	192	6
CNSV_	100	240	3	0	96	4
NMTAP	100	288	7
CNSI_	100	336	4	0	48	6
NMTAP	101	0	0
NMTAP	101	96	3
NMSTR	101	96	7
NMSI_	101	96	7	96	48	5
NMTAP	101	192	2
CNSV_	101	240	5	0	96	4
NMTAP	101	288	1
CNSI_	101	336	4	0	48	2
NMTAP	102	0	0
NMSTR	102	96	1
NMSI_	102	96	1	96	48	5
NMSTR	102	192	4
NMSI_	102	192	4	96	48	0
NMTAP	102	288	3
NMSTR	102	336	3
NMSCL	102	336	3	96	96	7
NMHLD	103	48	4	96
NMSTR	103	192	5
NMSI_	103	192	5	96	48	2
NMSTR	103	192	6
NMSI_	103	192	6	96	48	1
NMTAP	103	288	5
NMTAP	103	288	6
EXTAP	104	0	0
EXTAP	104	0	4
NMTAP	104	96	2
NMSTR	104	96	6
NMSI_	104	96	6	96	48	4
NMTAP	104	192	1
CNSV_	104	240	4	0	96	3
NMTAP	104	288	0
CNSI_	104	336	3	0	48	1
NMTAP	105	0	7
NMSTR	105	96	0
NMSI_	105	96	0	96	48	2
NMTAP	105	96	4
NMTAP	105	192	5
CNSV_	105	240	2	0	96	3
NMTAP	105	288	6
CNSI_	105	336	3	0	48	5
NMTAP	106	0	7
NMSTR	106	96	6
NMSI_	106	96	6	96	48	2
NMSTR	106	192	3
NMSI_	106	192	3	96	48	7
NMTAP	106	288	4
NMSTR	106	336	4
NMSCR	106	336	4	96	96	0
NMHLD	107	48	3	96
NMTAP	107	192	1
NMTAP	107	192	2
NMTAP	107	240	0
BRTAP	107	288	1
BRTAP	107	288	7
EXTAP	108	0	1
EXTAP	108	0	6
NMTAP	108	64	0
NMTAP	108	64	5
NMTAP	108	128	4
NMTAP	108	128	7
NMTAP	108	192	0
NMTAP	108	192	5
NMTAP	108	256	1
NMTAP	108	256	6
NMTAP	108	320	2
NMTAP	108	320	7
BXHLD	109	0	0	288
EXHLD	109	0	3	192
NMSTR	109	288	1
BRSCL	109	288	1	96	1536	6
BRTAP	110	0	1

T_REC_TAP	317
T_REC_BRK	39
T_REC_XTP	61
T_REC_BXX	6
T_REC_HLD	34
T_REC_XHO	13
T_REC_BHO	0
T_REC_BXH	6
T_REC_STR	90
T_REC_BST	0
T_REC_XST	43
T_REC_XBS	0
T_REC_TTP	16
T_REC_THO	1
T_REC_SLD	121
T_REC_BSL	13
T_REC_ALL	760
T_NUM_TAP	527
T_NUM_BRK	64
T_NUM_HLD	48
T_NUM_SLD	121
T_NUM_ALL	760
T_JUDGE_TAP	572
T_JUDGE_HLD	214
T_JUDGE_SLD	134
T_JUDGE_ALL	920
TTM_EACHPAIRS	177
TTM_SCR_TAP	263500
TTM_SCR_BRK	166400
TTM_SCR_HLD	48000
TTM_SCR_SLD	181500
TTM_SCR_ALL	659400
TTM_SCR_S	633450
TTM_SCR_SS	653000
TTM_RAT_ACV	10098

