VERSION	0.00.00	1.04.00
FES_MODE	0
BPM_DEF	174.000	176.000	287.000	 48.000
MET_DEF	4	4
RESOLUTION	384
CLK_DEF	384
COMPATIBLE_CODE	MA2

BPM	0	0	174.000
BPM	6	0	192.000
BPM	6	96	215.000
BPM	6	192	247.000
BPM	6	288	272.000
BPM	7	0	287.000
BPM	7	96	268.000
BPM	7	192	248.000
BPM	7	288	222.000
BPM	8	0	200.000
BPM	8	96	143.000
BPM	8	192	111.000
BPM	8	288	 48.000
BPM	9	0	 93.000
BPM	10	288	176.000
MET	0	0	4	4
MET	91	192	4	2
MET	92	0	4	4

NMTTP	2	0	7	E	0	M1
NMTTP	2	192	4	B	0	M1
NMTTP	2	192	5	B	0	M1
NMTTP	2	192	5	E	0	M1
NMTTP	3	0	1	E	0	M1
NMTTP	3	192	2	B	0	M1
NMTTP	3	192	3	B	0	M1
NMTTP	3	192	3	E	0	M1
NMTTP	4	0	0	E	0	M1
NMTTP	4	192	3	B	0	M1
NMTTP	4	192	4	B	0	M1
NMTTP	4	192	4	E	0	M1
NMTTP	5	0	5	B	0	M1
NMTTP	5	96	2	B	0	M1
NMTTP	5	192	4	E	0	M1
NMTHO	5	288	0	1560	C	0	M1
EXTAP	11	0	2
EXTAP	11	0	4
NMTAP	11	96	0
NMTAP	11	192	3
NMTAP	11	240	3
NMTAP	11	288	2
NMTAP	12	0	3
NMTAP	12	0	5
NMTAP	12	96	7
NMTAP	12	192	4
NMTAP	12	240	4
NMTAP	12	288	5
NMHLD	13	0	2	96
NMHLD	13	96	3	96
NMHLD	13	192	4	96
NMTAP	13	288	5
NMTAP	13	336	5
NMTAP	14	48	4
NMTAP	14	48	6
NMTAP	14	144	1
NMTAP	14	144	5
NMTAP	14	192	1
NMTAP	14	192	5
NMTAP	14	288	2
NMTAP	14	288	6
NMTAP	15	0	3
NMTAP	15	0	5
NMTAP	15	96	7
NMTAP	15	192	4
NMTAP	15	240	4
NMTAP	15	288	5
NMTAP	16	0	2
NMTAP	16	0	4
NMTAP	16	96	0
NMTAP	16	192	3
NMTAP	16	240	3
NMTAP	16	288	2
NMHLD	17	0	5	96
NMHLD	17	96	4	96
NMHLD	17	192	3	96
NMTAP	17	288	2
NMTAP	17	336	2
NMTAP	18	48	1
NMTAP	18	48	3
NMTAP	18	144	2
NMTAP	18	144	6
NMTAP	18	192	2
NMTAP	18	192	6
NMTAP	18	288	1
NMTAP	18	288	5
EXTAP	19	0	2
EXTAP	19	0	4
EXTAP	19	64	2
EXTAP	19	64	4
EXTAP	19	128	2
EXTAP	19	128	4
EXTAP	19	192	1
EXTAP	19	192	5
EXTAP	19	256	1
EXTAP	19	256	5
EXHLD	19	320	1	256
EXTAP	19	320	5
NMSTR	20	192	7
BRSI_	20	192	7	96	48	3
EXTAP	21	0	2
EXHLD	21	48	2	240
NMTAP	22	0	2
NMTAP	22	0	3
NMHLD	22	48	2	240
NMHLD	22	48	3	240
NMTAP	23	0	1
NMTAP	23	0	3
NMHLD	23	48	1	240
NMHLD	23	48	3	240
NMTAP	24	0	2
NMTAP	24	48	2
NMTAP	24	48	3
NMTAP	24	144	4
NMTAP	24	192	3
NMTAP	24	192	4
NMTAP	24	288	2
NMTAP	24	288	3
NMTAP	25	0	4
NMTAP	25	0	5
NMHLD	25	48	4	240
NMHLD	25	48	5	240
NMTAP	26	0	4
NMTAP	26	0	6
NMHLD	26	48	4	240
NMHLD	26	48	6	240
NMTAP	27	0	5
NMTAP	27	0	7
NMTAP	27	96	4
NMTAP	27	96	6
NMTAP	27	192	3
NMTAP	27	192	5
NMTAP	27	288	2
NMTAP	27	288	4
EXTAP	28	0	1
EXTAP	28	0	3
EXTAP	28	96	4
EXTAP	28	96	6
BRTAP	28	192	0
BRTAP	28	192	7
NMTAP	29	0	1
NMTAP	29	96	0
NMTAP	29	96	1
NMTAP	29	192	2
NMTAP	29	240	2
NMTAP	29	288	3
NMTAP	30	0	1
NMTAP	30	96	0
NMTAP	30	96	1
NMTAP	30	192	2
NMTAP	30	240	2
NMTAP	30	288	3
NMHLD	31	0	4	96
NMTAP	31	96	3
NMHLD	31	192	2	96
NMTAP	31	288	3
EXHLD	32	0	2	96
EXHLD	32	0	4	96
EXHLD	32	192	3	96
EXHLD	32	192	5	96
NMTAP	33	0	6
NMTAP	33	96	6
NMTAP	33	96	7
NMTAP	33	192	5
NMTAP	33	240	5
NMTAP	33	288	4
NMTAP	34	0	6
NMTAP	34	96	6
NMTAP	34	96	7
NMTAP	34	192	5
NMTAP	34	240	5
NMTAP	34	288	4
NMHLD	35	0	5	96
NMHLD	35	96	6	96
NMHLD	35	192	7	96
NMTAP	35	288	0
BRTAP	36	0	0
BRSTR	36	0	7
NMSF_	36	0	7	96	192	3
NMSTR	37	0	1
NMSCR	37	0	1	96	192	4
NMTAP	37	288	5
NMSTR	38	0	6
NMSCL	38	0	6	96	192	3
NMTAP	38	288	1
NMSTR	39	0	0
NMSCR	39	0	0	96	192	4
NMTAP	39	288	5
NMTAP	40	0	3
NMTAP	40	0	5
NMTAP	40	96	6
NMTAP	40	192	7
NMTAP	40	288	0
NMSTR	41	0	0
NMSLR	41	0	0	96	192	4
NMTAP	41	288	5
NMSTR	42	0	7
NMSLL	42	0	7	96	192	3
NMTAP	42	288	2
NMTAP	43	0	2
NMHLD	43	0	3	144
NMTAP	43	96	0
NMTAP	43	144	0
NMTAP	43	288	1
NMTAP	43	288	7
NMHLD	44	0	4	144
NMTAP	44	0	5
NMTAP	44	96	7
NMTAP	44	144	7
NMTAP	44	288	0
NMTAP	44	288	6
NMTAP	45	0	1
NMSTR	45	48	1
NMSI_	45	48	1	96	48	5
NMTAP	45	144	6
NMSTR	45	192	6
NMSI_	45	192	6	96	48	2
NMHLD	45	288	0	192
NMTAP	46	48	7
NMTAP	46	96	7
BRTAP	46	192	1
BRTAP	46	192	6
NMTAP	47	0	0
NMSTR	47	0	1
NMSI_	47	0	1	96	48	4
NMSTR	47	192	6
NMSI_	47	192	6	96	48	3
NMTAP	47	192	7
NMTAP	48	0	0
NMSTR	48	0	1
NMSI_	48	0	1	96	48	4
NMSTR	48	192	6
NMSI_	48	192	6	96	48	3
NMTAP	48	192	7
NMTAP	49	0	0
NMTAP	49	0	1
NMTAP	49	96	2
NMTAP	49	96	3
NMTAP	49	192	4
NMTAP	49	192	5
NMTAP	49	288	6
NMTAP	49	288	7
NMTAP	50	0	0
NMTAP	50	0	1
NMTAP	50	96	2
NMTAP	50	96	3
BRTAP	50	192	0
BRTAP	50	192	5
NMSTR	51	0	6
NMSCL	51	0	6	96	96	3
NMSTR	51	0	7
NMSCR	51	0	7	96	96	2
NMTAP	51	288	2
NMTAP	51	288	3
NMSTR	52	0	0
NMSCL	52	0	0	96	96	5
NMSTR	52	0	1
NMSCR	52	0	1	96	96	4
NMTAP	52	288	4
NMTAP	52	288	5
NMTAP	53	0	4
NMTAP	53	0	6
NMTAP	53	96	3
NMTAP	53	96	4
NMTAP	53	192	1
NMTAP	53	192	3
NMTAP	53	288	0
NMTAP	53	288	7
NMTAP	54	0	1
NMTAP	54	0	6
NMTAP	54	48	1
NMTAP	54	48	6
NMTAP	54	96	1
NMTAP	54	96	6
NMTAP	54	144	1
NMTAP	54	144	6
EXTAP	54	240	0
EXTAP	54	288	0
NMSTR	55	0	6
NMSI_	55	0	6	96	48	3
NMTAP	55	0	7
NMTAP	55	192	0
NMSTR	55	192	1
NMSI_	55	192	1	96	48	4
NMSTR	56	0	6
NMSI_	56	0	6	96	48	3
NMTAP	56	0	7
NMTAP	56	192	0
NMSTR	56	192	1
NMSI_	56	192	1	96	48	4
NMTAP	57	0	6
NMTAP	57	0	7
NMTAP	57	96	4
NMTAP	57	96	5
NMTAP	57	192	2
NMTAP	57	192	3
NMTAP	57	288	0
NMTAP	57	288	1
NMSTR	58	0	2
NMSCR	58	0	2	96	96	5
NMSTR	58	0	6
NMSUL	58	0	6	96	96	1
NMTAP	59	0	0
NMTAP	59	96	1
NMTAP	59	96	7
NMTAP	59	144	1
NMTAP	59	144	7
NMTAP	59	240	2
NMTAP	59	240	6
NMSTR	59	336	3
NMSCL	59	336	3	96	144	0
NMSTR	59	336	5
NMSV_	59	336	5	96	144	0
EXTAP	60	288	7
NMHLD	61	0	6	96
NMHLD	61	96	4	96
NMHLD	61	192	3	96
NMTAP	61	288	1
NMTAP	62	0	0
NMTAP	62	0	7
NMTAP	62	48	0
NMTAP	62	48	7
NMTAP	62	96	1
NMTAP	62	96	6
BRTAP	62	144	1
BRTAP	62	144	6
EXHLD	63	0	5	96
EXHLD	63	0	6	96
EXHLD	63	192	1	96
EXHLD	63	192	2	96
EXHLD	64	0	3	96
EXHLD	64	0	4	96
EXTAP	64	192	0
EXTAP	64	192	7
EXSTR	64	240	0
NMSI_	64	240	0	96	48	4
EXSTR	64	240	7
NMSI_	64	240	7	96	48	3
NMTAP	65	96	2
NMTAP	65	96	5
NMTAP	65	192	1
NMTAP	65	192	6
NMSTR	65	240	1
NMSUL	65	240	1	96	240	3
NMSTR	65	240	6
BRSUR	65	240	6	96	240	4
NMHLD	67	0	2	576
NMSTR	67	0	3
NMSI_	67	0	3	96	192	7
CNSI_	67	288	7	0	96	1
CNSI_	68	0	1	0	192	4
NMSTR	69	0	3
NMSCL	69	0	3	96	192	0
NMHLD	69	0	5	288
EXTAP	70	0	7
EXTAP	70	72	7
EXTAP	70	144	6
EXTAP	70	216	6
EXTAP	70	288	0
NMHLD	71	0	0	576
NMSTR	71	0	7
NMSI_	71	0	7	96	192	3
CNSI_	71	288	3	0	96	1
CNSI_	72	0	1	0	192	5
NMHLD	73	0	2	576
NMHLD	73	0	5	576
NMTTP	74	288	0	C	0	M1
EXTAP	75	0	0
EXTAP	75	0	7
EXTAP	75	48	0
EXTAP	75	48	7
EXTAP	75	144	1
EXTAP	75	144	6
EXTAP	75	192	1
EXTAP	75	192	6
EXTAP	75	288	2
EXTAP	75	288	5
EXTAP	75	336	2
EXTAP	75	336	5
EXTAP	76	48	3
EXTAP	76	48	4
EXTAP	76	96	3
EXTAP	76	96	4
EXSTR	76	192	1
NMSI_	76	192	1	96	48	5
EXTAP	76	192	6
EXHLD	77	0	4	288
EXHLD	77	0	6	288
EXHLD	78	0	1	288
EXHLD	78	0	3	288
EXHLD	79	0	3	288
EXHLD	79	0	4	288
NMTAP	80	0	2
NMTAP	80	0	5
NMTAP	80	72	1
NMTAP	80	72	6
NMTAP	80	144	0
NMTAP	80	144	7
BRTAP	80	192	0
BRTAP	80	192	7
NMSTR	81	0	4
NMSCL	81	0	4	96	96	1
NMSTR	81	0	5
NMSCR	81	0	5	96	96	0
NMTAP	81	288	0
NMTAP	81	288	1
NMSTR	82	0	2
NMSCL	82	0	2	96	96	7
NMSTR	82	0	3
NMSCR	82	0	3	96	96	6
NMTAP	82	288	6
NMTAP	82	288	7
NMTAP	83	0	4
NMTAP	83	0	6
NMTAP	83	96	3
NMTAP	83	96	4
NMTAP	83	192	1
NMTAP	83	192	3
NMTAP	83	288	0
NMTAP	83	288	7
NMTAP	84	0	1
NMTAP	84	0	6
NMTAP	84	48	1
NMTAP	84	48	6
NMTAP	84	96	1
NMTAP	84	96	6
NMTAP	84	144	1
NMTAP	84	144	6
EXTAP	84	240	7
EXTAP	84	288	7
NMSTR	85	0	0
NMSI_	85	0	0	96	48	4
NMSTR	85	0	1
NMSI_	85	0	1	96	48	4
NMSTR	85	192	6
NMSI_	85	192	6	96	48	3
NMSTR	85	192	7
NMSI_	85	192	7	96	48	3
NMSTR	86	0	0
NMSI_	86	0	0	96	48	4
NMSTR	86	0	1
NMSI_	86	0	1	96	48	4
NMSTR	86	192	6
NMSI_	86	192	6	96	48	3
NMSTR	86	192	7
NMSI_	86	192	7	96	48	3
EXTAP	87	0	2
EXTAP	87	0	3
NMTAP	87	96	0
NMTAP	87	96	1
NMTAP	87	192	6
NMTAP	87	192	7
NMTAP	87	288	4
NMTAP	87	288	5
NMHLD	88	0	3	96
NMHLD	88	0	4	96
NMTTP	88	192	2	B	0	M1
NMTTP	88	192	2	E	1	M1
NMTTP	88	192	2	A	0	M1
NMTTP	88	192	2	D	0	M1
NMTTP	88	192	5	B	0	M1
NMTTP	88	192	5	A	0	M1
NMTTP	88	192	6	E	0	M1
NMTTP	88	192	6	D	0	M1
NMTAP	89	0	7
NMTAP	89	96	0
NMTAP	89	96	6
NMTAP	89	144	0
NMTAP	89	144	6
NMTAP	89	240	1
NMTAP	89	240	5
NMSTR	89	336	2
NMSUR	89	336	2	96	144	7
NMSTR	89	336	4
NMSCR	89	336	4	96	144	7
EXTAP	90	288	0
NMHLD	91	0	1	96
NMHLD	91	96	3	96
NMHLD	91	192	4	96
NMTAP	91	288	6
NMTAP	92	0	0
NMTAP	92	0	7
NMTAP	92	48	0
NMTAP	92	48	7
NMTAP	92	96	1
NMTAP	92	96	6
BRTAP	92	144	1
BRTAP	92	144	6
EXSTR	93	0	1
NMSUL	93	0	1	96	96	3
EXSTR	93	192	6
NMSUR	93	192	6	96	96	4
EXSTR	94	0	1
NMSUL	94	0	1	96	96	3
EXTAP	94	192	6
EXTAP	94	240	6
NMHLD	94	336	4	144
NMHLD	94	336	5	144
NMTAP	95	192	3
NMTAP	95	192	6
NMSTR	95	240	3
BRSXR	95	240	3	96	240	5
NMSTR	95	240	6
NMSXL	95	240	6	96	240	4
EXHLD	96	336	4	144
EXHLD	96	336	5	144
NMTAP	97	192	1
NMTAP	97	192	4
NMSTR	97	240	1
BRSXR	97	240	1	96	240	3
NMSTR	97	240	4
NMSXL	97	240	4	96	240	2
EXHLD	98	336	3	144
EXHLD	98	336	4	144
BRTAP	99	192	1
BRTAP	99	192	6
BRTAP	99	240	1
BRTAP	99	240	6
NMTAP	100	0	1
NMHLD	100	0	7	96
NMTAP	100	96	3
NMTAP	100	192	0
NMTAP	100	240	0
NMTAP	100	288	1
NMHLD	101	0	0	96
NMTAP	101	0	6
NMTAP	101	96	4
NMTAP	101	192	7
NMTAP	101	240	7
NMTAP	101	288	6
NMHLD	102	0	1	96
NMHLD	102	96	0	96
NMHLD	102	192	7	96
NMTAP	102	288	6
NMTAP	102	336	6
NMTAP	103	48	5
NMTAP	103	48	7
NMTAP	103	144	2
NMTAP	103	144	6
NMTAP	103	192	2
NMTAP	103	192	6
NMTAP	103	288	1
NMTAP	103	288	5
NMHLD	104	0	0	96
NMTAP	104	0	6
NMTAP	104	96	4
NMTAP	104	192	7
NMTAP	104	240	7
NMTAP	104	288	6
NMTAP	105	0	1
NMHLD	105	0	7	96
NMTAP	105	96	3
NMTAP	105	192	0
NMTAP	105	240	0
NMTAP	105	288	1
NMHLD	106	0	6	96
NMHLD	106	96	7	96
NMHLD	106	192	0	96
NMTAP	106	288	1
NMTAP	106	336	1
NMTAP	107	48	0
NMTAP	107	48	2
NMTAP	107	144	1
NMTAP	107	144	5
NMTAP	107	192	1
NMTAP	107	192	5
NMTAP	107	288	2
NMTAP	107	288	6
EXTAP	108	0	1
EXTAP	108	0	7
EXTAP	108	64	2
EXTAP	108	64	6
EXTAP	108	128	3
EXTAP	108	128	5
EXTAP	108	192	2
EXTAP	108	192	4
EXTAP	108	256	1
EXTAP	108	256	5
EXTAP	108	320	0
EXTAP	108	320	6
EXHLD	109	0	0	192
EXHLD	109	0	6	192
NMTAP	109	288	1
NMTAP	109	288	5
BRTAP	110	0	3
BRSTR	110	0	7
NMSF_	110	0	7	96	1440	3

T_REC_TAP	275
T_REC_BRK	18
T_REC_XTP	64
T_REC_BXX	0
T_REC_HLD	47
T_REC_XHO	24
T_REC_BHO	0
T_REC_BXH	0
T_REC_STR	47
T_REC_BST	2
T_REC_XST	6
T_REC_XBS	0
T_REC_TTP	24
T_REC_THO	1
T_REC_SLD	51
T_REC_BSL	4
T_REC_ALL	563
T_NUM_TAP	416
T_NUM_BRK	24
T_NUM_HLD	72
T_NUM_SLD	51
T_NUM_ALL	563
T_JUDGE_TAP	436
T_JUDGE_HLD	297
T_JUDGE_SLD	55
T_JUDGE_ALL	788
TTM_EACHPAIRS	176
TTM_SCR_TAP	208000
TTM_SCR_BRK	62400
TTM_SCR_HLD	72000
TTM_SCR_SLD	76500
TTM_SCR_ALL	418900
TTM_SCR_S	404050
TTM_SCR_SS	416500
TTM_RAT_ACV	10057

