VERSION	0.00.00	1.04.00
FES_MODE	0
BPM_DEF	174.000	176.000	287.000	 48.000
MET_DEF	4	4
RESOLUTION	384
CLK_DEF	384
COMPATIBLE_CODE	MA2

BPM	0	0	174.000
BPM	6	0	192.000
BPM	6	96	215.000
BPM	6	192	247.000
BPM	6	288	272.000
BPM	7	0	287.000
BPM	7	96	268.000
BPM	7	192	248.000
BPM	7	288	222.000
BPM	8	0	200.000
BPM	8	96	143.000
BPM	8	192	111.000
BPM	8	288	 48.000
BPM	9	0	 93.000
BPM	10	288	176.000
MET	0	0	4	4
MET	91	192	4	2
MET	92	0	4	4

NMTAP	2	0	2
NMTAP	2	192	2
NMTAP	3	0	3
NMTAP	3	192	3
NMTAP	4	0	4
NMTAP	4	192	4
NMTAP	5	0	5
NMTAP	5	192	5
NMHLD	6	0	3	1344
NMHLD	6	0	4	1344
NMTAP	11	0	2
NMTAP	11	0	3
NMTAP	11	192	2
NMTAP	11	192	3
NMTAP	12	0	0
NMTAP	12	0	1
NMTAP	12	192	0
NMTAP	12	192	1
NMTAP	13	0	6
NMTAP	13	0	7
NMTAP	13	192	6
NMTAP	13	192	7
NMTAP	14	0	5
NMTAP	14	96	5
NMTAP	14	192	4
NMTAP	14	192	5
NMTAP	15	0	4
NMTAP	15	0	5
NMTAP	15	192	4
NMTAP	15	192	5
NMTAP	16	0	6
NMTAP	16	0	7
NMTAP	16	192	6
NMTAP	16	192	7
NMTAP	17	0	0
NMTAP	17	0	1
NMTAP	17	192	0
NMTAP	17	192	1
NMTAP	18	0	2
NMTAP	18	96	2
NMTAP	18	192	2
NMTAP	18	192	3
EXHLD	19	0	3	336
EXHLD	19	0	4	336
NMTTP	21	0	3	E	0	L1
NMTTP	21	192	2	E	0	L1
NMTTP	22	0	1	E	0	L1
NMTTP	22	192	0	E	0	L1
NMTTP	23	0	7	E	0	L1
NMTTP	23	192	6	E	0	L1
NMTTP	24	0	0	C	0	L1
NMTTP	25	0	5	E	0	L1
NMTTP	25	192	6	E	0	L1
NMTTP	26	0	7	E	0	L1
NMTTP	26	192	0	E	0	L1
NMTTP	27	0	1	E	0	L1
NMTTP	27	192	2	E	0	L1
NMTTP	28	0	0	C	0	L1
NMTAP	29	0	1
NMTAP	29	96	1
NMTAP	29	192	0
NMTAP	29	192	1
NMTAP	30	0	2
NMTAP	30	96	2
NMTAP	30	192	2
NMTAP	30	192	3
NMTAP	31	0	4
NMTAP	31	96	4
NMTAP	31	192	4
NMTAP	31	192	5
NMTAP	32	0	6
NMTAP	32	0	7
NMTAP	33	0	6
NMTAP	33	96	6
NMTAP	33	192	6
NMTAP	33	192	7
NMTAP	34	0	5
NMTAP	34	96	5
NMTAP	34	192	4
NMTAP	34	192	5
NMTAP	35	0	3
NMTAP	35	96	3
NMTAP	35	192	2
NMTAP	35	192	3
EXTAP	36	0	0
EXTAP	36	0	1
NMHLD	37	0	2	192
NMHLD	37	192	3	192
NMHLD	38	0	4	192
NMTAP	38	192	5
NMHLD	39	0	5	192
NMHLD	39	192	4	192
NMHLD	40	0	3	192
NMTAP	40	192	2
NMHLD	41	0	1	192
NMHLD	41	192	2	192
NMHLD	42	0	3	192
NMTAP	42	192	4
NMHLD	43	0	6	192
NMHLD	43	192	5	192
NMHLD	44	0	4	192
NMTAP	44	192	3
EXTAP	45	0	3
EXTAP	45	0	4
EXTAP	45	144	3
EXTAP	45	144	4
EXHLD	45	288	3	288
EXHLD	45	288	4	288
NMTAP	47	0	2
NMTAP	47	96	2
NMTAP	47	192	1
NMTAP	47	288	1
NMTAP	48	0	0
NMTAP	48	96	0
NMTAP	48	192	6
NMTAP	48	192	7
NMTAP	49	0	5
NMTAP	49	96	5
NMTAP	49	192	6
NMTAP	49	288	6
NMTAP	50	0	7
NMTAP	50	96	7
NMTAP	50	192	0
NMTAP	50	192	1
NMTAP	51	0	1
NMTAP	51	96	1
NMTAP	51	192	1
NMTAP	51	288	0
NMTAP	51	288	1
NMTAP	52	0	2
NMTAP	52	96	2
NMTAP	52	192	2
NMTAP	52	288	2
NMTAP	52	288	3
NMTAP	53	0	4
NMTAP	53	96	4
NMTAP	53	192	4
NMTAP	53	288	4
NMTAP	53	288	5
EXTAP	54	0	6
EXTAP	54	0	7
EXTAP	54	96	6
EXTAP	54	96	7
NMTAP	55	0	5
NMTAP	55	96	5
NMTAP	55	192	6
NMTAP	55	192	7
NMTAP	55	288	6
NMTAP	55	288	7
NMTAP	56	0	0
NMTAP	56	96	0
NMTAP	56	192	0
NMTAP	56	192	1
NMTAP	57	0	2
NMTAP	57	96	2
NMTAP	57	192	0
NMTAP	57	192	1
NMTAP	57	288	0
NMTAP	57	288	1
NMTAP	58	0	7
NMTAP	58	96	7
NMTAP	58	192	6
NMTAP	58	192	7
NMSTR	59	0	6
NMSUL	59	0	6	96	480	3
NMTAP	61	0	2
NMTAP	61	96	1
NMTAP	61	192	0
NMTAP	61	288	7
BRTAP	62	0	6
BRTAP	62	0	7
BRTAP	62	96	6
BRTAP	62	96	7
NMTAP	63	0	4
NMTAP	63	0	5
NMTAP	63	96	4
NMTAP	63	96	5
NMTAP	63	192	6
NMTAP	63	192	7
NMTAP	63	288	6
NMTAP	63	288	7
NMTAP	64	0	0
NMTAP	64	0	1
NMTAP	64	96	0
NMTAP	64	96	1
NMHLD	64	192	2	144
NMHLD	64	192	3	144
EXTAP	65	96	2
EXTAP	65	96	3
EXTAP	65	192	2
EXTAP	65	192	3
NMTAP	66	0	4
NMTAP	66	96	3
NMTAP	66	192	4
NMHLD	67	0	5	192
NMTAP	67	192	4
NMTAP	68	0	4
NMTAP	68	96	4
NMTAP	68	192	4
NMTAP	68	192	5
NMHLD	69	0	2	192
NMTAP	69	192	3
NMTAP	70	0	3
NMTAP	70	96	3
NMTAP	70	192	2
NMTAP	70	192	3
NMHLD	71	0	1	192
NMTAP	71	192	0
NMTAP	72	0	0
NMTAP	72	96	0
NMTAP	72	192	0
NMTAP	72	192	1
NMHLD	73	0	6	192
NMHLD	73	192	7	192
NMHLD	74	0	0	192
NMTAP	74	192	1
EXTAP	75	0	0
EXTAP	75	0	7
EXTAP	75	144	0
EXTAP	75	144	7
EXTAP	75	288	0
EXTAP	75	288	7
EXTAP	76	48	0
EXTAP	76	48	7
BXTAP	76	192	0
BXTAP	76	192	7
NMSTR	77	0	1
NMSI_	77	0	1	96	192	4
NMSTR	78	0	6
NMSI_	78	0	6	96	192	3
NMSTR	79	0	1
NMSI_	79	0	1	96	192	5
EXTAP	80	0	6
EXTAP	80	192	6
EXTAP	80	192	7
NMTAP	81	0	6
NMTAP	81	96	6
NMTAP	81	192	6
NMTAP	81	288	6
NMTAP	81	288	7
NMTAP	82	0	5
NMTAP	82	96	5
NMTAP	82	192	5
NMTAP	82	288	4
NMTAP	82	288	5
NMTAP	83	0	3
NMTAP	83	96	3
NMTAP	83	192	3
NMTAP	83	288	2
NMTAP	83	288	3
EXTAP	84	0	0
EXTAP	84	0	1
EXTAP	84	96	0
EXTAP	84	96	1
NMTAP	85	0	0
NMTAP	85	96	1
NMTAP	85	192	2
NMTAP	85	288	3
NMTAP	86	0	4
NMTAP	86	96	5
NMTAP	86	192	6
NMTAP	86	192	7
NMTAP	87	0	7
NMTAP	87	96	6
NMTAP	87	192	5
NMTAP	87	288	4
NMTAP	88	0	3
NMTAP	88	96	2
NMTAP	88	192	0
NMTAP	88	192	1
NMSTR	89	0	1
NMSUR	89	0	1	96	480	4
NMTAP	91	0	5
NMTAP	91	96	6
NMTAP	91	192	7
NMTAP	91	288	0
BRTAP	92	0	0
BRTAP	92	0	1
BRTAP	92	96	0
BRTAP	92	96	1
NMTAP	93	0	2
NMTAP	93	0	3
NMTAP	93	96	2
NMTAP	93	96	3
NMTAP	93	192	0
NMTAP	93	192	1
NMTAP	93	288	0
NMTAP	93	288	1
NMTAP	94	0	6
NMTAP	94	0	7
NMTAP	94	96	6
NMTAP	94	96	7
NMHLD	94	192	4	144
NMHLD	94	192	5	144
EXTAP	95	96	4
EXTAP	95	96	5
EXTAP	95	192	4
EXTAP	95	192	5
NMTAP	96	0	6
NMTAP	96	96	7
NMHLD	96	192	0	144
NMHLD	96	192	1	144
EXTAP	97	96	2
EXTAP	97	96	7
EXTAP	97	192	2
EXTAP	97	192	7
NMTAP	98	0	1
NMTAP	98	96	0
NMHLD	98	192	6	144
NMHLD	98	192	7	144
EXTAP	99	96	0
EXTAP	99	96	5
EXTAP	99	192	0
EXTAP	99	192	5
NMTAP	100	0	7
NMTAP	100	96	6
NMTAP	100	192	6
NMTAP	100	192	7
NMTAP	101	0	5
NMTAP	101	96	4
NMTAP	101	192	4
NMTAP	101	192	5
NMTAP	102	0	3
NMTAP	102	96	2
NMTAP	102	192	2
NMTAP	102	192	3
NMTAP	103	0	0
NMTAP	103	0	1
NMTAP	103	96	0
NMTAP	103	96	1
NMTAP	103	192	2
NMTAP	103	192	7
NMTAP	104	0	0
NMTAP	104	96	1
NMTAP	104	192	0
NMTAP	104	192	1
NMTAP	105	0	2
NMTAP	105	96	3
NMTAP	105	192	2
NMTAP	105	192	3
NMTAP	106	0	4
NMTAP	106	96	5
NMTAP	106	192	4
NMTAP	106	192	5
NMTAP	107	0	6
NMTAP	107	0	7
NMTAP	107	96	6
NMTAP	107	96	7
NMTAP	107	192	0
NMTAP	107	192	5
EXTAP	108	0	0
EXTAP	108	0	7
EXTAP	108	192	0
EXTAP	108	192	7
EXHLD	109	0	0	288
EXHLD	109	0	7	288
BXTAP	110	0	1
BXTAP	110	0	6

T_REC_TAP	243
T_REC_BRK	8
T_REC_XTP	45
T_REC_BXX	4
T_REC_HLD	28
T_REC_XHO	6
T_REC_BHO	0
T_REC_BXH	0
T_REC_STR	5
T_REC_BST	0
T_REC_XST	0
T_REC_XBS	0
T_REC_TTP	14
T_REC_THO	0
T_REC_SLD	5
T_REC_BSL	0
T_REC_ALL	358
T_NUM_TAP	307
T_NUM_BRK	12
T_NUM_HLD	34
T_NUM_SLD	5
T_NUM_ALL	358
T_JUDGE_TAP	319
T_JUDGE_HLD	204
T_JUDGE_SLD	5
T_JUDGE_ALL	528
TTM_EACHPAIRS	100
TTM_SCR_TAP	153500
TTM_SCR_BRK	31200
TTM_SCR_HLD	34000
TTM_SCR_SLD	7500
TTM_SCR_ALL	226200
TTM_SCR_S	218250
TTM_SCR_SS	225000
TTM_RAT_ACV	10053

