VERSION	0.00.00	1.04.00
FES_MODE	0
BPM_DEF	180.000	180.000	180.000	180.000
MET_DEF	4	4
RESOLUTION	384
CLK_DEF	384
COMPATIBLE_CODE	MA2

BPM	0	0	180.000
MET	0	0	4	4

NMHLD	1	0	1	288
NMHLD	1	0	5	288
NMHLD	2	0	2	288
NMHLD	2	0	6	288
NMHLD	3	0	1	288
NMHLD	3	0	5	288
NMTAP	4	0	1
NMTAP	4	0	3
NMTAP	4	96	2
NMTAP	4	96	4
NMTAP	4	192	4
NMTAP	4	192	6
NMTAP	4	288	3
NMTAP	4	288	5
NMHLD	5	0	2	288
NMSTR	5	0	6
NMSI_	5	0	6	96	96	2
CNSI_	5	192	2	0	96	4
NMSTR	6	0	1
NMSI_	6	0	1	96	96	5
NMHLD	6	0	5	288
CNSI_	6	192	5	0	96	3
NMTAP	7	0	2
NMTAP	7	0	6
NMTAP	7	96	4
NMTAP	7	96	5
NMTAP	7	192	1
NMTAP	7	192	5
NMTAP	7	288	2
NMTAP	7	288	3
NMTAP	8	0	1
NMTAP	8	0	3
NMTAP	8	96	4
NMTAP	8	96	6
NMTAP	8	192	0
NMTAP	8	192	7
BRTAP	8	288	2
BRTAP	8	288	5
NMSTR	9	0	4
NMSI_	9	0	4	96	48	0
NMTAP	9	0	6
NMTAP	9	96	4
NMTAP	9	96	5
NMSTR	9	192	4
NMSI_	9	192	4	96	48	0
NMTAP	9	192	6
NMTAP	9	288	3
NMTAP	9	288	4
NMSTR	10	0	4
NMSI_	10	0	4	96	48	0
NMTAP	10	0	6
NMTAP	10	96	4
NMTAP	10	96	5
NMTAP	10	192	4
NMTAP	10	192	6
NMTAP	10	288	2
NMTAP	10	288	4
NMTAP	11	0	1
NMSTR	11	0	3
NMSI_	11	0	3	96	48	7
NMTAP	11	96	2
NMTAP	11	96	3
NMTAP	11	192	1
NMSTR	11	192	3
NMSI_	11	192	3	96	48	7
NMTAP	11	288	3
NMTAP	11	288	4
NMTAP	12	0	1
NMSTR	12	0	3
NMSI_	12	0	3	96	48	7
NMSTR	12	96	2
NMSI_	12	96	2	96	48	0
NMTAP	12	96	3
NMTAP	12	192	2
NMSTR	12	192	4
NMSI_	12	192	4	96	48	6
NMTAP	12	288	3
NMTAP	12	288	4
NMSTR	13	0	4
NMSI_	13	0	4	96	48	0
NMTAP	13	0	6
NMTAP	13	96	4
NMTAP	13	96	5
NMSTR	13	192	4
NMSI_	13	192	4	96	48	0
NMTAP	13	192	6
NMTAP	13	288	3
NMTAP	13	288	4
NMSTR	14	0	4
NMSI_	14	0	4	96	48	0
NMTAP	14	0	6
NMTAP	14	96	4
NMTAP	14	96	5
NMTAP	14	192	4
NMTAP	14	192	6
NMTAP	14	288	2
NMTAP	14	288	4
NMTAP	15	0	1
NMSTR	15	0	3
NMSI_	15	0	3	96	48	7
NMTAP	15	96	2
NMTAP	15	96	3
NMTAP	15	192	1
NMSTR	15	192	3
NMSI_	15	192	3	96	48	7
NMTAP	15	288	3
NMTAP	15	288	4
NMTAP	16	0	1
NMSTR	16	0	3
NMSI_	16	0	3	96	48	7
NMSTR	16	96	0
NMSI_	16	96	0	96	48	4
NMTAP	16	96	3
NMTAP	16	192	0
NMTAP	16	192	5
BRTAP	16	288	2
BRTAP	16	288	6
NMTAP	17	0	3
NMTAP	17	0	5
NMTAP	17	96	3
NMTAP	17	96	5
NMTAP	17	192	3
NMTAP	17	192	5
NMHLD	17	288	3	64
NMHLD	17	288	5	64
EXTAP	18	0	2
EXTAP	18	0	4
EXTAP	18	96	2
EXTAP	18	96	4
EXTAP	18	192	2
EXTAP	18	192	4
EXHLD	18	288	2	64
EXHLD	18	288	4	64
NMTAP	19	0	1
NMTAP	19	0	5
NMTAP	19	96	1
NMTAP	19	96	5
NMTAP	19	192	1
NMTAP	19	192	5
NMHLD	19	288	1	64
NMHLD	19	288	5	64
NMTHO	20	0	0	96	C	0	M1
NMTTP	20	0	3	B	0	M1
NMTTP	20	0	4	B	0	M1
NMTTP	20	192	6	A	0	M1
NMTTP	20	192	7	A	0	M1
NMTTP	20	192	7	D	0	M1
NMTTP	20	288	0	A	0	M1
NMTTP	20	288	1	A	0	M1
NMTTP	20	288	1	D	0	M1
NMTAP	21	0	1
NMTAP	21	0	3
NMTAP	21	96	1
NMTAP	21	96	3
NMTAP	21	192	1
NMTAP	21	192	3
NMHLD	21	288	2	64
NMHLD	21	288	4	64
NMTAP	22	0	4
NMTAP	22	0	6
NMTAP	22	96	4
NMTAP	22	96	6
NMTAP	22	192	4
NMTAP	22	192	6
NMHLD	22	288	3	64
NMHLD	22	288	5	64
NMTAP	23	0	2
NMTAP	23	0	4
NMTAP	23	96	2
NMTAP	23	96	4
NMTAP	23	192	3
NMTAP	23	192	5
NMTAP	23	288	3
NMTAP	23	288	5
EXTAP	24	0	4
EXTAP	24	0	6
EXTAP	24	32	4
EXTAP	24	32	6
EXTAP	24	64	4
EXTAP	24	64	6
EXTAP	24	96	4
EXTAP	24	96	6
EXTAP	24	192	1
EXTAP	24	192	3
EXTAP	24	224	1
EXTAP	24	224	3
EXTAP	24	256	1
EXTAP	24	256	3
EXTAP	24	288	1
EXTAP	24	288	3
NMHLD	25	0	0	96
NMSTR	25	0	5
NMSCL	25	0	5	96	48	3
NMHLD	25	192	1	96
NMSTR	25	192	5
NMSCR	25	192	5	96	48	7
NMHLD	26	0	0	96
NMSTR	26	0	5
NMSCL	26	0	5	96	48	3
NMTAP	26	192	1
NMTAP	26	192	4
NMTAP	26	288	3
NMTAP	26	288	6
NMSTR	27	0	2
NMSCR	27	0	2	96	48	4
NMHLD	27	0	7	96
NMSTR	27	192	2
NMSCL	27	192	2	96	48	0
NMHLD	27	192	6	96
NMSTR	28	0	2
NMSCR	28	0	2	96	48	4
NMHLD	28	0	7	96
NMTAP	28	192	2
NMTAP	28	192	6
NMTAP	28	288	4
NMTAP	28	288	5
NMSTR	29	0	6
NMSI_	29	0	6	96	48	3
NMTAP	29	0	7
NMTAP	29	96	6
NMSTR	29	96	7
NMSI_	29	96	7	96	48	2
NMTAP	29	192	5
NMTAP	29	192	7
NMTAP	29	288	1
NMTAP	29	288	4
NMSTR	30	0	2
NMSI_	30	0	2	96	48	7
NMTAP	30	0	3
NMTAP	30	96	2
NMSTR	30	96	3
NMSI_	30	96	3	96	48	6
NMSTR	30	192	0
NMSI_	30	192	0	96	48	4
NMTAP	30	192	3
NMSTR	30	288	0
NMSCR	30	288	0	96	96	5
NMTAP	30	288	7
NMTAP	31	0	0
NMTAP	31	0	6
CNSV_	31	96	5	0	96	7
NMTAP	31	288	0
NMTAP	31	288	6
NMSTR	31	352	0
NMSSL	31	352	0	96	128	4
NMTAP	31	352	6
NMSTR	32	288	3
NMSI_	32	288	3	96	48	0
NMSTR	32	288	5
NMSCL	32	288	5	96	48	2
NMSTR	33	0	3
NMSI_	33	0	3	96	48	7
NMTAP	33	0	5
NMSTR	33	96	1
NMSI_	33	96	1	96	48	5
NMTAP	33	96	3
NMTAP	33	192	1
EXTAP	33	192	6
NMSTR	33	288	3
NMSCL	33	288	3	96	48	0
NMSTR	33	288	7
NMSCL	33	288	7	96	48	4
NMSTR	34	0	3
NMSXL	34	0	3	96	48	5
NMSXR	34	0	3	96	48	1
NMTAP	34	0	7
EXTAP	34	192	2
EXTAP	34	192	4
NMSTR	34	288	0
NMSI_	34	288	0	96	48	4
NMSTR	34	288	6
NMSI_	34	288	6	96	48	4
NMTAP	35	0	0
NMTAP	35	0	6
NMSTR	35	96	1
NMSI_	35	96	1	96	48	3
NMSTR	35	96	7
NMSI_	35	96	7	96	48	3
NMTAP	35	192	1
NMTAP	35	192	7
NMTAP	35	288	0
NMSTR	35	288	1
NMSCR	35	288	1	96	48	4
NMSTR	36	0	0
NMSCL	36	0	0	96	48	5
NMTAP	36	0	1
NMSTR	36	96	0
NMSF_	36	96	0	96	48	4
NMTAP	36	96	3
NMSTR	36	288	2
NMSI_	36	288	2	96	48	4
NMSTR	36	288	6
NMSI_	36	288	6	96	48	2
NMTAP	37	0	2
NMSTR	37	0	6
NMSI_	37	0	6	96	48	0
NMSTR	37	96	1
NMSI_	37	96	1	96	48	4
NMTAP	37	96	6
EXSTR	37	192	0
NMSI_	37	192	0	96	48	5
NMTAP	37	192	1
NMSTR	37	288	0
NMSXL	37	288	0	96	144	3
NMSXR	37	288	0	96	144	5
NMTAP	37	288	3
EXTAP	38	192	2
EXTAP	38	192	6
NMSTR	38	288	3
NMSXR	38	288	3	96	128	4
NMSTR	38	288	5
NMSXL	38	288	5	96	128	4
NMSTR	39	192	1
BRSV_	39	192	1	96	48	4
NMSTR	39	192	7
BRSV_	39	192	7	96	48	4
BRSTR	39	288	1
NMSI_	39	288	1	96	48	6
BRTAP	39	288	7
NMTAP	40	0	1
NMSTR	40	0	5
NMSI_	40	0	5	96	48	1
NMSTR	40	96	2
NMSI_	40	96	2	96	48	7
NMTAP	40	96	5
NMTAP	40	192	2
NMTAP	40	192	4
NMSTR	40	288	0
NMSI_	40	288	0	96	48	2
NMTAP	40	288	3
NMTAP	41	0	0
NMTAP	41	0	4
NMSTR	41	96	0
NMSI_	41	96	0	96	48	6
NMTAP	41	96	5
NMTAP	41	192	0
NMTAP	41	192	4
NMSTR	41	288	0
NMSI_	41	288	0	96	48	2
NMTAP	41	288	3
NMTAP	42	0	0
NMTAP	42	0	4
NMSTR	42	96	0
NMSI_	42	96	0	96	48	4
NMTAP	42	96	5
NMTAP	42	192	0
NMTAP	42	192	4
NMTAP	42	288	3
NMSTR	42	288	5
NMSCR	42	288	5	96	48	0
NMTAP	43	0	4
NMTAP	43	0	5
NMSTR	43	96	2
NMSCL	43	96	2	96	48	7
NMTAP	43	96	4
NMTAP	43	192	2
NMTAP	43	192	3
NMTAP	43	288	3
NMSTR	43	288	5
NMSCR	43	288	5	96	48	0
NMTAP	44	0	4
NMTAP	44	0	5
NMTAP	44	96	1
NMTAP	44	96	3
NMTAP	44	192	4
NMTAP	44	192	6
NMTAP	44	288	4
NMSTR	44	288	7
NMSI_	44	288	7	96	48	5
NMTAP	45	0	3
NMTAP	45	0	7
NMTAP	45	96	2
NMSTR	45	96	7
NMSI_	45	96	7	96	48	1
NMTAP	45	192	3
NMTAP	45	192	7
NMTAP	45	288	4
NMSTR	45	288	7
NMSI_	45	288	7	96	48	5
NMTAP	46	0	3
NMTAP	46	0	7
NMTAP	46	96	2
NMSTR	46	96	7
NMSI_	46	96	7	96	48	3
NMTAP	46	192	3
NMTAP	46	192	7
NMSTR	46	288	1
NMSCR	46	288	1	96	48	4
NMTAP	46	288	5
NMTAP	47	0	1
NMTAP	47	0	7
NMTAP	47	96	2
NMSTR	47	96	6
NMSCL	47	96	6	96	48	3
NMTAP	47	192	0
NMTAP	47	192	6
NMSTR	47	288	1
NMSXR	47	288	1	96	192	4
NMTAP	47	288	5
NMTAP	48	0	1
NMTAP	48	0	7
EXTAP	48	288	3
EXTAP	48	288	5
NMHLD	49	0	2	96
NMHLD	49	0	6	96
EXSTR	49	192	6
NMSI_	49	192	6	96	48	3
EXSTR	49	192	7
NMSI_	49	192	7	96	48	4
EXTAP	49	224	6
EXTAP	49	224	7
EXTAP	49	256	6
EXTAP	49	256	7
EXSTR	50	0	0
NMSI_	50	0	0	96	48	3
EXSTR	50	0	1
NMSI_	50	0	1	96	48	4
EXTAP	50	32	0
EXTAP	50	32	1
EXTAP	50	64	0
EXTAP	50	64	1
NMTAP	50	192	6
NMTAP	50	192	7
NMHLD	50	288	4	96
NMHLD	50	288	5	96
NMTAP	51	64	3
NMTAP	51	64	6
NMTAP	51	96	3
NMSTR	51	96	6
NMSCL	51	96	6	96	48	4
NMSTR	51	192	0
NMSCR	51	192	0	96	48	2
NMTAP	51	192	6
NMTAP	51	288	0
NMSTR	51	288	7
NMSV_	51	288	7	96	48	4
NMSTR	52	0	3
NMSV_	52	0	3	96	48	0
NMTAP	52	0	7
NMTAP	52	96	3
NMSTR	52	96	5
NMSI_	52	96	5	96	48	2
NMSTR	52	192	1
NMSI_	52	192	1	96	48	5
NMTAP	52	192	5
NMTAP	52	288	1
NMTAP	52	288	4
NMHLD	53	0	3	96
NMHLD	53	0	7	96
EXSTR	53	192	4
NMSUR	53	192	4	96	48	0
EXSTR	53	192	6
NMSI_	53	192	6	96	48	2
EXTAP	53	224	4
EXTAP	53	224	6
EXTAP	53	256	4
EXTAP	53	256	6
EXSTR	54	0	1
NMSI_	54	0	1	96	48	5
EXSTR	54	0	3
NMSUL	54	0	3	96	48	7
EXTAP	54	32	1
EXTAP	54	32	3
EXTAP	54	64	1
EXTAP	54	64	3
NMTAP	54	192	4
NMTAP	54	192	6
NMHLD	54	288	1	96
NMHLD	54	288	3	96
NMTAP	55	64	0
NMTAP	55	64	4
NMTAP	55	96	0
NMTAP	55	96	4
NMTAP	55	160	2
NMTAP	55	160	3
NMTAP	55	192	2
NMTAP	55	192	3
NMTAP	55	288	4
NMTAP	55	288	5
NMSTR	55	352	3
NMSCL	55	352	3	96	48	0
NMSTR	55	352	6
NMSCL	55	352	6	96	48	3
NMTAP	56	64	3
NMTAP	56	64	6
NMTAP	56	160	1
NMTAP	56	160	4
BRTAP	56	256	3
BRTAP	56	256	6
BRTAP	56	288	3
BRTAP	56	288	6
NMSTR	57	0	4
NMSI_	57	0	4	96	48	0
NMTAP	57	0	6
NMTAP	57	96	4
NMTAP	57	96	5
NMSTR	57	192	3
NMSI_	57	192	3	96	48	7
NMTAP	57	192	6
NMTAP	57	288	2
NMTAP	57	288	3
NMSTR	58	0	4
NMSI_	58	0	4	96	48	0
NMTAP	58	0	6
NMTAP	58	96	4
NMTAP	58	96	5
NMTAP	58	192	3
NMTAP	58	192	6
NMTAP	58	288	2
NMTAP	58	288	4
NMTAP	59	0	1
NMSTR	59	0	3
NMSI_	59	0	3	96	48	7
NMTAP	59	96	2
NMTAP	59	96	3
NMTAP	59	192	1
NMSTR	59	192	4
NMSI_	59	192	4	96	48	0
NMTAP	59	288	3
NMTAP	59	288	4
NMTAP	60	0	1
NMSTR	60	0	3
NMSI_	60	0	3	96	48	7
NMSTR	60	96	2
NMSI_	60	96	2	96	48	0
NMTAP	60	96	3
NMTAP	60	192	2
NMSTR	60	192	4
NMSI_	60	192	4	96	48	6
NMTAP	60	288	3
NMTAP	60	288	4
NMSTR	61	0	4
NMSI_	61	0	4	96	48	0
NMTAP	61	0	6
NMTAP	61	96	4
NMTAP	61	96	5
NMSTR	61	192	3
NMSI_	61	192	3	96	48	7
NMTAP	61	192	6
NMTAP	61	288	2
NMTAP	61	288	3
NMSTR	62	0	4
NMSI_	62	0	4	96	48	0
NMTAP	62	0	6
NMTAP	62	96	4
NMTAP	62	96	5
NMTAP	62	192	3
NMTAP	62	192	6
NMTAP	62	288	2
NMTAP	62	288	4
NMTAP	63	0	1
NMSTR	63	0	3
NMSI_	63	0	3	96	48	7
NMTAP	63	96	2
NMTAP	63	96	3
NMTAP	63	192	1
NMSTR	63	192	4
NMSI_	63	192	4	96	48	0
NMTAP	63	288	3
NMTAP	63	288	4
NMTAP	64	0	1
NMSTR	64	0	3
NMSI_	64	0	3	96	48	7
NMSTR	64	96	2
NMSI_	64	96	2	96	48	0
NMTAP	64	96	3
NMTAP	64	192	2
NMSTR	64	192	4
NMSI_	64	192	4	96	48	6
NMHLD	64	288	3	576
NMTAP	64	288	4
NMSTR	67	0	1
NMSI_	67	0	1	96	96	4
NMHLD	67	0	3	576
CNSV_	67	192	4	0	192	2
NMHLD	69	0	4	544
NMSTR	69	0	6
NMSI_	69	0	6	96	96	3
CNSUL	69	192	3	0	192	5
NMTAP	71	0	2
NMTAP	71	0	4
NMSTR	71	96	1
NMSCR	71	96	1	96	96	4
NMHLD	71	96	3	192
NMTAP	72	0	4
NMTAP	72	0	5
NMTAP	72	96	3
NMTAP	72	96	4
NMTAP	72	192	2
NMTAP	72	192	3
NMTAP	72	288	2
NMTAP	72	288	3
NMTAP	73	0	3
NMTAP	73	0	5
NMHLD	73	96	4	192
NMSTR	73	96	6
NMSCL	73	96	6	96	96	3
NMTAP	74	0	2
NMTAP	74	0	3
NMTAP	74	96	0
NMTAP	74	96	1
NMTAP	74	192	6
NMTAP	74	192	7
NMTAP	74	288	4
NMTAP	74	288	5
NMHLD	75	0	3	384
NMSTR	75	0	6
NMSCL	75	0	6	96	96	2
CNSXL	75	192	2	0	288	0
NMTAP	76	192	0
NMTAP	76	192	7
NMTAP	76	288	0
NMTAP	76	288	7
NMSTR	77	0	1
NMSCR	77	0	1	96	96	7
NMHLD	77	0	4	384
CNSSR	77	192	7	0	192	3
NMHLD	78	160	2	128
NMHLD	78	160	5	128
NMTAP	79	0	2
NMTAP	79	0	3
NMTAP	79	96	1
NMTAP	79	96	3
NMTAP	79	192	0
NMTAP	79	192	1
NMTAP	79	288	0
NMTAP	79	288	7
NMTAP	80	0	0
NMTAP	80	0	7
NMTAP	80	96	6
NMTAP	80	96	7
NMTAP	80	192	4
NMTAP	80	192	6
NMTAP	80	288	4
NMTAP	80	288	5
NMSTR	81	0	2
NMSI_	81	0	2	96	48	0
NMTAP	81	0	3
NMTAP	81	96	2
NMTAP	81	96	4
NMTAP	81	192	4
NMSTR	81	192	5
NMSI_	81	192	5	96	48	7
NMSTR	81	288	3
BRSXL	81	288	3	96	192	0
NMTAP	81	288	5
EXTAP	82	288	0
EXTAP	82	288	7
NMTTP	83	0	5	A	0	M1
NMTTP	83	0	6	A	0	M1
NMTTP	83	0	6	D	0	M1
NMTTP	83	96	4	B	0	M1
NMTTP	83	96	5	B	0	M1
NMTTP	83	96	6	B	0	M1
NMTTP	83	192	1	B	0	M1
NMTTP	83	192	2	B	0	M1
NMTTP	83	192	3	B	0	M1
NMTTP	83	288	1	A	0	M1
NMTTP	83	288	2	A	0	M1
NMTTP	83	288	2	D	0	M1
NMTAP	84	0	0
NMTAP	84	0	4
NMSTR	84	96	1
NMSCR	84	96	1	96	48	4
NMSTR	84	96	5
NMSCR	84	96	5	96	48	0
BRTAP	84	192	1
BRTAP	84	192	5
BRTAP	84	288	2
BRTAP	84	288	6
NMSTR	85	0	1
NMSI_	85	0	1	96	48	5
NMSTR	85	0	4
NMSI_	85	0	4	96	48	2
NMTAP	85	96	1
NMTAP	85	96	4
NMSTR	85	192	3
NMSI_	85	192	3	96	48	5
NMSTR	85	192	6
NMSI_	85	192	6	96	48	2
NMSTR	85	288	3
NMSI_	85	288	3	96	48	0
NMTAP	85	288	6
NMSTR	86	0	3
NMSI_	86	0	3	96	48	6
NMSTR	86	96	3
NMSI_	86	96	3	96	48	7
NMSTR	86	288	1
NMSI_	86	288	1	96	48	6
NMTAP	86	288	5
NMTAP	87	0	1
NMSTR	87	0	4
NMSI_	87	0	4	96	48	7
NMSTR	87	96	0
NMSI_	87	96	0	96	48	3
NMTAP	87	96	4
NMTAP	87	192	0
NMSTR	87	192	5
NMSI_	87	192	5	96	48	2
NMSTR	87	288	1
NMSCR	87	288	1	96	48	4
NMTAP	87	288	5
NMTAP	88	0	1
NMSTR	88	0	5
NMSCR	88	0	5	96	48	0
NMSTR	88	96	3
NMSF_	88	96	3	96	48	7
NMTAP	88	96	5
NMSTR	88	288	2
NMSXR	88	288	2	96	128	3
NMSTR	88	288	4
NMSXL	88	288	4	96	128	3
NMSTR	89	192	0
BRSV_	89	192	0	96	48	3
NMSTR	89	192	6
BRSV_	89	192	6	96	48	3
BRTAP	89	288	0
BRSTR	89	288	6
NMSI_	89	288	6	96	48	2
NMSTR	90	0	1
NMSI_	90	0	1	96	48	4
NMTAP	90	0	6
NMTAP	90	96	1
NMTAP	90	96	5
NMTAP	90	192	3
NMTAP	90	192	6
NMTAP	90	288	4
NMSTR	90	288	7
NMSI_	90	288	7	96	48	5
NMTAP	91	0	3
NMSTR	91	0	7
NMSI_	91	0	7	96	48	1
NMTAP	91	96	3
NMSTR	91	96	7
NMSI_	91	96	7	96	48	5
NMTAP	91	192	3
NMSTR	91	192	7
NMSI_	91	192	7	96	48	1
NMTAP	91	288	3
NMSTR	91	288	7
NMSI_	91	288	7	96	48	5
NMTAP	92	0	3
NMSTR	92	0	7
NMSI_	92	0	7	96	48	1
NMTAP	92	96	3
NMSTR	92	96	7
NMSI_	92	96	7	96	48	3
NMTAP	92	192	3
NMTAP	92	192	7
NMSTR	92	288	2
NMSCL	92	288	2	96	48	7
NMTAP	92	288	4
NMTAP	93	0	2
NMTAP	93	0	3
NMTAP	93	96	3
NMSTR	93	96	5
NMSCR	93	96	5	96	48	0
NMTAP	93	192	4
NMTAP	93	192	5
NMSTR	93	288	2
NMSCL	93	288	2	96	48	7
NMTAP	93	288	4
NMTAP	94	0	2
NMTAP	94	0	3
NMTAP	94	96	4
NMTAP	94	96	6
NMTAP	94	192	1
NMTAP	94	192	3
NMSTR	94	288	0
NMSI_	94	288	0	96	48	2
NMTAP	94	288	3
NMSTR	95	0	0
NMSI_	95	0	0	96	48	6
NMTAP	95	0	4
NMSTR	95	96	0
NMSI_	95	96	0	96	48	2
NMTAP	95	96	4
NMSTR	95	192	0
NMSI_	95	192	0	96	48	6
NMTAP	95	192	4
NMSTR	95	288	0
NMSI_	95	288	0	96	48	2
NMTAP	95	288	4
NMSTR	96	0	0
NMSI_	96	0	0	96	48	6
NMTAP	96	0	4
NMSTR	96	96	0
NMSI_	96	96	0	96	48	4
NMTAP	96	96	4
NMTAP	96	192	0
NMTAP	96	192	4
NMTAP	96	288	2
NMSTR	96	288	6
NMSCL	96	288	6	96	48	3
NMTAP	97	0	0
NMTAP	97	0	6
NMSTR	97	96	1
NMSCR	97	96	1	96	48	4
NMTAP	97	96	5
NMTAP	97	192	1
NMTAP	97	192	7
NMTAP	97	288	2
NMSTR	97	288	6
NMSI_	97	288	6	96	48	2
NMTAP	98	0	0
NMTAP	98	0	6
BRTAP	98	192	1
BRTAP	98	192	5
BRTAP	98	288	2
BRTAP	98	288	4
NMTAP	99	0	1
NMSTR	99	0	3
NMSI_	99	0	3	96	48	7
NMTAP	99	96	2
NMTAP	99	96	3
NMTAP	99	192	1
NMSTR	99	192	4
NMSI_	99	192	4	96	48	0
NMTAP	99	288	3
NMTAP	99	288	4
NMTAP	100	0	1
NMSTR	100	0	3
NMSI_	100	0	3	96	48	6
NMTAP	100	96	2
NMSTR	100	96	3
NMSCL	100	96	3	96	48	0
NMSTR	100	192	3
NMSI_	100	192	3	96	48	7
NMTAP	100	192	5
NMTAP	100	288	1
NMTAP	100	288	3
NMSTR	101	0	4
NMSI_	101	0	4	96	48	0
NMTAP	101	0	6
NMTAP	101	96	4
NMTAP	101	96	5
NMSTR	101	192	3
NMSI_	101	192	3	96	48	7
NMTAP	101	192	6
NMTAP	101	288	3
NMTAP	101	288	4
NMSTR	102	0	4
NMSI_	102	0	4	96	48	7
NMTAP	102	0	6
NMTAP	102	96	4
NMSTR	102	96	5
NMSI_	102	96	5	96	48	2
NMSTR	102	192	3
NMSI_	102	192	3	96	48	0
NMTAP	102	192	5
NMTAP	102	288	3
NMTAP	102	288	4
NMTAP	103	0	1
NMSTR	103	0	3
NMSI_	103	0	3	96	48	7
NMTAP	103	96	2
NMTAP	103	96	3
NMTAP	103	192	1
NMSTR	103	192	4
NMSI_	103	192	4	96	48	0
NMTAP	103	288	3
NMTAP	103	288	4
NMTAP	104	0	1
NMSTR	104	0	3
NMSI_	104	0	3	96	48	6
NMTAP	104	96	2
NMSTR	104	96	3
NMSCL	104	96	3	96	48	0
NMSTR	104	192	3
NMSI_	104	192	3	96	48	7
NMTAP	104	192	5
NMTAP	104	288	1
NMTAP	104	288	3
NMSTR	105	0	4
NMSI_	105	0	4	96	48	0
NMTAP	105	0	6
NMTAP	105	96	4
NMTAP	105	96	5
NMSTR	105	192	3
NMSI_	105	192	3	96	48	7
NMTAP	105	192	6
NMTAP	105	288	3
NMTAP	105	288	4
NMSTR	106	0	4
NMSI_	106	0	4	96	48	1
NMTAP	106	0	6
NMTAP	106	96	4
NMSTR	106	96	5
NMSI_	106	96	5	96	48	0
NMSTR	106	192	2
NMSI_	106	192	2	96	48	7
NMTAP	106	192	5
NMTAP	106	288	2
NMTAP	106	288	3
NMSTR	107	0	3
NMSCL	107	0	3	96	48	1
NMTAP	107	0	5
NMTAP	107	192	2
NMSTR	107	192	4
NMSCR	107	192	4	96	48	6
NMTAP	108	0	4
NMTAP	108	0	5
NMTAP	108	96	2
NMTAP	108	96	3
NMTAP	108	192	0
NMTAP	108	192	7
NMSTR	108	256	0
NMSCR	108	256	0	96	48	3
NMSTR	108	256	7
NMSCL	108	256	7	96	48	4

T_REC_TAP	418
T_REC_BRK	18
T_REC_XTP	47
T_REC_BXX	0
T_REC_HLD	39
T_REC_XHO	2
T_REC_BHO	0
T_REC_BXH	0
T_REC_STR	167
T_REC_BST	2
T_REC_XST	9
T_REC_XBS	0
T_REC_TTP	20
T_REC_THO	1
T_REC_SLD	175
T_REC_BSL	5
T_REC_ALL	903
T_NUM_TAP	661
T_NUM_BRK	25
T_NUM_HLD	42
T_NUM_SLD	175
T_NUM_ALL	903
T_JUDGE_TAP	681
T_JUDGE_HLD	164
T_JUDGE_SLD	180
T_JUDGE_ALL	1025
TTM_EACHPAIRS	350
TTM_SCR_TAP	330500
TTM_SCR_BRK	65000
TTM_SCR_HLD	42000
TTM_SCR_SLD	262500
TTM_SCR_ALL	700000
TTM_SCR_S	676600
TTM_SCR_SS	697500
TTM_RAT_ACV	10035

