VERSION	0.00.00	1.04.00
FES_MODE	0
BPM_DEF	180.000	180.000	180.000	180.000
MET_DEF	4	4
RESOLUTION	384
CLK_DEF	384
COMPATIBLE_CODE	MA2

BPM	0	0	180.000
MET	0	0	4	4

NMHLD	1	0	5	288
NMTAP	1	288	3
NMHLD	2	0	2	288
NMTAP	2	288	4
NMHLD	3	0	5	288
NMTAP	3	288	3
NMTAP	4	0	3
NMTAP	4	0	5
NMTAP	4	96	3
NMTAP	4	96	5
NMTAP	4	192	2
NMTAP	4	192	4
NMTAP	4	288	2
NMTAP	4	288	4
NMHLD	5	0	1	192
NMTAP	5	192	3
NMTAP	5	288	3
NMTAP	5	288	5
NMHLD	6	0	6	192
NMTAP	6	192	4
NMTAP	6	288	2
NMTAP	6	288	4
NMHLD	7	0	1	192
NMTAP	7	192	3
NMTAP	7	288	3
NMTAP	7	288	5
NMTAP	8	0	6
NMTAP	8	96	6
NMTAP	8	192	6
NMTAP	8	288	3
NMTAP	8	288	5
NMTAP	9	0	2
NMTAP	9	96	1
NMTAP	9	96	3
NMTAP	9	192	5
NMTAP	9	288	4
NMTAP	9	288	6
NMTAP	10	0	2
NMTAP	10	96	1
NMTAP	10	96	3
NMTAP	10	192	0
NMTAP	10	192	1
NMTAP	10	288	6
NMTAP	10	288	7
NMTAP	11	0	5
NMTAP	11	96	4
NMTAP	11	96	6
NMTAP	11	192	2
NMTAP	11	288	1
NMTAP	11	288	3
NMTAP	12	0	5
NMTAP	12	96	4
NMTAP	12	96	6
NMTAP	12	192	6
NMTAP	12	192	7
NMTAP	12	288	0
NMTAP	12	288	1
NMTAP	13	0	2
NMTAP	13	96	1
NMTAP	13	96	4
NMTAP	13	192	5
NMTAP	13	288	3
NMTAP	13	288	6
NMTAP	14	0	2
NMTAP	14	96	1
NMTAP	14	96	4
NMTAP	14	192	3
NMTAP	14	192	6
NMTAP	14	288	1
NMTAP	14	288	4
NMTAP	15	0	5
NMTAP	15	96	3
NMTAP	15	96	6
NMTAP	15	192	2
NMTAP	15	288	2
NMTAP	15	288	3
NMTAP	16	0	2
NMTAP	16	0	3
NMTAP	16	96	0
NMTAP	16	96	1
NMTAP	16	192	6
NMTAP	16	192	7
NMTAP	16	288	4
NMTAP	16	288	5
NMTAP	17	0	3
NMTAP	17	96	3
NMTAP	17	192	2
NMTAP	17	192	4
NMTAP	17	288	2
NMTAP	17	288	4
NMTAP	18	0	5
NMTAP	18	96	5
NMTAP	18	192	4
NMTAP	18	192	6
NMTAP	18	288	4
NMTAP	18	288	6
NMTAP	19	0	3
NMTAP	19	96	2
NMTAP	19	192	1
NMTAP	19	192	3
NMTAP	19	288	1
NMTAP	19	288	3
NMTAP	20	0	4
NMTAP	20	96	4
NMTAP	20	192	3
NMTAP	20	192	5
NMTAP	20	288	3
NMTAP	20	288	5
NMTAP	21	0	2
NMTAP	21	96	2
NMTAP	21	192	2
NMTAP	21	192	3
NMTAP	21	288	2
NMTAP	21	288	3
NMTAP	22	0	4
NMTAP	22	96	5
NMTAP	22	192	4
NMTAP	22	192	5
NMTAP	22	288	4
NMTAP	22	288	5
NMTAP	23	0	3
NMTAP	23	96	3
NMTAP	23	192	2
NMTAP	23	192	4
NMTAP	23	288	1
NMTAP	23	288	5
NMTAP	24	0	0
NMHLD	24	0	6	96
NMTAP	24	96	4
NMHLD	24	192	1	96
NMTAP	24	192	7
NMTAP	24	288	3
NMSTR	25	0	6
NMSCL	25	0	6	96	96	3
NMSTR	25	192	2
NMSCL	25	192	2	96	96	7
NMSTR	26	0	6
NMSCL	26	0	6	96	96	3
NMTAP	26	192	2
NMTAP	26	256	2
NMTAP	26	288	3
NMSTR	27	0	1
NMSCR	27	0	1	96	96	4
NMSTR	27	192	5
NMSCR	27	192	5	96	96	0
NMSTR	28	0	1
NMSCR	28	0	1	96	96	4
NMTAP	28	192	5
NMTAP	28	256	5
NMTAP	28	288	4
NMTAP	29	0	6
NMTAP	29	0	7
NMTAP	29	96	0
NMTAP	29	96	5
NMTAP	29	192	1
NMTAP	29	192	4
NMTAP	29	288	2
NMTAP	29	288	3
NMTAP	30	0	0
NMTAP	30	0	1
NMTAP	30	96	2
NMTAP	30	96	7
NMTAP	30	192	3
NMTAP	30	192	6
NMTAP	30	288	4
NMHLD	30	288	5	96
NMHLD	31	0	7	96
NMHLD	31	96	0	96
NMSTR	31	192	2
NMSLR	31	192	2	96	192	7
BRTAP	32	288	0
BRTAP	32	288	7
NMTAP	33	0	0
NMTAP	33	0	1
NMTAP	33	96	2
NMTAP	33	96	3
NMTAP	33	192	3
NMTAP	33	192	5
NMSTR	33	288	2
NMSCL	33	288	2	96	96	7
NMSTR	33	288	6
NMSCL	33	288	6	96	96	3
NMTAP	34	192	0
NMTAP	34	192	4
EXTAP	34	352	1
EXTAP	34	352	3
NMTAP	35	64	2
NMTAP	35	64	3
EXTAP	35	160	4
EXTAP	35	160	6
NMTAP	35	256	4
NMTAP	35	256	5
EXTAP	35	352	1
EXTAP	35	352	3
NMTAP	36	64	2
NMTAP	36	96	3
NMTAP	36	160	3
NMTAP	36	192	1
NMTAP	36	288	0
NMTAP	36	288	1
NMTAP	37	0	6
NMTAP	37	0	7
NMTAP	37	96	4
NMTAP	37	96	5
NMTAP	37	192	2
NMTAP	37	192	4
NMSTR	37	288	1
NMSI_	37	288	1	96	96	6
NMSTR	37	288	5
NMSI_	37	288	5	96	96	2
NMTAP	38	192	1
NMTAP	38	192	5
NMTAP	38	288	0
NMTAP	38	288	6
NMTAP	39	0	6
NMTAP	39	0	7
NMTAP	39	96	4
NMTAP	39	96	5
NMTAP	39	192	2
NMTAP	39	192	3
NMSTR	39	288	0
NMSUR	39	288	0	96	96	5
NMSTR	39	288	1
NMSCR	39	288	1	96	96	4
NMTAP	40	192	4
NMTAP	40	192	5
NMTAP	40	288	4
NMTAP	40	288	5
NMTAP	41	0	4
NMTAP	41	0	6
NMTAP	41	96	7
NMTAP	41	192	1
NMTAP	41	192	3
NMTAP	41	288	0
NMTAP	42	0	4
NMTAP	42	0	6
NMTAP	42	96	7
NMTAP	42	192	1
NMTAP	42	192	3
NMTAP	42	288	0
NMTAP	43	0	4
NMTAP	43	0	6
NMTAP	43	96	4
NMTAP	43	96	5
NMTAP	43	192	1
NMTAP	43	192	3
NMTAP	43	288	2
NMTAP	43	288	3
NMHLD	44	0	5	96
NMHLD	44	96	7	96
NMHLD	44	192	0	96
NMTAP	44	288	2
NMTAP	45	0	1
NMTAP	45	0	3
NMTAP	45	96	0
NMTAP	45	192	4
NMTAP	45	192	6
NMTAP	45	288	7
NMTAP	46	0	1
NMTAP	46	0	3
NMTAP	46	96	0
NMTAP	46	192	4
NMTAP	46	192	6
NMTAP	46	288	7
NMTAP	47	0	1
NMTAP	47	0	3
NMTAP	47	96	2
NMTAP	47	96	3
NMTAP	47	192	4
NMTAP	47	192	6
NMTAP	47	288	4
NMTAP	47	288	5
NMTAP	48	0	6
NMTAP	48	0	7
NMTAP	48	96	0
NMTAP	48	96	1
NMTAP	48	192	2
NMTAP	48	192	3
BRTAP	48	288	1
BRTAP	48	288	4
NMSTR	49	0	0
NMSI_	49	0	0	96	96	4
NMHLD	49	192	6	96
NMTAP	49	288	4
NMHLD	50	0	2	96
NMTAP	50	96	4
NMTAP	50	160	4
NMTAP	50	192	3
NMTAP	50	288	2
NMTAP	50	288	3
NMHLD	51	0	2	96
NMHLD	51	0	4	96
NMTAP	51	160	3
NMTAP	51	192	3
NMTAP	51	288	2
NMTAP	51	288	3
NMTAP	52	0	1
NMTAP	52	0	3
NMTAP	52	96	3
NMTAP	52	96	5
NMHLD	52	192	2	96
NMHLD	52	192	6	96
NMSTR	53	0	7
NMSI_	53	0	7	96	96	3
NMHLD	53	192	1	96
NMTAP	53	288	3
NMHLD	54	0	5	96
NMTAP	54	96	3
NMTAP	54	160	3
NMTAP	54	192	4
NMTAP	54	288	4
NMTAP	54	288	5
NMHLD	55	0	3	96
NMHLD	55	0	5	96
NMTAP	55	160	6
NMTAP	55	192	6
NMTAP	55	288	4
NMTAP	55	288	5
NMHLD	55	352	4	96
NMHLD	55	352	5	96
NMHLD	56	160	2	96
NMHLD	56	160	3	96
NMTAP	56	288	2
NMTAP	56	288	3
NMTAP	57	0	1
NMTAP	57	96	1
NMTAP	57	96	3
NMTAP	57	192	2
NMTAP	57	288	0
NMTAP	57	288	2
NMTAP	58	0	5
NMTAP	58	96	5
NMTAP	58	96	7
NMTAP	58	192	3
NMTAP	58	192	6
NMTAP	58	288	4
NMTAP	58	288	5
NMTAP	59	0	6
NMTAP	59	96	4
NMTAP	59	96	6
NMTAP	59	192	5
NMTAP	59	288	5
NMTAP	59	288	7
NMTAP	60	0	2
NMTAP	60	96	0
NMTAP	60	96	2
NMTAP	60	192	1
NMTAP	60	192	4
NMTAP	60	288	2
NMTAP	60	288	3
NMTAP	61	0	1
NMTAP	61	96	1
NMTAP	61	96	4
NMTAP	61	192	2
NMTAP	61	288	2
NMTAP	61	288	7
NMTAP	62	0	5
NMTAP	62	96	0
NMTAP	62	96	5
NMTAP	62	192	2
NMTAP	62	192	7
NMTAP	62	288	4
NMTAP	62	288	5
NMTAP	63	0	6
NMTAP	63	96	3
NMTAP	63	96	6
NMTAP	63	192	5
NMTAP	63	288	0
NMTAP	63	288	5
NMTAP	64	0	2
NMTAP	64	96	2
NMTAP	64	96	7
NMTAP	64	192	0
NMTAP	64	192	5
NMHLD	64	288	0	672
NMHLD	64	288	5	672
NMSTR	67	0	6
NMSCL	67	0	6	96	96	3
NMTAP	67	288	2
NMSTR	68	0	1
NMSCR	68	0	1	96	96	4
NMTAP	68	288	5
NMSTR	69	0	6
NMSCL	69	0	6	96	96	3
NMTAP	69	288	2
NMHLD	70	0	1	160
NMHLD	70	0	3	160
NMSTR	71	0	2
NMSI_	71	0	2	96	96	5
NMTAP	71	288	6
NMSTR	72	0	5
NMSI_	72	0	5	96	96	2
NMTAP	72	288	1
NMSTR	73	0	2
NMSI_	73	0	2	96	96	5
NMTAP	73	288	6
NMHLD	74	0	6	96
NMHLD	74	96	4	96
NMHLD	74	192	3	96
NMTAP	74	288	1
NMTTP	75	0	2	E	0	M1
NMTTP	75	96	3	E	0	M1
NMTTP	75	192	4	E	0	M1
NMTTP	75	288	5	E	0	M1
NMTTP	76	0	6	E	0	M1
NMTTP	76	96	7	E	0	M1
NMTTP	76	192	0	E	0	M1
NMTTP	76	288	1	E	0	M1
NMTTP	77	0	2	E	0	M1
NMTTP	77	96	3	E	0	M1
NMTHO	77	192	0	352	C	1	M1
NMHLD	79	0	1	96
NMHLD	79	0	7	96
NMHLD	79	192	1	96
NMHLD	79	192	7	96
NMHLD	80	0	0	96
NMHLD	80	0	6	96
NMHLD	80	192	0	96
NMHLD	80	192	6	96
NMSTR	81	0	7
NMSCL	81	0	7	96	96	4
NMSTR	81	192	0
NMSCR	81	192	0	96	96	3
EXHLD	82	0	5	192
EXTAP	82	192	3
NMTAP	82	288	2
NMTAP	82	288	6
NMHLD	83	0	1	192
NMTAP	83	192	4
NMTAP	83	288	5
NMHLD	84	0	6	192
NMTAP	84	192	3
BRTAP	84	288	0
NMTAP	85	0	1
NMTAP	85	96	1
NMTAP	85	96	7
NMTAP	85	192	6
NMTAP	85	288	0
NMTAP	85	288	6
NMSTR	86	0	0
NMSI_	86	0	0	96	96	4
NMSTR	86	0	6
NMSI_	86	0	6	96	96	2
NMTAP	86	288	1
NMTAP	86	288	5
NMTAP	87	0	2
NMTAP	87	0	3
NMTAP	87	96	0
NMTAP	87	96	1
NMTAP	87	192	1
NMTAP	87	192	7
NMSTR	87	288	2
NMSCR	87	288	2	96	96	5
NMSTR	87	288	6
NMSCR	87	288	6	96	96	1
NMTAP	88	192	2
NMTAP	88	192	6
NMTAP	88	288	1
NMTAP	88	288	7
NMTAP	89	0	0
NMTAP	89	0	1
NMTAP	89	96	2
NMTAP	89	96	3
NMTAP	89	192	4
NMTAP	89	192	5
NMSTR	89	288	6
NMSCL	89	288	6	96	96	3
NMSTR	89	288	7
NMSUL	89	288	7	96	96	2
NMTAP	90	192	2
NMTAP	90	192	3
NMTAP	90	288	2
NMTAP	90	288	3
NMTAP	91	0	1
NMTAP	91	0	3
NMTAP	91	96	0
NMTAP	91	96	1
NMTAP	91	192	4
NMTAP	91	192	6
NMTAP	91	288	6
NMTAP	91	288	7
NMTAP	92	0	1
NMTAP	92	0	3
NMTAP	92	96	0
NMTAP	92	96	1
NMTAP	92	192	4
NMTAP	92	192	6
NMTAP	92	288	6
NMTAP	92	288	7
NMTAP	93	0	1
NMTAP	93	0	3
NMTAP	93	96	2
NMTAP	93	96	3
NMTAP	93	192	4
NMTAP	93	192	6
NMTAP	93	288	4
NMSTR	93	288	5
NMSCR	93	288	5	96	96	0
NMSTR	94	96	1
NMSCR	94	96	1	96	96	4
NMTAP	94	288	6
NMTAP	95	0	4
NMTAP	95	0	6
NMTAP	95	96	6
NMTAP	95	96	7
NMTAP	95	192	1
NMTAP	95	192	3
NMTAP	95	288	0
NMTAP	95	288	1
NMTAP	96	0	4
NMTAP	96	0	6
NMTAP	96	96	6
NMTAP	96	96	7
NMTAP	96	192	1
NMTAP	96	192	3
NMTAP	96	288	0
NMTAP	96	288	1
NMTAP	97	0	4
NMTAP	97	0	6
NMTAP	97	96	3
NMTAP	97	96	4
NMTAP	97	192	1
NMTAP	97	192	3
NMSTR	97	288	3
NMSI_	97	288	3	96	96	0
NMTAP	97	288	4
NMSTR	98	96	7
NMSI_	98	96	7	96	96	4
BRTAP	98	288	3
NMHLD	99	0	1	96
NMTAP	99	96	3
NMTAP	99	192	0
NMTAP	99	192	1
NMTAP	99	288	6
NMTAP	99	288	7
NMHLD	100	0	6	96
NMTAP	100	96	4
NMTAP	100	192	0
NMTAP	100	192	7
NMTAP	100	288	0
NMTAP	100	288	7
NMHLD	101	0	6	96
NMTAP	101	96	4
NMTAP	101	192	6
NMTAP	101	192	7
NMTAP	101	288	0
NMTAP	101	288	1
NMHLD	102	0	1	96
NMTAP	102	96	3
NMTAP	102	192	0
NMTAP	102	192	7
NMTAP	102	288	0
NMTAP	102	288	7
NMHLD	103	0	1	96
NMTAP	103	96	0
NMTAP	103	192	2
NMTAP	103	192	3
NMTAP	103	288	4
NMTAP	103	288	5
NMHLD	104	0	6	96
NMTAP	104	96	7
NMTAP	104	192	3
NMTAP	104	192	5
NMTAP	104	288	4
NMTAP	104	288	5
NMHLD	105	0	6	96
NMTAP	105	96	7
NMTAP	105	192	4
NMTAP	105	192	5
NMTAP	105	288	2
NMTAP	105	288	3
NMHLD	106	0	1	96
NMTAP	106	96	0
NMTAP	106	192	2
NMTAP	106	192	3
NMTAP	106	288	2
NMTAP	106	288	3
NMHLD	107	0	1	96
NMHLD	107	96	3	96
NMHLD	107	192	4	96
NMHLD	107	288	6	96
NMHLD	108	0	1	96
NMSTR	108	96	3
NMSUR	108	96	3	96	192	4

T_REC_TAP	433
T_REC_BRK	6
T_REC_XTP	7
T_REC_BXX	0
T_REC_HLD	58
T_REC_XHO	1
T_REC_BHO	0
T_REC_BXH	0
T_REC_STR	34
T_REC_BST	0
T_REC_XST	0
T_REC_XBS	0
T_REC_TTP	10
T_REC_THO	1
T_REC_SLD	34
T_REC_BSL	0
T_REC_ALL	584
T_NUM_TAP	484
T_NUM_BRK	6
T_NUM_HLD	60
T_NUM_SLD	34
T_NUM_ALL	584
T_JUDGE_TAP	490
T_JUDGE_HLD	178
T_JUDGE_SLD	34
T_JUDGE_ALL	702
TTM_EACHPAIRS	191
TTM_SCR_TAP	242000
TTM_SCR_BRK	15600
TTM_SCR_HLD	60000
TTM_SCR_SLD	51000
TTM_SCR_ALL	368600
TTM_SCR_S	357000
TTM_SCR_SS	368000
TTM_RAT_ACV	10016

