VERSION	0.00.00	1.04.00
FES_MODE	0
BPM_DEF	144.000	144.000	144.000	144.000
MET_DEF	4	4
RESOLUTION	384
CLK_DEF	384
COMPATIBLE_CODE	MA2

BPM	0	0	144.000
MET	0	0	4	4

BRHLD	1	192	1	96
BRHLD	1	192	5	96
NMTAP	2	0	2
NMTAP	2	0	4
NMTAP	2	48	2
NMTAP	2	96	2
NMTAP	2	96	4
NMTAP	2	144	2
NMTAP	2	192	2
NMTAP	2	192	4
NMSTR	2	240	2
NMSI_	2	240	2	96	48	4
NMHLD	2	336	5	48
NMTAP	3	48	5
NMTAP	3	96	6
NMTAP	3	144	6
NMTAP	3	192	4
NMTAP	3	240	4
NMTAP	3	288	3
NMTAP	3	288	5
NMSTR	3	336	5
NMSCL	3	336	5	96	48	3
NMTAP	4	48	3
NMTAP	4	96	2
NMTAP	4	144	1
NMSTR	4	192	1
NMSCR	4	192	1	96	48	3
NMTAP	4	192	3
NMTAP	4	240	4
NMTAP	4	288	5
NMTAP	4	336	6
EXTAP	5	0	4
EXTAP	5	0	6
NMTAP	5	48	5
EXTAP	5	96	3
EXTAP	5	96	4
NMTAP	5	144	2
EXTAP	5	192	2
EXTAP	5	192	3
EXTAP	5	240	2
EXTAP	5	240	3
EXTAP	5	288	1
EXTAP	5	288	4
NMTAP	6	0	3
NMTAP	6	0	5
NMTAP	6	48	5
NMTAP	6	96	3
NMTAP	6	96	5
NMTAP	6	144	5
NMTAP	6	192	3
NMTAP	6	192	5
NMSTR	6	240	5
NMSI_	6	240	5	96	48	3
NMHLD	6	336	2	48
NMTAP	7	48	2
NMTAP	7	96	1
NMTAP	7	144	1
NMTAP	7	192	3
NMTAP	7	240	3
NMTAP	7	288	2
NMTAP	7	288	4
NMSTR	7	336	1
NMSCR	7	336	1	96	48	3
NMTAP	8	48	4
NMTAP	8	96	4
NMTAP	8	144	5
NMTAP	8	192	4
NMTAP	8	192	6
NMTAP	8	240	5
NMTAP	8	288	4
NMTAP	8	336	3
EXTAP	9	0	2
EXTAP	9	0	3
NMTAP	9	48	1
NMTAP	9	96	0
NMTAP	9	96	7
NMTAP	9	144	6
NMTAP	9	192	4
NMTAP	9	192	5
BRTAP	9	288	1
BRTAP	9	288	6
NMTAP	9	336	0
NMTAP	9	360	7
NMTAP	10	0	0
NMTAP	10	48	5
NMTAP	10	72	4
NMTAP	10	96	5
NMTAP	10	144	2
NMTAP	10	168	3
NMTAP	10	192	1
NMTAP	10	240	5
NMTAP	10	264	4
NMTAP	10	288	6
NMTAP	10	336	7
NMTAP	11	0	1
NMTAP	11	0	7
NMTAP	11	48	0
NMTAP	11	96	1
NMTAP	11	96	3
NMTAP	11	144	2
NMTAP	11	192	3
NMTAP	11	192	5
NMTAP	11	240	6
NMTAP	11	288	0
NMTAP	11	288	7
NMTAP	11	336	1
NMTAP	11	360	3
NMTAP	12	0	2
NMTAP	12	48	5
NMTAP	12	72	4
NMTAP	12	96	6
NMTAP	12	144	2
NMTAP	12	168	3
NMTAP	12	192	1
NMTAP	12	240	1
NMTAP	12	240	3
NMTAP	12	288	2
NMTAP	12	288	4
NMTAP	12	336	3
NMTAP	12	336	5
NMTAP	13	0	4
NMTAP	13	0	6
NMTAP	13	48	6
NMTAP	13	72	4
NMTAP	13	96	5
NMTAP	13	120	3
NMTAP	13	144	4
NMTAP	13	192	3
NMTAP	13	192	4
NMTAP	13	240	2
NMTAP	13	240	5
NMTAP	13	288	1
NMTAP	13	288	6
NMTAP	13	336	4
NMTAP	13	360	3
NMTAP	14	0	5
NMTAP	14	48	2
NMTAP	14	72	3
NMTAP	14	96	2
NMTAP	14	144	5
NMTAP	14	168	4
NMTAP	14	192	6
NMTAP	14	240	2
NMTAP	14	264	3
NMTAP	14	288	1
NMTAP	14	336	0
NMTAP	15	0	0
NMTAP	15	0	6
NMTAP	15	48	7
NMTAP	15	96	4
NMTAP	15	96	6
NMTAP	15	144	5
NMTAP	15	192	2
NMTAP	15	192	4
NMTAP	15	240	1
NMTAP	15	288	0
NMTAP	15	288	7
NMTAP	15	336	6
NMTAP	15	360	4
NMTAP	16	0	5
NMTAP	16	48	2
NMTAP	16	72	3
NMTAP	16	96	1
NMTAP	16	144	6
NMTAP	16	168	4
NMTAP	16	192	5
NMTAP	16	240	2
NMTAP	16	264	3
NMTAP	16	288	2
NMTAP	16	336	1
NMTAP	16	336	4
NMTAP	17	0	0
NMTAP	17	24	5
NMTAP	17	48	0
NMTAP	17	72	5
NMTAP	17	96	1
NMTAP	17	120	6
NMTAP	17	144	1
NMSTR	17	192	0
NMSI_	17	192	0	96	48	4
NMSTR	17	192	7
NMSI_	17	192	7	96	48	3
NMTAP	17	240	1
NMTAP	17	240	6
BRTAP	17	288	0
BRTAP	17	288	7
EXHLD	18	0	2	72
EXHLD	18	0	5	72
EXTAP	18	144	3
EXSTR	18	144	6
NMSCL	18	144	6	96	48	4
NMTAP	18	240	3
NMTAP	18	288	3
NMHLD	19	0	2	72
NMTAP	19	72	3
NMSTR	19	144	1
NMSCR	19	144	1	96	48	4
NMTAP	19	144	4
NMTAP	19	240	5
NMTAP	19	288	5
NMHLD	20	0	6	72
NMTAP	20	72	4
NMTAP	20	144	3
NMSTR	20	144	5
NMSV_	20	144	5	96	48	3
NMTAP	20	240	2
NMTAP	20	288	2
NMHLD	21	0	1	72
NMTAP	21	72	3
NMTAP	21	144	2
NMSTR	21	144	4
NMSLR	21	144	4	96	72	3
NMTAP	21	240	1
NMTAP	21	288	1
EXHLD	22	0	1	72
EXTAP	22	72	3
EXSTR	22	144	0
NMSCR	22	144	0	96	48	3
EXTAP	22	144	4
NMTAP	22	240	5
NMTAP	22	288	5
NMHLD	23	0	5	72
NMTAP	23	72	4
NMTAP	23	144	3
NMSTR	23	144	6
NMSCL	23	144	6	96	48	3
NMTAP	23	240	2
NMTAP	23	288	2
NMTAP	24	0	0
NMTAP	24	0	1
NMTAP	24	48	2
NMTAP	24	96	3
NMTAP	24	96	5
NMTAP	24	192	6
NMTAP	24	192	7
NMTAP	24	240	5
NMTAP	24	288	2
NMTAP	24	288	4
NMTAP	25	0	3
NMSTR	25	0	5
NMSI_	25	0	5	96	48	3
NMSTR	25	96	1
NMSI_	25	96	1	96	48	4
NMTAP	25	96	5
NMTAP	25	192	1
NMSTR	25	192	6
NMSI_	25	192	6	96	48	3
NMTAP	25	288	2
NMTAP	25	288	6
NMTAP	26	0	0
NMTAP	26	0	4
NMTAP	26	96	1
NMTAP	26	128	1
NMTAP	26	160	1
NMTAP	26	192	2
NMTAP	26	224	2
NMTAP	26	256	2
NMTAP	26	288	3
NMTAP	26	320	3
NMTAP	26	352	3
NMTAP	27	0	3
NMTAP	27	0	4
EXTAP	27	96	5
EXTAP	27	112	4
EXTAP	27	128	5
EXTAP	27	144	4
EXTAP	27	160	5
EXTAP	27	176	4
EXTAP	27	192	5
EXTAP	27	208	4
EXTAP	27	224	5
EXTAP	27	240	4
EXTAP	27	256	5
EXTAP	27	272	4
EXTAP	27	288	5
EXTAP	27	304	4
EXTAP	27	320	5
EXTAP	28	0	3
EXTAP	28	0	6
NMTAP	28	96	2
NMTAP	28	128	4
NMTAP	28	160	3
NMTAP	28	192	5
NMTAP	28	224	3
NMTAP	28	256	4
NMTAP	28	288	2
NMTAP	28	320	5
NMTAP	28	352	3
EXTAP	29	0	6
EXTAP	29	32	5
EXTAP	29	64	4
EXTAP	29	96	1
EXTAP	29	128	2
EXTAP	29	160	3
EXTAP	29	192	7
EXTAP	29	224	6
EXTAP	29	256	5
EXTAP	29	288	0
EXTAP	29	320	1
EXTAP	29	352	2
EXTAP	30	0	3
EXTAP	30	0	4
NMTAP	30	96	6
NMTAP	30	128	6
NMTAP	30	160	6
NMTAP	30	192	5
NMTAP	30	224	5
NMTAP	30	256	5
NMTAP	30	288	4
NMTAP	30	320	4
NMTAP	30	352	4
NMTAP	31	0	3
NMTAP	31	0	4
EXTAP	31	96	2
EXTAP	31	112	3
EXTAP	31	128	2
EXTAP	31	144	3
EXTAP	31	160	2
EXTAP	31	176	3
EXTAP	31	192	2
EXTAP	31	208	3
EXTAP	31	224	2
EXTAP	31	240	3
EXTAP	31	256	2
EXTAP	31	272	3
EXTAP	31	288	2
EXTAP	31	304	3
EXTAP	31	320	2
EXTAP	32	0	1
EXTAP	32	0	4
NMTAP	32	96	5
NMTAP	32	128	4
NMTAP	32	160	5
NMTAP	32	192	3
NMTAP	32	192	6
NMTAP	32	288	2
NMTAP	32	320	3
NMTAP	32	352	2
NMTAP	33	0	1
NMTAP	33	0	4
NMTAP	33	96	0
NMTAP	33	96	7
NMTAP	33	144	1
NMTAP	33	168	1
NMTAP	33	192	6
NMTAP	33	216	6
NMTAP	33	240	0
NMTAP	33	264	0
BXSTR	33	288	0
NMSCR	33	288	0	96	48	2
BXSTR	33	288	7
NMSUR	33	288	7	96	48	3
NMSTR	34	0	0
NMSUL	34	0	0	96	48	4
NMSTR	34	0	7
NMSCL	34	0	7	96	48	5
NMSTR	34	96	0
NMSCR	34	96	0	96	48	2
NMSTR	34	96	7
NMSUR	34	96	7	96	48	3
NMSTR	34	192	0
NMSUL	34	192	0	96	48	4
NMSTR	34	192	7
NMSCL	34	192	7	96	48	5
NMTAP	34	288	0
NMTAP	34	288	7
NMTAP	35	0	2
NMTAP	35	0	6
NMTAP	35	48	1
NMTAP	35	72	0
NMTAP	35	96	2
NMTAP	35	144	6
NMTAP	35	168	4
NMSTR	35	192	5
NMSI_	35	192	5	96	48	0
NMSTR	35	240	1
NMSI_	35	240	1	96	48	5
NMTAP	35	288	5
NMTAP	35	336	1
NMTAP	36	48	4
NMTAP	36	48	7
NMTAP	36	96	6
NMTAP	36	144	3
NMTAP	36	144	5
NMTAP	36	192	2
NMTAP	36	192	4
NMTAP	36	240	1
NMTAP	36	264	0
NMTAP	36	312	6
NMTAP	36	336	7
NMSTR	37	0	0
NMSI_	37	0	0	96	48	2
NMSI_	37	0	0	96	48	6
NMTAP	37	0	5
NMSTR	37	96	0
NMSF_	37	96	0	96	48	4
NMTAP	37	192	0
BRSTR	37	288	1
NMSUL	37	288	1	96	48	5
BRSTR	37	288	7
NMSCL	37	288	7	96	48	5
NMSTR	38	0	1
NMSCR	38	0	1	96	48	3
NMSTR	38	0	7
NMSUR	38	0	7	96	48	3
NMSTR	38	96	1
NMSUL	38	96	1	96	48	5
NMSTR	38	96	7
NMSCL	38	96	7	96	48	5
NMSTR	38	192	1
NMSCR	38	192	1	96	48	3
NMSTR	38	192	7
NMSUR	38	192	7	96	48	3
NMTAP	38	288	1
NMTAP	38	288	7
NMTAP	39	0	1
NMTAP	39	0	5
NMTAP	39	48	6
NMTAP	39	72	0
NMTAP	39	96	7
NMTAP	39	144	1
NMTAP	39	168	3
NMTAP	39	192	2
NMTAP	39	240	5
NMTAP	39	264	4
NMTAP	39	288	6
NMTAP	39	336	3
NMSTR	39	336	7
NMSI_	39	336	7	96	48	3
NMSTR	40	48	1
NMSI_	40	48	1	96	48	5
NMTAP	40	48	7
NMTAP	40	96	2
NMTAP	40	144	0
NMTAP	40	144	1
NMTAP	40	192	7
NMTAP	40	240	6
NMTAP	40	264	4
NMTAP	40	312	1
NMTAP	40	336	3
NMSTR	41	0	0
NMSI_	41	0	0	96	48	4
NMSTR	41	0	7
NMSI_	41	0	7	96	48	3
NMTAP	41	48	1
NMTAP	41	48	6
NMSTR	41	96	0
NMSCR	41	96	0	96	48	3
NMSTR	41	96	7
NMSCL	41	96	7	96	48	4
BRTAP	41	192	0
BRTAP	41	192	7
NMTAP	41	336	2
NMTAP	41	360	3
NMTAP	42	0	2
NMTAP	42	48	5
NMTAP	42	72	4
NMTAP	42	96	5
NMTAP	42	144	2
NMTAP	42	168	3
NMTAP	42	192	1
NMTAP	42	240	5
NMTAP	42	264	4
NMSTR	42	288	6
NMSI_	42	288	6	96	48	3
NMTAP	42	336	6
NMSTR	43	0	2
NMSI_	43	0	2	96	48	0
NMTAP	43	48	2
NMSTR	43	96	5
NMSUL	43	96	5	96	96	3
NMTAP	43	144	5
NMTAP	43	192	1
NMTAP	43	240	1
NMTAP	43	288	0
NMTAP	43	336	1
NMTAP	43	360	3
NMTAP	44	0	2
NMTAP	44	48	5
NMTAP	44	72	4
NMTAP	44	96	5
NMTAP	44	144	2
NMTAP	44	168	3
NMTAP	44	192	1
NMTAP	44	240	6
NMTAP	44	264	4
NMTAP	44	288	5
NMTAP	44	336	3
NMTAP	44	336	4
NMTAP	45	0	2
NMTAP	45	0	3
NMTAP	45	48	1
NMTAP	45	72	3
NMTAP	45	96	2
NMTAP	45	120	4
NMTAP	45	144	3
NMTAP	45	168	5
NMTAP	45	192	4
NMTAP	45	240	4
NMTAP	45	240	5
NMTAP	45	288	3
NMTAP	45	288	6
NMTAP	45	336	5
NMTAP	45	360	4
NMTAP	46	0	5
NMTAP	46	48	2
NMTAP	46	72	3
NMTAP	46	96	2
NMTAP	46	144	5
NMTAP	46	168	4
NMTAP	46	192	6
NMTAP	46	240	2
NMTAP	46	264	3
NMSTR	46	288	1
NMSI_	46	288	1	96	48	4
NMTAP	46	336	1
NMSTR	47	0	5
NMSI_	47	0	5	96	48	7
NMTAP	47	48	5
NMSTR	47	96	2
NMSUR	47	96	2	96	96	4
NMTAP	47	144	2
NMTAP	47	192	6
NMTAP	47	240	6
NMTAP	47	288	7
NMTAP	47	336	6
NMTAP	47	360	4
NMTAP	48	0	5
NMTAP	48	48	1
NMTAP	48	72	3
NMTAP	48	96	2
NMTAP	48	144	5
NMTAP	48	168	4
NMTAP	48	192	6
NMTAP	48	240	0
NMTAP	48	240	7
NMTAP	48	288	0
NMTAP	48	288	7
NMTAP	48	336	1
NMTAP	48	336	6
NMTAP	49	0	2
NMTAP	49	24	4
NMTAP	49	48	2
NMTAP	49	72	4
NMTAP	49	96	3
NMTAP	49	120	5
NMTAP	49	144	3
NMSTR	49	192	4
NMSUL	49	192	4	96	48	0
NMSUR	49	192	4	96	48	0
NMTAP	49	240	3
NMTAP	49	240	5
NMTAP	49	288	4
NMTAP	50	0	2
NMTAP	50	0	6
NMTAP	50	48	5
NMTAP	50	72	5
NMTAP	50	96	3
NMTAP	50	144	5
NMTAP	50	168	5
NMTAP	50	192	4
NMTAP	50	240	5
NMTAP	50	264	5
NMTAP	50	288	3
NMTAP	50	336	5
NMTAP	50	360	5
NMSTR	51	0	2
NMSCR	51	0	2	96	48	5
NMTAP	51	48	2
NMSTR	51	96	6
NMSXL	51	96	6	96	96	3
NMTAP	51	144	6
NMTAP	51	288	2
NMTAP	51	336	1
NMTAP	51	360	1
NMTAP	52	0	3
NMTAP	52	48	1
NMTAP	52	72	1
NMTAP	52	96	5
NMTAP	52	144	1
NMTAP	52	168	1
NMTAP	52	192	4
NMTAP	52	240	1
NMTAP	52	264	1
NMTAP	52	288	6
NMTAP	52	336	0
NMTAP	52	336	5
NMSTR	53	0	1
NMSCR	53	0	1	96	48	4
NMTAP	53	48	1
NMSTR	53	96	5
NMSXL	53	96	5	96	96	4
NMTAP	53	144	5
NMTAP	53	288	3
NMTAP	53	336	2
NMTAP	53	360	2
NMTAP	54	0	3
NMTAP	54	48	2
NMTAP	54	72	2
NMTAP	54	96	1
NMTAP	54	144	2
NMTAP	54	168	2
NMTAP	54	192	7
NMTAP	54	240	2
NMTAP	54	264	2
NMTAP	54	288	5
NMTAP	54	336	2
NMTAP	54	360	2
NMSTR	55	0	3
NMSI_	55	0	3	96	48	7
NMTAP	55	48	3
NMSTR	55	96	1
NMSI_	55	96	1	96	48	4
NMTAP	55	144	1
NMTAP	55	192	5
NMTAP	55	240	5
NMTAP	55	288	3
NMTAP	55	288	6
NMTAP	55	336	5
NMTAP	55	360	5
NMTAP	56	0	4
NMTAP	56	48	5
NMTAP	56	72	5
NMTAP	56	96	7
NMTAP	56	144	5
NMTAP	56	168	5
NMTAP	56	192	1
NMTAP	56	240	5
NMTAP	56	264	5
NMTAP	56	288	3
NMTAP	56	336	5
NMTAP	57	0	4
NMSTR	57	0	6
NMSI_	57	0	6	96	48	2
NMTAP	57	48	6
NMSTR	57	96	0
NMSI_	57	96	0	96	48	3
NMSI_	57	96	0	96	48	5
NMTAP	57	144	0
NMTAP	57	192	0
BRTAP	57	288	2
BRTAP	57	288	6
NMTAP	58	0	1
NMTAP	58	0	5
NMTAP	58	48	0
NMTAP	58	72	0
NMTAP	58	96	3
NMTAP	58	120	2
NMTAP	58	168	2
NMTAP	58	192	3
NMTAP	58	240	0
NMTAP	58	264	0
NMTAP	58	288	3
NMTAP	58	312	2
NMTAP	58	360	2
NMTAP	59	0	3
NMTAP	59	48	0
NMTAP	59	72	0
NMTAP	59	96	3
NMTAP	59	120	2
NMTAP	59	168	2
NMTAP	59	192	4
NMTAP	59	240	3
NMTAP	59	240	5
NMTAP	59	288	4
NMTAP	59	288	6
NMHLD	59	336	7	96
NMTAP	60	48	1
NMTAP	60	72	7
NMTAP	60	96	2
NMTAP	60	120	6
NMTAP	60	144	2
NMTAP	60	168	6
NMTAP	60	192	3
NMTAP	60	216	5
NMTAP	60	240	3
NMTAP	60	264	5
NMTAP	60	288	2
NMTAP	60	312	4
NMTAP	60	336	2
NMTAP	60	360	4
NMTAP	61	0	1
NMTAP	61	24	5
NMTAP	61	48	1
NMTAP	61	72	5
NMTAP	61	96	0
NMTAP	61	120	6
NMTAP	61	144	7
NMTAP	61	192	0
NMTAP	61	192	6
NMTAP	61	240	1
NMTAP	61	240	5
BRTAP	61	288	2
BRTAP	61	288	4
NMTAP	62	0	4
NMTAP	62	0	6
NMTAP	62	48	7
NMTAP	62	72	7
NMTAP	62	96	4
NMTAP	62	120	5
NMTAP	62	168	5
NMTAP	62	192	4
NMTAP	62	240	7
NMTAP	62	264	7
NMTAP	62	288	4
NMTAP	62	312	5
NMTAP	62	360	5
NMTAP	63	0	4
NMTAP	63	48	7
NMTAP	63	72	7
NMTAP	63	96	4
NMTAP	63	120	5
NMTAP	63	168	5
NMTAP	63	192	3
NMTAP	63	240	2
NMTAP	63	240	4
NMTAP	63	288	1
NMTAP	63	288	3
NMHLD	63	336	0	96
NMTAP	64	48	4
NMTAP	64	72	0
NMTAP	64	96	5
NMTAP	64	120	1
NMTAP	64	144	5
NMTAP	64	168	1
NMTAP	64	192	6
NMTAP	64	216	2
NMTAP	64	240	6
NMTAP	64	264	2
NMTAP	64	288	7
NMTAP	64	312	3
NMTAP	64	336	7
NMTAP	64	360	3
EXTAP	65	0	7
EXTAP	65	24	6
EXTAP	65	48	5
EXTAP	65	72	4
EXTAP	65	96	7
EXTAP	65	120	6
EXTAP	65	144	5
EXTAP	65	168	4
EXTAP	65	192	3
EXTAP	65	192	7
EXTAP	65	240	2
EXTAP	65	240	6
EXTAP	65	288	2
EXTAP	65	288	6
NMTAP	66	0	4
NMTAP	66	0	5
NMTAP	66	48	5
NMTAP	66	96	4
NMTAP	66	96	5
NMTAP	66	144	5
NMTAP	66	192	4
NMTAP	66	192	5
NMSTR	66	240	5
NMSI_	66	240	5	96	48	3
NMHLD	66	336	1	48
NMTAP	67	48	1
NMTAP	67	96	1
NMTAP	67	144	2
NMTAP	67	192	3
NMTAP	67	240	4
NMTAP	67	288	3
NMTAP	67	288	5
NMHLD	67	336	6	96
NMTAP	68	48	4
NMHLD	68	96	2	96
NMTAP	68	144	3
NMHLD	68	192	5	96
NMTAP	68	240	4
NMHLD	68	288	1	96
NMTAP	68	336	3
NMTAP	69	0	5
NMTAP	69	48	4
NMTAP	69	48	6
NMTAP	69	96	7
NMTAP	69	144	0
NMTAP	69	144	6
NMTAP	69	192	1
NMTAP	69	192	5
EXTAP	69	240	2
EXTAP	69	240	4
EXTAP	69	288	2
EXTAP	69	288	4
NMTAP	70	0	2
NMTAP	70	0	3
NMTAP	70	48	2
NMTAP	70	96	2
NMTAP	70	96	3
NMTAP	70	144	2
NMTAP	70	192	2
NMTAP	70	192	3
NMSTR	70	240	2
NMSI_	70	240	2	96	48	5
NMHLD	70	336	6	48
NMTAP	71	48	6
NMTAP	71	96	7
NMTAP	71	144	7
NMTAP	71	192	4
NMTAP	71	192	6
NMTAP	71	240	3
NMTAP	71	240	5
NMTAP	71	288	2
NMTAP	71	288	4
NMHLD	71	336	1	72
NMTAP	72	24	3
NMTAP	72	48	2
NMTAP	72	72	3
NMTAP	72	96	2
NMTAP	72	144	1
NMTAP	72	144	4
NMTAP	72	192	5
NMTAP	72	216	4
NMTAP	72	240	5
NMTAP	72	264	4
NMTAP	72	288	5
NMTAP	72	336	3
NMTAP	72	336	6
NMTTP	73	0	4	B	0	M1
NMTTP	73	0	5	E	0	M1
NMTAP	73	0	7
NMTAP	73	96	1
NMTTP	73	96	2	B	0	M1
NMTTP	73	96	3	E	0	M1
NMTAP	73	192	0
NMTAP	73	204	7
NMTAP	73	216	6
NMTAP	73	228	5
NMTAP	73	240	4
NMTAP	73	252	3
NMTAP	73	264	2
NMTAP	73	276	1
NMSTR	73	288	0
NMSUL	73	288	0	96	48	4
NMSTR	73	288	7
NMSCL	73	288	7	96	48	5
BRSTR	74	0	0
NMSCR	74	0	0	96	48	2
BRSTR	74	0	7
NMSUR	74	0	7	96	48	3
NMSTR	74	96	0
NMSUL	74	96	0	96	48	4
NMSTR	74	96	7
NMSCL	74	96	7	96	48	5
NMSTR	74	192	0
NMSCR	74	192	0	96	48	2
NMSTR	74	192	7
NMSUR	74	192	7	96	48	3
NMTAP	74	288	0
NMTAP	74	288	7
NMTAP	75	0	1
NMTAP	75	0	5
NMTAP	75	48	6
NMTAP	75	72	0
NMTAP	75	96	5
NMTAP	75	120	1
NMTAP	75	144	4
NMTAP	75	168	2
NMSTR	75	192	3
NMSI_	75	192	3	96	48	6
NMSTR	75	240	0
NMSI_	75	240	0	96	48	4
NMTAP	75	288	3
NMTAP	75	336	0
NMTAP	76	48	5
NMTAP	76	72	4
NMTAP	76	96	6
NMTAP	76	144	0
NMTAP	76	144	1
NMTAP	76	192	3
NMTAP	76	192	5
EXTAP	76	240	2
EXTAP	76	264	1
EXTAP	76	264	3
EXTAP	76	312	5
EXTAP	76	336	4
EXTAP	76	336	6
NMTAP	77	0	1
NMSTR	77	0	7
NMSCL	77	0	7	96	48	4
NMSCR	77	0	7	96	48	2
NMSTR	77	96	7
NMSF_	77	96	7	96	48	3
NMTAP	77	192	7
BXSTR	77	288	0
NMSCR	77	288	0	96	48	2
BXSTR	77	288	6
NMSUR	77	288	6	96	48	2
NMSTR	78	0	0
NMSUL	78	0	0	96	48	4
NMSTR	78	0	6
NMSCL	78	0	6	96	48	4
NMSTR	78	96	0
NMSCR	78	96	0	96	48	2
NMSTR	78	96	6
NMSUR	78	96	6	96	48	2
NMSTR	78	192	0
NMSUL	78	192	0	96	48	4
NMSTR	78	192	6
NMSCL	78	192	6	96	48	4
NMTAP	78	288	0
NMTAP	78	288	6
NMTAP	79	0	3
NMTAP	79	0	6
NMTAP	79	48	6
NMTAP	79	72	4
NMTAP	79	96	5
NMTAP	79	120	3
NMTAP	79	144	4
NMTAP	79	168	2
NMSTR	79	192	3
NMSI_	79	192	3	96	48	6
NMSTR	79	240	1
NMSI_	79	240	1	96	48	5
NMTAP	79	288	3
NMTAP	79	336	1
NMTAP	80	48	6
NMTAP	80	72	4
NMTAP	80	96	5
NMTAP	80	144	2
NMTAP	80	144	3
NMHLD	80	192	2	48
NMHLD	80	192	3	48
NMHLD	80	264	1	48
NMHLD	80	264	2	48
NMTAP	80	336	0
NMTAP	80	336	1
NMSTR	81	0	1
NMSI_	81	0	1	96	48	5
NMTAP	81	0	7
NMTAP	81	48	0
NMTAP	81	96	1
NMSTR	81	96	7
NMSF_	81	96	7	96	48	3
NMTAP	81	144	0
NMTAP	81	192	7
EXSTR	81	288	0
NMSI_	81	288	0	96	48	2
EXSTR	82	0	0
NMSI_	82	0	0	96	48	6
NMTAP	82	48	5
NMTAP	82	72	5
EXSTR	82	96	0
NMSCR	82	96	0	96	48	2
EXTAP	82	120	4
EXTAP	82	168	4
EXSTR	82	192	0
NMSCL	82	192	0	96	48	6
NMTAP	82	240	3
NMTAP	82	264	3
EXSTR	82	288	0
NMSI_	82	288	0	96	48	2
EXTAP	82	312	4
EXTAP	82	360	4
EXSTR	83	0	0
NMSI_	83	0	0	96	48	6
NMTAP	83	48	5
NMTAP	83	72	5
EXSTR	83	96	0
NMSI_	83	96	0	96	48	4
EXTAP	83	120	4
EXTAP	83	168	4
EXTAP	83	192	0
NMTAP	83	240	5
NMTAP	83	288	3
NMTAP	83	288	6
NMHLD	83	336	7	96
NMTAP	84	48	1
NMTAP	84	72	7
NMTAP	84	96	2
NMTAP	84	120	6
NMTAP	84	144	3
NMTAP	84	168	5
NMTAP	84	192	2
NMTAP	84	216	4
NMTAP	84	240	1
NMTAP	84	264	5
NMTAP	84	288	0
NMTAP	84	312	6
NMTAP	84	336	7
NMTAP	85	0	5
NMTAP	85	48	4
NMTAP	85	48	6
NMTAP	85	96	2
NMTAP	85	144	1
NMTAP	85	144	3
NMTAP	85	192	0
NMTAP	85	240	1
NMTAP	85	240	6
EXSTR	85	288	7
NMSI_	85	288	7	96	48	1
EXSTR	86	0	7
NMSI_	86	0	7	96	48	5
NMTAP	86	48	4
NMTAP	86	72	4
EXSTR	86	96	7
NMSCR	86	96	7	96	48	1
NMTAP	86	120	3
NMTAP	86	168	3
EXSTR	86	192	7
NMSCL	86	192	7	96	48	5
NMTAP	86	240	2
NMTAP	86	264	2
EXSTR	86	288	7
NMSI_	86	288	7	96	48	1
NMTAP	86	312	3
NMTAP	86	360	3
EXSTR	87	0	7
NMSI_	87	0	7	96	48	5
NMTAP	87	48	4
NMTAP	87	72	4
EXSTR	87	96	7
NMSI_	87	96	7	96	48	3
NMTAP	87	120	3
NMTAP	87	168	3
EXTAP	87	192	7
NMTAP	87	240	2
NMTAP	87	288	1
NMTAP	87	288	4
NMHLD	87	336	0	96
NMTAP	88	48	7
NMTAP	88	72	3
NMSTR	88	96	6
NMSCR	88	96	6	96	96	4
NMTAP	88	120	2
NMTAP	88	144	6
NMTAP	88	168	2
EXTAP	88	192	6
EXSTR	88	288	1
NMSI_	88	288	1	96	48	5
NMTAP	89	0	1
EXSTR	89	0	6
NMSI_	89	0	6	96	48	2
NMTAP	89	48	7
NMSTR	89	96	0
BRSI_	89	96	0	96	48	3
BRSI_	89	96	0	96	48	5
NMTAP	89	96	6
NMTAP	89	144	7
NMTAP	89	192	0
NMTAP	89	288	2
NMSTR	89	288	6
NMSI_	89	288	6	96	48	2
EXSTR	90	0	1
NMSI_	90	0	1	96	48	5
NMTAP	90	0	6
NMTAP	90	48	0
NMTAP	90	96	1
NMSTR	90	96	3
BRSI_	90	96	3	96	48	0
BRSI_	90	96	3	96	48	6
NMTAP	90	144	4
NMTAP	90	192	3
BRTAP	90	288	1
BRTAP	90	288	5

T_REC_TAP	704
T_REC_BRK	12
T_REC_XTP	96
T_REC_BXX	0
T_REC_HLD	21
T_REC_XHO	3
T_REC_BHO	2
T_REC_BXH	0
T_REC_STR	77
T_REC_BST	4
T_REC_XST	19
T_REC_XBS	4
T_REC_TTP	4
T_REC_THO	0
T_REC_SLD	106
T_REC_BSL	4
T_REC_ALL	1056
T_NUM_TAP	900
T_NUM_BRK	26
T_NUM_HLD	24
T_NUM_SLD	106
T_NUM_ALL	1056
T_JUDGE_TAP	920
T_JUDGE_HLD	44
T_JUDGE_SLD	110
T_JUDGE_ALL	1074
TTM_EACHPAIRS	162
TTM_SCR_TAP	450000
TTM_SCR_BRK	67600
TTM_SCR_HLD	24000
TTM_SCR_SLD	159000
TTM_SCR_ALL	700600
TTM_SCR_S	677100
TTM_SCR_SS	698000
TTM_RAT_ACV	10037

