VERSION	0.00.00	1.04.00
FES_MODE	0
BPM_DEF	144.000	144.000	144.000	144.000
MET_DEF	4	4
RESOLUTION	384
CLK_DEF	384
COMPATIBLE_CODE	MA2

BPM	0	0	144.000
MET	0	0	4	4

NMHLD	1	192	2	96
NMHLD	1	192	5	96
NMTAP	2	0	2
NMTAP	2	0	4
NMTAP	2	96	2
NMTAP	2	96	4
NMHLD	2	192	2	192
NMTAP	2	192	4
NMTAP	3	0	3
NMTAP	3	96	1
NMTAP	3	96	4
NMTAP	3	192	4
NMTAP	3	192	5
NMTAP	3	288	3
NMTAP	3	288	6
NMSTR	4	0	7
NMSCL	4	0	7	96	96	4
NMSTR	4	192	0
NMSCR	4	192	0	96	96	3
NMTAP	5	0	5
NMTAP	5	96	5
NMTAP	5	192	4
NMTAP	5	192	6
NMTAP	5	288	4
NMTAP	5	288	6
NMTAP	6	0	3
NMTAP	6	0	5
NMTAP	6	96	3
NMTAP	6	96	5
NMTAP	6	192	3
NMHLD	6	192	5	192
NMTAP	7	0	4
NMTAP	7	96	3
NMTAP	7	96	6
NMTAP	7	192	2
NMTAP	7	192	3
NMTAP	7	288	1
NMTAP	7	288	4
NMHLD	8	0	2	96
NMHLD	8	0	3	96
NMHLD	8	192	4	96
NMHLD	8	192	5	96
NMTAP	9	0	3
NMTAP	9	0	4
NMTAP	9	48	3
NMTAP	9	48	4
NMSTR	9	96	3
NMSI_	9	96	3	96	96	0
NMSTR	9	96	4
NMSI_	9	96	4	96	96	7
NMTAP	10	0	6
NMTAP	10	48	6
NMTAP	10	96	7
NMTAP	10	192	1
NMTAP	10	240	1
NMTAP	10	288	0
NMTAP	11	0	2
NMTAP	11	0	3
NMTAP	11	96	3
NMTAP	11	96	4
NMTAP	11	192	4
NMTAP	11	192	5
NMTAP	11	288	6
NMTAP	11	288	7
NMTAP	12	0	1
NMTAP	12	48	1
NMTAP	12	96	0
NMTAP	12	192	6
NMTAP	12	240	6
NMTAP	12	288	7
NMTAP	13	0	4
NMTAP	13	0	5
NMTAP	13	96	3
NMTAP	13	96	4
NMTAP	13	192	2
NMTAP	13	192	3
NMTAP	13	288	1
NMTAP	13	288	4
NMTAP	14	0	2
NMTAP	14	48	2
NMTAP	14	96	3
NMTAP	14	192	5
NMTAP	14	240	5
NMTAP	14	288	4
NMTAP	15	0	6
NMTAP	15	0	7
NMTAP	15	96	0
NMTAP	15	96	7
NMTAP	15	192	0
NMTAP	15	192	1
NMTAP	15	288	2
NMTAP	15	288	3
NMTAP	16	0	5
NMTAP	16	48	5
NMTAP	16	96	4
NMTAP	16	192	2
NMTAP	16	240	2
NMTAP	16	288	3
NMTAP	17	0	0
NMTAP	17	0	1
NMTAP	17	96	6
NMTAP	17	96	7
NMTAP	17	192	4
NMTAP	17	192	5
NMTAP	17	240	4
NMTAP	17	240	5
BRTAP	17	288	3
BRTAP	17	288	6
NMHLD	18	0	2	384
NMTAP	18	0	4
NMTAP	18	96	4
NMTAP	18	192	4
NMTAP	18	288	4
NMTAP	19	0	3
NMTAP	19	96	1
NMTAP	19	96	4
NMTAP	19	192	4
NMTAP	19	192	5
NMTAP	19	288	6
NMHLD	19	336	6	96
NMTAP	20	48	4
NMTAP	20	96	4
NMTAP	20	192	1
NMTAP	20	240	1
NMTAP	20	288	3
NMTAP	21	0	0
NMTAP	21	0	4
NMSTR	21	96	1
NMSI_	21	96	1	96	96	6
NMSTR	21	96	5
NMSI_	21	96	5	96	96	2
NMTAP	22	0	3
NMHLD	22	0	5	384
NMTAP	22	96	3
NMTAP	22	192	3
NMTAP	22	288	3
NMTAP	23	0	4
NMTAP	23	96	3
NMTAP	23	96	6
NMTAP	23	192	2
NMTAP	23	192	3
NMTAP	23	288	1
NMHLD	23	336	1	96
NMTAP	24	48	3
NMTAP	24	96	3
NMTAP	24	192	6
NMTAP	24	240	6
NMTAP	24	288	4
NMTAP	25	0	4
NMTAP	25	0	6
NMTAP	25	96	3
NMTAP	25	96	4
NMTAP	25	192	1
NMTAP	25	192	3
NMTAP	25	288	0
NMTAP	25	288	7
BRTAP	26	0	1
BRTAP	26	0	6
NMTTP	26	96	5	E	0	M1
NMTTP	26	192	6	E	0	M1
NMSTR	26	288	7
NMSUL	26	288	7	96	96	3
NMTTP	27	96	3	E	0	M1
NMTTP	27	192	2	E	0	M1
NMSTR	27	288	0
NMSUR	27	288	0	96	96	4
NMTTP	28	96	5	E	0	M1
NMTTP	28	192	6	E	0	M1
NMSTR	28	288	7
NMSUL	28	288	7	96	96	3
NMSTR	29	96	0
NMSUR	29	96	0	96	96	4
NMHLD	29	288	7	96
EXTAP	30	0	3
NMTTP	30	96	3	E	0	M1
NMTTP	30	192	2	E	0	M1
NMSTR	30	288	0
NMSUR	30	288	0	96	96	4
NMTTP	31	96	5	E	0	M1
NMTTP	31	192	6	E	0	M1
NMSTR	31	288	7
NMSUL	31	288	7	96	96	3
NMSTR	32	96	0
NMSI_	32	96	0	96	96	4
NMHLD	32	288	6	96
NMTAP	33	0	3
NMTAP	33	96	1
NMTAP	33	96	4
NMTAP	33	192	2
NMTAP	33	192	5
BRTAP	33	288	7
NMHLD	34	0	0	48
NMHLD	34	0	6	48
NMHLD	34	96	1	48
NMHLD	34	96	7	48
NMHLD	34	192	0	48
NMHLD	34	192	6	48
NMHLD	34	288	1	48
NMHLD	34	288	7	48
NMTAP	35	0	0
NMTAP	35	48	0
NMTAP	35	96	1
NMTAP	35	96	7
NMTAP	35	192	6
NMTAP	35	192	7
NMTAP	35	240	6
NMTAP	35	240	7
NMTAP	35	288	0
NMTAP	35	288	5
NMHLD	36	0	1	96
NMHLD	36	96	3	96
NMHLD	36	192	4	96
NMTAP	36	288	6
NMTAP	37	0	6
NMTAP	37	0	7
NMTAP	37	96	2
NMTAP	37	96	3
NMTAP	37	192	0
NMTAP	37	192	1
BRTAP	37	288	4
BRTAP	37	288	5
NMHLD	38	0	1	48
NMHLD	38	0	7	48
NMHLD	38	96	0	48
NMHLD	38	96	6	48
NMHLD	38	192	1	48
NMHLD	38	192	7	48
NMHLD	38	288	0	48
NMHLD	38	288	6	48
NMTAP	39	0	7
NMTAP	39	48	7
NMTAP	39	96	0
NMTAP	39	96	6
NMTAP	39	192	3
NMTAP	39	192	5
NMHLD	39	288	1	96
NMTAP	39	288	3
NMTAP	40	0	2
NMSTR	40	96	1
NMSCL	40	96	1	96	96	6
NMSTR	40	96	2
NMSUL	40	96	2	96	96	5
EXTAP	41	0	4
EXTAP	41	0	5
EXTAP	41	48	4
EXTAP	41	48	5
EXSTR	41	96	4
BRSI_	41	96	4	96	48	1
EXSTR	41	96	5
BRSI_	41	96	5	96	48	0
NMTAP	42	0	1
NMTAP	42	48	1
NMTAP	42	96	0
NMTAP	42	192	6
NMTAP	42	240	6
NMTAP	42	288	7
NMTAP	43	0	4
NMTAP	43	0	5
NMTAP	43	96	3
NMTAP	43	96	4
NMTAP	43	192	2
NMTAP	43	192	3
NMTAP	43	288	0
NMTAP	43	288	1
NMTAP	44	0	6
NMTAP	44	48	6
NMTAP	44	96	7
NMTAP	44	192	1
NMTAP	44	240	1
NMTAP	44	288	0
NMTAP	45	0	2
NMTAP	45	0	3
NMTAP	45	96	3
NMTAP	45	96	4
NMTAP	45	192	4
NMTAP	45	192	5
NMTAP	45	288	3
NMTAP	45	288	6
NMTAP	46	0	5
NMTAP	46	48	5
NMTAP	46	96	4
NMTAP	46	192	2
NMTAP	46	240	2
NMTAP	46	288	3
NMTAP	47	0	0
NMTAP	47	0	1
NMTAP	47	96	0
NMTAP	47	96	7
NMTAP	47	192	6
NMTAP	47	192	7
NMTAP	47	288	4
NMTAP	47	288	5
NMTAP	48	0	2
NMTAP	48	48	2
NMTAP	48	96	3
NMTAP	48	192	5
NMTAP	48	240	5
NMTAP	48	288	4
NMTAP	49	0	6
NMTAP	49	0	7
NMTAP	49	96	0
NMTAP	49	96	1
NMTAP	49	192	2
NMTAP	49	192	3
NMTAP	49	240	2
NMTAP	49	240	3
BRTAP	49	288	1
BRTAP	49	288	4
NMHLD	50	0	0	96
NMHLD	50	96	1	96
NMHLD	50	192	2	96
NMTAP	50	288	3
NMTAP	51	0	5
NMTAP	51	48	5
NMTAP	51	96	4
NMTAP	51	192	0
NMTAP	51	192	6
NMTAP	51	240	0
NMTAP	51	240	6
NMTAP	51	288	0
NMTAP	51	288	6
NMHLD	52	0	7	96
NMHLD	52	96	6	96
NMHLD	52	192	5	96
NMTAP	52	288	4
NMTAP	53	0	2
NMTAP	53	48	2
NMTAP	53	96	3
NMTAP	53	192	1
NMTAP	53	192	7
NMTAP	53	240	1
NMTAP	53	240	7
NMTAP	53	288	1
NMTAP	53	288	7
NMHLD	54	0	3	96
NMHLD	54	96	2	96
NMHLD	54	192	1	96
NMTAP	54	288	0
NMTAP	55	0	6
NMTAP	55	48	6
NMTAP	55	96	7
NMTAP	55	192	3
NMTAP	55	192	5
NMTAP	55	240	3
NMTAP	55	240	5
NMTAP	55	288	3
NMTAP	55	288	5
NMHLD	56	0	4	96
NMHLD	56	96	5	96
NMHLD	56	192	6	96
NMTAP	56	288	7
NMTAP	57	0	1
NMTAP	57	48	1
NMTAP	57	96	0
NMTAP	57	192	2
NMTAP	57	192	3
BXTAP	57	288	1
BXTAP	57	288	4
NMTTP	58	0	5	A	0	M1
NMTTP	58	0	5	D	0	M1
NMTTP	58	0	6	A	0	M1
NMTTP	58	0	6	D	0	M1
NMTTP	58	96	1	B	0	M1
NMTTP	58	96	1	E	0	M1
NMTTP	58	96	2	B	0	M1
NMTTP	58	96	3	B	0	M1
NMTTP	58	192	4	B	0	M1
NMTTP	58	192	5	B	0	M1
NMTTP	58	192	6	B	0	M1
NMTTP	58	192	7	E	0	M1
NMTTP	58	288	1	A	0	M1
NMTTP	58	288	2	A	0	M1
NMTTP	58	288	2	D	0	M1
NMTTP	58	288	3	D	0	M1
NMTTP	59	0	5	A	0	M1
NMTTP	59	0	5	D	0	M1
NMTTP	59	0	6	A	0	M1
NMTTP	59	0	6	D	0	M1
NMTTP	59	96	1	B	0	M1
NMTTP	59	96	1	E	0	M1
NMTTP	59	96	2	B	0	M1
NMTTP	59	96	3	B	0	M1
NMTTP	59	192	4	B	0	M1
NMTTP	59	192	5	B	0	M1
NMTTP	59	192	6	B	0	M1
NMTTP	59	192	7	E	0	M1
NMTTP	59	288	1	A	0	M1
NMTTP	59	288	2	A	0	M1
NMTTP	59	288	2	D	0	M1
NMTTP	59	288	3	D	0	M1
EXSTR	60	0	7
NMSUL	60	0	7	96	96	2
NMSTR	60	192	0
NMSUR	60	192	0	96	96	5
NMSTR	61	0	7
NMSUL	61	0	7	96	96	2
NMTAP	61	192	0
NMTAP	61	240	0
NMTAP	61	288	0
NMTAP	61	288	7
NMTTP	62	0	1	A	0	M1
NMTTP	62	0	2	A	0	M1
NMTTP	62	0	2	D	0	M1
NMTTP	62	0	3	D	0	M1
NMTTP	62	96	4	B	0	M1
NMTTP	62	96	5	B	0	M1
NMTTP	62	96	6	B	0	M1
NMTTP	62	96	7	E	0	M1
NMTTP	62	192	1	B	0	M1
NMTTP	62	192	1	E	0	M1
NMTTP	62	192	2	B	0	M1
NMTTP	62	192	3	B	0	M1
NMTTP	62	288	5	A	0	M1
NMTTP	62	288	5	D	0	M1
NMTTP	62	288	6	A	0	M1
NMTTP	62	288	6	D	0	M1
NMTTP	63	0	1	A	0	M1
NMTTP	63	0	2	A	0	M1
NMTTP	63	0	2	D	0	M1
NMTTP	63	0	3	D	0	M1
NMTTP	63	96	4	B	0	M1
NMTTP	63	96	5	B	0	M1
NMTTP	63	96	6	B	0	M1
NMTTP	63	96	7	E	0	M1
NMTTP	63	192	1	B	0	M1
NMTTP	63	192	1	E	0	M1
NMTTP	63	192	2	B	0	M1
NMTTP	63	192	3	B	0	M1
NMTTP	63	288	5	A	0	M1
NMTTP	63	288	5	D	0	M1
NMTTP	63	288	6	A	0	M1
NMTTP	63	288	6	D	0	M1
EXSTR	64	0	0
NMSUR	64	0	0	96	96	5
NMSTR	64	192	7
NMSUL	64	192	7	96	96	2
BXSTR	65	0	0
NMSUR	65	0	0	96	96	5
NMTAP	65	192	7
NMTAP	65	240	7
NMTAP	65	288	0
NMTAP	65	288	7
NMHLD	66	0	1	384
NMTAP	66	96	3
NMTAP	66	288	3
NMHLD	67	0	5	384
NMTAP	67	96	3
NMTAP	67	288	3
NMHLD	68	0	1	384
NMTAP	68	96	3
NMTAP	68	288	3
NMTAP	69	0	5
NMTAP	69	96	2
NMTAP	69	96	6
NMTAP	69	192	1
NMTAP	69	192	5
NMTAP	69	288	2
NMTAP	69	288	6
NMHLD	70	0	7	384
NMTAP	70	96	4
NMTAP	70	192	4
NMTAP	70	288	4
NMHLD	71	0	1	384
NMTAP	71	96	4
NMTAP	71	192	4
NMTAP	71	288	4
NMHLD	72	0	5	192
NMTAP	72	96	4
NMHLD	72	192	3	192
NMTAP	72	288	4
BRTAP	73	0	5
BRSTR	73	96	4
BRSCL	73	96	4	96	96	1
BRSCR	73	96	4	96	96	7
NMHLD	74	0	4	48
NMHLD	74	0	6	48
NMHLD	74	96	1	48
NMHLD	74	96	3	48
NMHLD	74	192	4	48
NMHLD	74	192	6	48
NMHLD	74	288	1	48
NMHLD	74	288	3	48
NMTAP	75	0	6
NMTAP	75	48	6
NMTAP	75	96	4
NMTAP	75	144	4
NMTAP	75	192	7
NMTAP	75	240	7
NMTAP	75	288	0
NMTAP	75	288	6
NMSTR	76	0	6
NMSI_	76	0	6	96	48	3
NMSTR	76	0	7
NMSI_	76	0	7	96	48	2
NMSTR	76	192	0
NMSI_	76	192	0	96	48	5
NMSTR	76	192	1
NMSI_	76	192	1	96	48	4
NMTAP	77	0	6
NMTAP	77	0	7
NMTAP	77	96	4
NMTAP	77	96	5
NMTAP	77	192	2
NMTAP	77	192	3
BRTAP	77	288	0
BRTAP	77	288	1
NMHLD	78	0	1	48
NMHLD	78	0	3	48
NMHLD	78	96	4	48
NMHLD	78	96	6	48
NMHLD	78	192	1	48
NMHLD	78	192	3	48
NMHLD	78	288	4	48
NMHLD	78	288	6	48
NMTAP	79	0	1
NMTAP	79	48	1
NMTAP	79	96	3
NMTAP	79	144	3
NMTAP	79	192	0
NMTAP	79	240	0
NMTAP	79	288	1
NMTAP	79	288	7
NMSTR	80	0	0
NMSI_	80	0	0	96	48	5
NMSTR	80	0	1
NMSI_	80	0	1	96	48	4
NMSTR	80	192	6
NMSI_	80	192	6	96	48	3
NMSTR	80	192	7
NMSI_	80	192	7	96	48	2
NMTAP	81	0	0
NMTAP	81	0	1
NMSTR	81	96	2
BRSI_	81	96	2	96	48	7
NMSTR	81	96	3
BRSI_	81	96	3	96	48	6
NMHLD	82	0	0	48
NMHLD	82	0	6	48
NMHLD	82	96	1	48
NMHLD	82	96	7	48
NMHLD	82	192	0	48
NMHLD	82	192	5	48
NMHLD	82	288	2	48
NMHLD	82	288	7	48
NMHLD	83	0	0	48
NMHLD	83	0	6	48
NMHLD	83	96	1	48
NMHLD	83	96	7	48
NMHLD	83	192	0	48
NMHLD	83	192	5	48
NMHLD	83	288	2	48
NMHLD	83	288	7	48
NMTAP	84	0	0
NMTAP	84	0	1
NMTAP	84	48	0
NMTAP	84	48	1
NMTAP	84	96	2
NMTAP	84	96	7
NMSTR	84	192	6
NMSI_	84	192	6	96	48	3
NMSTR	84	192	7
NMSI_	84	192	7	96	48	3
NMSTR	85	0	0
NMSI_	85	0	0	96	48	4
NMSTR	85	0	1
NMSI_	85	0	1	96	48	4
NMTAP	85	192	6
NMTAP	85	192	7
NMTAP	85	240	6
NMTAP	85	240	7
BRTAP	85	288	0
BRTAP	85	288	5
NMHLD	86	0	1	48
NMHLD	86	0	7	48
NMHLD	86	96	0	48
NMHLD	86	96	6	48
NMHLD	86	192	2	48
NMHLD	86	192	7	48
NMHLD	86	288	0	48
NMHLD	86	288	5	48
NMHLD	87	0	1	48
NMHLD	87	0	7	48
NMHLD	87	96	0	48
NMHLD	87	96	6	48
NMHLD	87	192	2	48
NMHLD	87	192	7	48
NMHLD	87	288	0	48
NMHLD	87	288	5	48
NMTAP	88	0	6
NMTAP	88	0	7
NMTAP	88	48	6
NMTAP	88	48	7
NMTAP	88	96	0
NMSTR	88	96	5
NMSXL	88	96	5	96	192	3
NMTAP	89	0	0
NMTAP	89	48	0
NMTAP	89	96	0
BRTAP	89	192	1
BRTAP	89	192	7
BRTAP	89	288	3
BRTAP	89	288	5
NMTAP	90	0	2
NMTAP	90	0	4
NMTAP	90	48	2
NMTAP	90	48	4
NMTAP	90	96	2
NMTAP	90	96	4
BRSTR	90	192	0
BRSV_	90	192	0	96	96	3
BRSV_	90	192	0	96	96	5
BRTAP	90	192	6

T_REC_TAP	329
T_REC_BRK	19
T_REC_XTP	5
T_REC_BXX	2
T_REC_HLD	101
T_REC_XHO	0
T_REC_BHO	0
T_REC_BXH	0
T_REC_STR	33
T_REC_BST	2
T_REC_XST	4
T_REC_XBS	1
T_REC_TTP	74
T_REC_THO	0
T_REC_SLD	34
T_REC_BSL	8
T_REC_ALL	612
T_NUM_TAP	445
T_NUM_BRK	32
T_NUM_HLD	101
T_NUM_SLD	34
T_NUM_ALL	612
T_JUDGE_TAP	469
T_JUDGE_HLD	188
T_JUDGE_SLD	42
T_JUDGE_ALL	699
TTM_EACHPAIRS	161
TTM_SCR_TAP	222500
TTM_SCR_BRK	83200
TTM_SCR_HLD	101000
TTM_SCR_SLD	51000
TTM_SCR_ALL	457700
TTM_SCR_S	440900
TTM_SCR_SS	454500
TTM_RAT_ACV	10070

