VERSION	0.00.00	1.04.00
FES_MODE	0
BPM_DEF	115.000	115.000	115.000	115.000
MET_DEF	4	4
RESOLUTION	384
CLK_DEF	384
COMPATIBLE_CODE	MA2

BPM	0	0	115.000
MET	0	0	4	4
MET	33	0	4	2
MET	33	192	4	4

NMTAP	1	0	3
NMHLD	1	0	5	192
NMTAP	1	96	4
NMTAP	1	144	3
NMHLD	1	192	2	96
NMTAP	1	288	4
NMTAP	1	320	4
NMTAP	1	336	3
NMTAP	1	368	3
NMHLD	2	0	5	192
NMTAP	2	96	3
NMTAP	2	144	2
NMHLD	2	192	1	96
NMTAP	2	288	3
NMTAP	2	336	4
BRHLD	3	0	2	96
NMTAP	3	0	5
NMTAP	3	96	3
NMTAP	3	144	4
NMTAP	3	192	5
NMTAP	3	224	5
NMTAP	3	240	4
NMTAP	3	288	3
NMHLD	3	288	5	96
NMSTR	4	0	2
NMSI_	4	0	2	96	48	5
NMTAP	4	48	2
NMTAP	4	96	5
CNSCL	4	144	5	0	48	3
NMSTR	5	0	5
NMSI_	5	0	5	96	48	3
NMTAP	5	48	3
NMTAP	5	96	2
NMTAP	5	144	1
NMHLD	5	192	1	80
NMTAP	5	272	3
NMTAP	5	288	2
NMTAP	5	336	2
NMSTR	6	0	2
NMSI_	6	0	2	96	48	4
NMTAP	6	48	4
NMTAP	6	96	5
NMTAP	6	144	6
NMHLD	6	192	6	80
NMTAP	6	272	4
NMTAP	6	288	5
NMTAP	6	336	5
NMSTR	7	0	4
NMSI_	7	0	4	96	48	0
NMTAP	7	0	5
NMTAP	7	48	6
NMTAP	7	96	7
CNSI_	7	144	0	0	48	2
NMTAP	7	144	6
NMSTR	7	192	5
NMSLR	7	192	5	96	96	3
NMTAP	7	272	3
NMTAP	7	288	3
NMTAP	8	0	2
NMTAP	8	48	1
NMTAP	8	96	0
NMTAP	8	96	7
NMTAP	8	144	6
NMHLD	8	192	3	48
NMHLD	8	192	5	48
NMHLD	8	288	2	48
NMHLD	8	288	4	48
NMSTR	9	0	5
NMSI_	9	0	5	96	48	2
NMTAP	9	48	3
NMTAP	9	96	2
NMTAP	9	144	1
NMHLD	9	192	1	80
NMTAP	9	272	3
NMTAP	9	288	1
NMTAP	9	336	2
NMTAP	9	336	4
NMSTR	10	0	2
NMSI_	10	0	2	96	48	7
NMTAP	10	48	4
NMTAP	10	96	5
NMTAP	10	144	6
NMHLD	10	192	6	80
NMTAP	10	272	0
NMTAP	10	288	6
NMTAP	10	336	1
NMTAP	10	336	5
NMSTR	11	0	2
NMSI_	11	0	2	96	48	7
NMTAP	11	48	6
NMTAP	11	96	5
NMTAP	11	144	4
NMHLD	11	192	4	80
NMTAP	11	272	0
NMSTR	11	288	5
BRSI_	11	288	5	96	48	7
NMSTR	12	0	3
NMSI_	12	0	3	96	48	5
NMTAP	12	48	2
NMSTR	12	96	1
NMSI_	12	96	1	96	48	3
NMTAP	12	144	0
NMSTR	12	192	7
NMSCL	12	192	7	96	48	4
NMTAP	12	240	6
NMTAP	12	288	2
BRHLD	13	0	2	96
BRTAP	13	0	3
NMHLD	13	96	6	80
NMTAP	13	176	4
NMTAP	13	192	5
NMTAP	13	240	3
NMTAP	13	288	4
NMTAP	13	288	5
NMTAP	13	336	6
NMTAP	14	0	3
NMHLD	14	0	5	96
NMHLD	14	96	1	80
NMTAP	14	176	3
NMTAP	14	192	2
NMTAP	14	240	4
NMTAP	14	288	2
NMTAP	14	288	3
NMTAP	14	336	1
NMHLD	15	0	2	96
NMTAP	15	0	4
NMHLD	15	96	6	80
NMTAP	15	176	4
NMTAP	15	192	5
NMTAP	15	240	3
NMTAP	15	240	5
NMTAP	15	288	2
NMHLD	15	288	4	96
NMTAP	16	0	2
NMTAP	16	32	3
NMTAP	16	64	1
NMTAP	16	96	4
NMHLD	16	128	4	48
NMTAP	16	176	0
NMTAP	16	192	0
NMTAP	16	240	1
NMTAP	16	240	7
NMTAP	16	288	2
NMTAP	16	288	6
NMTAP	17	0	3
NMSTR	17	0	4
NMSI_	17	0	4	96	48	2
NMHLD	17	96	1	80
NMTAP	17	192	1
NMTAP	17	240	1
NMTAP	17	288	1
NMTAP	17	288	3
NMTAP	17	336	2
NMTAP	17	336	4
NMSTR	18	0	3
NMSI_	18	0	3	96	48	5
NMTAP	18	0	5
NMHLD	18	96	6	80
NMTAP	18	192	6
NMTAP	18	240	6
NMTAP	18	288	4
NMTAP	18	288	6
NMTAP	18	336	3
NMTAP	18	336	5
NMSTR	19	0	2
NMSI_	19	0	2	96	48	0
NMTAP	19	48	2
NMTAP	19	96	6
NMTAP	19	176	7
NMTAP	19	192	0
NMTAP	19	192	7
NMTAP	19	240	1
NMTAP	19	240	6
NMSTR	19	288	2
BRSCL	19	288	2	96	144	4
NMSTR	19	288	5
BRSCR	19	288	5	96	144	3
NMTTP	20	0	2	A	1	M1
NMTTP	20	0	5	A	0	M1
NMTAP	20	240	0
NMTAP	20	240	7
NMSTR	20	288	6
NMSI_	20	288	6	96	48	2
NMSTR	20	288	7
NMSI_	20	288	7	96	48	1
NMTAP	20	336	0
NMTAP	20	336	5
BRSTR	21	0	6
NMSI_	21	0	6	96	48	4
BRSTR	21	0	7
NMSI_	21	0	7	96	48	3
NMTAP	21	96	6
NMTAP	21	96	7
EXTAP	21	192	3
EXTAP	21	192	4
NMTAP	21	224	2
NMTAP	21	240	3
NMSTR	21	288	0
NMSI_	21	288	0	96	48	6
NMSTR	21	288	1
NMSI_	21	288	1	96	48	5
NMTAP	21	336	2
NMTAP	21	336	7
BRSTR	22	0	0
NMSI_	22	0	0	96	48	4
BRSTR	22	0	1
NMSI_	22	0	1	96	48	3
NMTAP	22	96	0
NMTAP	22	96	1
EXTAP	22	192	3
EXTAP	22	192	4
NMTAP	22	224	5
NMTAP	22	240	4
NMHLD	22	288	3	96
NMTAP	22	288	7
NMSTR	23	0	6
NMSCL	23	0	6	96	48	3
NMTAP	23	48	5
NMSTR	23	96	1
NMSI_	23	96	1	96	48	5
NMTAP	23	96	6
NMTAP	23	144	2
NMTAP	23	192	1
NMSTR	23	192	7
NMSI_	23	192	7	96	48	3
NMTAP	23	240	6
NMSTR	23	288	0
NMSI_	23	288	0	96	48	4
NMTAP	23	288	7
NMTAP	23	336	1
NMTAP	24	0	0
NMTAP	24	0	4
NMTAP	24	48	6
NMHLD	24	80	6	48
NMTAP	24	128	4
NMTAP	24	144	5
NMTAP	24	192	3
NMTAP	24	192	4
NMTAP	24	240	2
NMTAP	24	240	3
NMSTR	24	288	0
NMSI_	24	288	0	96	48	6
NMSTR	24	288	1
NMSI_	24	288	1	96	48	5
NMTAP	24	336	2
NMTAP	24	336	7
BRSTR	25	0	0
NMSI_	25	0	0	96	48	4
BRSTR	25	0	1
NMSI_	25	0	1	96	48	3
NMTAP	25	96	0
NMTAP	25	96	1
NMTAP	25	192	3
NMTAP	25	192	4
NMTAP	25	224	5
NMTAP	25	240	4
NMSTR	25	288	6
NMSI_	25	288	6	96	48	2
NMSTR	25	288	7
NMSI_	25	288	7	96	48	1
NMTAP	25	336	0
NMTAP	25	336	5
BRSTR	26	0	6
NMSI_	26	0	6	96	48	4
BRSTR	26	0	7
NMSI_	26	0	7	96	48	3
NMTAP	26	96	6
NMTAP	26	96	7
EXTAP	26	192	1
EXTAP	26	192	3
NMTAP	26	224	1
NMTAP	26	240	3
NMTAP	26	288	0
NMHLD	26	288	4	96
NMSTR	27	0	2
NMSCL	27	0	2	96	48	7
NMTAP	27	48	1
NMTAP	27	96	2
NMSTR	27	96	5
NMSI_	27	96	5	96	48	0
NMTAP	27	144	6
NMSTR	27	192	2
NMSI_	27	192	2	96	48	6
NMTAP	27	192	5
NMTAP	27	240	1
NMTAP	27	288	2
NMTAP	27	288	5
NMTAP	27	336	4
NMTAP	28	0	5
NMTAP	28	0	7
NMTAP	28	48	1
NMHLD	28	80	1	48
NMTAP	28	128	3
NMSTR	28	144	2
NMSI_	28	144	2	96	48	4
NMTAP	28	192	5
NMTAP	28	240	6
CNSI_	28	288	4	0	48	1
NMSTR	28	288	7
NMSCL	28	288	7	96	192	0
CNSI_	28	336	1	0	48	5
NMTAP	28	336	7
NMTTP	29	192	0	C	0	M1
NMSTR	30	0	5
NMSI_	30	0	5	96	48	3
NMTAP	30	96	0
NMTAP	30	144	1
NMSTR	30	192	2
NMSI_	30	192	2	96	48	0
NMSTR	30	192	3
NMSI_	30	192	3	96	48	5
NMSTR	31	0	0
NMSI_	31	0	0	96	48	2
NMTAP	31	0	5
NMTAP	31	96	3
NMTAP	31	144	4
NMSTR	31	192	2
NMSI_	31	192	2	96	48	4
NMSTR	31	192	5
NMSI_	31	192	5	96	48	7
BRTAP	32	0	4
BRSTR	32	0	7
NMSI_	32	0	7	96	48	3
NMTAP	32	96	3
NMTAP	32	144	2
NMSTR	32	192	1
NMSI_	32	192	1	96	48	7
NMTAP	32	192	4
NMTAP	32	288	3
NMTAP	32	336	4
NMHLD	33	0	5	96
NMTTP	33	96	0	C	0	M1
NMTAP	33	192	2
NMTAP	33	240	3
NMSTR	33	288	4
NMSCL	33	288	4	96	48	1
NMTAP	33	336	5
NMTAP	34	0	5
NMTAP	34	80	7
NMSTR	34	96	0
NMSF_	34	96	0	96	48	4
BRTAP	34	288	2
BRTAP	34	288	6
NMHLD	35	0	1	80
NMTAP	35	0	5
NMTAP	35	80	3
NMTAP	35	96	2
NMSTR	35	192	4
NMSI_	35	192	4	96	48	7
NMTAP	35	192	5
NMTAP	35	240	4
NMSTR	35	240	5
NMSCL	35	240	5	96	48	2
NMHLD	36	0	0	96
NMTAP	36	96	2
NMTAP	36	144	1
NMTAP	36	144	3
NMTAP	36	192	2
NMTAP	36	192	4
NMTAP	36	240	5
NMTAP	36	288	3
NMTAP	36	288	4
NMTAP	36	336	2
NMTAP	37	0	4
NMTAP	37	0	5
NMTAP	37	48	7
NMTAP	37	96	3
NMHLD	37	96	6	96
NMSTR	37	192	4
NMSCL	37	192	4	96	48	2
NMTAP	37	240	4
NMSTR	37	288	5
NMSXL	37	288	5	96	96	4
NMTAP	37	336	5
EXTAP	38	0	2
NMTAP	38	80	1
NMHLD	38	96	1	96
NMSTR	38	192	3
NMSCR	38	192	3	96	48	5
NMTAP	38	240	3
NMSTR	38	288	2
NMSCL	38	288	2	96	48	0
NMTAP	38	336	2
EXHLD	39	0	5	96
CNSI_	39	48	0	0	48	4
NMHLD	39	192	3	48
NMTAP	39	192	5
NMHLD	39	288	4	48
NMTAP	39	288	7
NMTAP	39	336	6
NMHLD	40	0	2	48
NMTAP	40	0	5
NMHLD	40	96	3	48
NMTAP	40	96	6
NMTAP	40	144	5
NMHLD	40	192	1	48
NMTAP	40	192	4
NMHLD	40	288	2	48
NMTAP	40	288	3
NMTAP	40	336	4
NMHLD	41	0	0	48
NMTAP	41	0	5
NMSTR	41	96	1
NMSCR	41	96	1	96	48	4
NMTAP	41	96	7
NMTAP	41	144	0
BRTAP	41	192	4
NMHLD	41	288	3	80
NMTAP	41	288	7
NMHLD	41	368	6	48
NMTAP	42	32	4
NMTAP	42	48	5
NMTAP	42	80	5
NMSTR	42	96	3
NMSI_	42	96	3	96	48	7
NMTAP	42	144	2
NMTAP	42	192	4
NMTAP	42	288	0
NMHLD	42	288	5	80
NMHLD	42	368	1	48
NMTAP	43	32	3
NMTAP	43	48	2
NMTAP	43	80	2
NMTAP	43	96	4
NMTAP	43	128	4
NMTAP	43	144	3
NMSTR	43	192	2
NMSCL	43	192	2	96	48	7
NMTAP	43	192	4
NMTAP	43	240	1
NMTAP	43	288	3
NMSTR	43	368	5
NMSLR	43	368	5	96	80	4
NMTAP	44	48	4
NMTAP	44	96	4
NMTAP	44	192	1
NMTAP	44	224	3
NMTAP	44	256	2
NMTAP	44	288	5
NMHLD	44	320	5	48
NMTAP	44	368	3
NMTAP	45	0	4
NMTTP	45	48	3	B	0	M1
NMTTP	45	48	5	B	0	M1
NMTTP	45	96	2	B	0	M1
NMTTP	45	96	4	B	0	M1
NMSTR	45	192	1
NMSCL	45	192	1	96	48	6
NMTAP	45	240	1
NMTAP	45	288	3
NMHLD	45	368	5	48
NMTAP	46	32	4
NMTAP	46	48	5
NMTAP	46	80	5
NMTAP	46	96	4
NMTAP	46	144	3
NMTAP	46	144	4
NMSTR	46	192	2
NMSCL	46	192	2	96	48	7
NMTAP	46	240	2
NMTAP	46	288	4
NMHLD	46	368	6	48
NMTAP	47	32	4
NMTAP	47	48	5
NMTAP	47	80	5
NMTAP	47	96	4
NMTAP	47	144	3
NMTAP	47	144	4
NMSTR	47	192	1
NMSCR	47	192	1	96	48	4
NMTAP	47	192	3
NMTAP	47	240	0
NMTAP	47	288	5
NMHLD	47	368	7	48
NMTAP	48	32	0
NMTAP	48	48	7
NMSTR	48	96	1
BRSCL	48	96	1	96	144	4
NMSTR	48	96	6
BRSCR	48	96	6	96	144	3
NMTAP	48	144	2
NMTAP	48	144	5
NMTTP	48	192	1	A	1	M1
NMTTP	48	192	2	D	0	M1
NMTTP	48	192	6	A	0	M1
NMTTP	48	192	6	D	0	M1
NMTAP	49	48	3
NMTAP	49	48	4
NMSTR	49	96	2
NMSI_	49	96	2	96	48	6
NMSTR	49	96	3
NMSI_	49	96	3	96	48	5
NMTAP	49	144	1
NMTAP	49	144	4
BRSTR	49	192	2
NMSI_	49	192	2	96	48	0
BRSTR	49	192	3
NMSI_	49	192	3	96	48	7
NMTAP	49	288	2
NMTAP	49	288	3
EXTAP	50	0	0
EXTAP	50	0	7
NMTAP	50	32	6
NMTAP	50	48	7
NMSTR	50	96	4
NMSI_	50	96	4	96	48	2
NMSTR	50	96	5
NMSI_	50	96	5	96	48	1
NMTAP	50	144	3
NMTAP	50	144	6
BRSTR	50	192	4
NMSI_	50	192	4	96	48	0
BRSTR	50	192	5
NMSI_	50	192	5	96	48	7
NMTAP	50	288	4
NMTAP	50	288	5
EXTAP	51	0	0
EXTAP	51	0	7
NMTAP	51	32	1
NMTAP	51	48	0
NMTAP	51	96	2
NMSTR	51	96	3
BRSI_	51	96	3	96	48	7
NMSTR	51	192	1
NMSCR	51	192	1	96	48	4
NMTAP	51	192	3
NMTAP	51	240	0
NMTAP	51	288	1
NMSTR	51	288	6
NMSCR	51	288	6	96	48	1
NMTAP	51	336	5
NMSTR	52	0	3
NMSI_	52	0	3	96	48	1
NMTAP	52	0	6
NMTAP	52	48	2
NMTAP	52	96	3
NMSTR	52	96	7
NMSI_	52	96	7	96	48	3
NMTAP	52	144	6
NMTAP	52	192	0
NMTAP	52	192	7
NMTAP	52	240	1
NMHLD	52	272	1	48
NMTAP	52	320	3
NMTAP	52	336	2
NMTAP	53	0	1
NMTAP	53	0	3
NMTAP	53	48	3
NMTAP	53	48	4
NMSTR	53	96	4
NMSI_	53	96	4	96	48	2
NMSTR	53	96	5
NMSI_	53	96	5	96	48	1
NMTAP	53	144	3
NMTAP	53	144	6
BRSTR	53	192	4
NMSI_	53	192	4	96	48	0
BRSTR	53	192	5
NMSI_	53	192	5	96	48	7
NMTAP	53	288	4
NMTAP	53	288	5
EXTAP	54	0	0
EXTAP	54	0	7
NMTAP	54	32	1
NMTAP	54	48	0
NMSTR	54	96	2
NMSI_	54	96	2	96	48	6
NMSTR	54	96	3
NMSI_	54	96	3	96	48	5
NMTAP	54	144	1
NMTAP	54	144	4
BRSTR	54	192	2
NMSI_	54	192	2	96	48	0
BRSTR	54	192	3
NMSI_	54	192	3	96	48	7
NMTAP	54	288	2
NMTAP	54	288	3
EXTAP	55	0	0
EXTAP	55	0	7
NMTAP	55	32	6
NMTAP	55	48	7
NMTAP	55	96	1
NMSTR	55	96	5
NMSCR	55	96	5	96	48	0
NMSTR	55	192	2
NMSI_	55	192	2	96	48	6
NMTAP	55	192	5
NMTAP	55	240	3
NMTAP	55	288	2
NMSTR	55	288	5
NMSI_	55	288	5	96	48	1
NMTAP	55	336	4
NMSTR	56	0	3
NMSI_	56	0	3	96	48	7
NMTAP	56	0	5
NMTAP	56	48	2
NMTAP	56	96	3
NMTAP	56	96	6
NMTAP	56	144	4
NMTAP	56	192	0
NMTAP	56	192	5
NMTAP	56	240	2
NMHLD	56	272	2	48
NMTAP	56	320	4
NMSTR	56	336	3
NMSI_	56	336	3	96	48	7
NMSI_	56	336	3	96	48	7
NMTAP	57	0	1
NMTAP	57	0	5
CNSCL	57	96	7	0	48	5
CNSCR	57	96	7	0	48	1
BRTAP	57	192	2
BRTAP	57	192	4
NMTAP	57	240	6
NMTAP	57	272	6
NMTAP	57	288	0
NMTAP	57	320	0
NMTAP	57	336	2
NMTAP	57	368	2
NMSTR	58	0	0
NMSI_	58	0	0	96	48	4
NMTAP	58	32	0
NMSTR	58	48	6
NMSCR	58	48	6	96	48	1
EXTAP	58	96	0
EXTAP	58	144	6
EXTAP	58	192	3
NMTAP	58	240	2
NMTAP	58	272	2
NMTAP	58	288	4
NMTAP	58	320	4
NMTAP	58	336	6
NMTAP	58	368	6
NMTAP	59	0	4
NMTAP	59	32	4
NMTAP	59	48	2
NMHLD	59	96	1	48
NMHLD	59	96	5	48
NMTAP	59	192	2
NMTAP	59	192	4
NMTAP	59	240	1
NMTAP	59	272	1
NMTAP	59	288	7
NMTAP	59	320	7
NMTAP	59	336	5
NMTAP	59	368	5
NMSTR	60	0	7
NMSI_	60	0	7	96	48	3
NMTAP	60	32	7
NMSTR	60	48	1
NMSCL	60	48	1	96	48	6
EXTAP	60	96	7
EXTAP	60	144	1
NMTAP	60	192	4
NMHLD	60	240	3	32
NMHLD	60	240	5	32
NMHLD	60	288	2	32
NMHLD	60	288	3	32
NMTAP	60	336	0
NMTAP	60	336	1
NMSTR	61	0	7
NMSI_	61	0	7	96	48	2
NMTAP	61	16	6
NMTAP	61	32	5
NMSTR	61	48	4
NMSI_	61	48	4	96	48	0
NMTAP	61	96	7
NMTAP	61	144	4
BRTAP	61	192	1
NMTAP	61	240	2
NMTAP	61	272	2
NMTAP	61	288	7
NMTAP	61	320	1
NMTAP	61	336	0
NMTAP	61	368	2
NMSTR	62	0	7
NMSI_	62	0	7	96	48	3
NMTAP	62	32	1
NMSTR	62	48	0
NMSI_	62	48	0	96	48	5
NMTAP	62	96	7
NMTAP	62	144	0
BRTAP	62	192	4
NMTAP	62	240	1
NMTAP	62	272	1
NMTAP	62	288	4
NMTAP	62	320	2
NMTAP	62	336	3
NMTAP	62	368	1
NMSTR	63	0	5
NMSI_	63	0	5	96	48	0
NMTAP	63	32	2
NMSTR	63	48	3
NMSI_	63	48	3	96	48	7
NMTAP	63	96	5
NMTAP	63	144	3
BRTAP	63	192	4
NMTAP	63	288	4
NMTAP	63	288	5
NMTAP	63	336	3
NMTAP	63	336	4
NMTAP	64	0	2
NMSTR	64	0	3
NMSI_	64	0	3	96	48	7
NMSTR	64	96	1
NMSF_	64	96	1	96	48	5
NMTAP	64	144	2
CNSI_	64	144	7	0	48	1

T_REC_TAP	389
T_REC_BRK	10
T_REC_XTP	20
T_REC_BXX	0
T_REC_HLD	55
T_REC_XHO	1
T_REC_BHO	2
T_REC_BXH	0
T_REC_STR	88
T_REC_BST	17
T_REC_XST	0
T_REC_XBS	0
T_REC_TTP	12
T_REC_THO	0
T_REC_SLD	100
T_REC_BSL	6
T_REC_ALL	700
T_NUM_TAP	509
T_NUM_BRK	35
T_NUM_HLD	56
T_NUM_SLD	100
T_NUM_ALL	700
T_JUDGE_TAP	536
T_JUDGE_HLD	184
T_JUDGE_SLD	106
T_JUDGE_ALL	826
TTM_EACHPAIRS	135
TTM_SCR_TAP	254500
TTM_SCR_BRK	91000
TTM_SCR_HLD	56000
TTM_SCR_SLD	150000
TTM_SCR_ALL	551500
TTM_SCR_S	531600
TTM_SCR_SS	548000
TTM_RAT_ACV	10063

