VERSION	0.00.00	1.04.00
FES_MODE	0
BPM_DEF	115.000	115.000	115.000	115.000
MET_DEF	4	4
RESOLUTION	384
CLK_DEF	384
COMPATIBLE_CODE	MA2

BPM	0	0	115.000
MET	0	0	4	4
MET	33	0	4	2
MET	33	192	4	4

NMHLD	1	0	5	192
NMTAP	1	96	4
NMTAP	1	144	3
NMHLD	1	192	2	192
NMTAP	1	288	3
NMTAP	1	336	4
NMHLD	2	0	5	192
NMTAP	2	96	4
NMTAP	2	144	3
NMHLD	2	192	2	96
NMTAP	2	288	3
EXHLD	3	0	1	192
EXTAP	3	0	4
NMTAP	3	96	0
NMTAP	3	144	7
NMHLD	3	192	6	192
NMTAP	3	288	7
NMTAP	3	336	0
EXSTR	4	0	0
NMSCR	4	0	0	96	96	4
NMTAP	5	0	6
NMTAP	5	48	5
NMTAP	5	96	4
NMTAP	5	144	3
NMTAP	5	192	2
NMTAP	5	240	4
NMTAP	5	272	4
NMTAP	5	288	3
NMTAP	6	0	1
NMTAP	6	48	2
NMTAP	6	96	3
NMTAP	6	144	4
NMTAP	6	192	5
NMTAP	6	240	3
NMTAP	6	272	3
NMTAP	6	288	4
NMTAP	7	0	6
NMTAP	7	48	5
NMTAP	7	96	4
NMTAP	7	144	3
NMTAP	7	192	2
NMTAP	7	240	4
NMTAP	7	272	4
NMTAP	7	288	3
NMTAP	8	0	1
NMHLD	8	48	1	48
NMTAP	8	96	3
NMHLD	8	144	3	48
NMTAP	8	192	4
NMHLD	8	240	4	48
NMTAP	8	288	6
NMTAP	9	0	5
NMTAP	9	48	6
NMTAP	9	96	7
NMTAP	9	144	0
NMTAP	9	192	1
NMTAP	9	240	7
NMTAP	9	272	7
NMTAP	9	288	0
NMTAP	10	0	2
NMTAP	10	48	1
NMTAP	10	96	0
NMTAP	10	144	7
NMTAP	10	192	6
NMTAP	10	240	0
NMTAP	10	272	0
NMTAP	10	288	7
NMTAP	11	0	5
NMTAP	11	48	6
NMTAP	11	96	7
NMTAP	11	144	0
NMTAP	11	192	1
NMTAP	11	240	7
NMTAP	11	272	7
NMTAP	11	288	0
NMTAP	12	0	2
NMHLD	12	48	2	48
NMTAP	12	96	0
NMHLD	12	144	0	48
NMTAP	12	192	7
NMHLD	12	240	7	48
NMTAP	12	288	5
NMSTR	13	0	1
NMSCL	13	0	1	96	48	6
NMTAP	13	96	4
NMTAP	13	144	4
NMSTR	13	192	5
NMSCL	13	192	5	96	48	2
NMTAP	13	288	0
NMTAP	13	336	0
NMSTR	14	0	1
NMSCL	14	0	1	96	48	6
NMTAP	14	96	4
NMTAP	14	144	4
NMSTR	14	192	5
NMSCL	14	192	5	96	48	2
NMTAP	14	288	1
NMTAP	14	336	1
NMSTR	15	0	0
NMSI_	15	0	0	96	48	4
NMTAP	15	96	6
NMTAP	15	144	6
NMTAP	15	192	2
NMTAP	15	192	5
NMTAP	15	240	2
NMTAP	15	240	5
NMTAP	15	288	3
NMTAP	15	288	4
NMTAP	16	0	5
NMTAP	16	32	4
NMTAP	16	64	3
NMSTR	16	96	2
NMSXR	16	96	2	96	144	3
NMSTR	17	0	6
NMSCR	17	0	6	96	48	1
NMTAP	17	96	3
NMTAP	17	144	3
NMSTR	17	192	2
NMSCR	17	192	2	96	48	5
NMTAP	17	288	7
NMTAP	17	336	7
NMSTR	18	0	6
NMSCR	18	0	6	96	48	1
NMTAP	18	96	3
NMTAP	18	144	3
NMSTR	18	192	2
NMSCR	18	192	2	96	48	5
NMTAP	18	288	6
NMTAP	18	336	6
NMSTR	19	0	7
NMSI_	19	0	7	96	48	3
NMHLD	19	96	2	96
NMTAP	19	192	4
NMSTR	19	288	0
NMSCL	19	288	0	96	144	4
NMSTR	19	288	6
NMSCR	19	288	6	96	144	2
BRTAP	20	240	0
BRTAP	20	240	6
BRTAP	20	288	0
BRTAP	20	288	6
NMSTR	21	0	0
NMSI_	21	0	0	96	48	4
NMSTR	21	0	1
NMSI_	21	0	1	96	48	3
EXTAP	21	96	0
EXTAP	21	96	1
NMTAP	21	192	5
NMTAP	21	240	5
NMTAP	21	288	4
NMTAP	21	288	6
NMTAP	21	336	4
NMTAP	21	336	6
NMSTR	22	0	6
NMSI_	22	0	6	96	48	4
NMSTR	22	0	7
NMSI_	22	0	7	96	48	3
EXTAP	22	96	6
EXTAP	22	96	7
NMTAP	22	192	2
NMTAP	22	240	2
NMTAP	22	288	1
NMTAP	22	288	3
NMSTR	23	0	7
NMSCL	23	0	7	96	48	4
NMSTR	23	96	3
NMSCL	23	96	3	96	48	0
NMSTR	23	192	4
NMSI_	23	192	4	96	48	7
NMSTR	23	288	0
NMSI_	23	288	0	96	48	3
NMSTR	24	0	7
NMSCL	24	0	7	96	48	4
NMSTR	24	96	3
NMSF_	24	96	3	96	48	7
EXTAP	24	288	1
EXTAP	24	288	5
NMSTR	25	0	6
NMSI_	25	0	6	96	48	4
NMSTR	25	0	7
NMSI_	25	0	7	96	48	3
EXTAP	25	96	6
EXTAP	25	96	7
NMTAP	25	192	2
NMTAP	25	240	2
NMTAP	25	288	1
NMTAP	25	288	3
NMTAP	25	336	1
NMTAP	25	336	3
NMSTR	26	0	0
NMSI_	26	0	0	96	48	4
NMSTR	26	0	1
NMSI_	26	0	1	96	48	3
EXTAP	26	96	0
EXTAP	26	96	1
NMTAP	26	192	5
NMTAP	26	240	5
NMTAP	26	288	4
NMTAP	26	288	6
NMSTR	27	0	0
NMSCR	27	0	0	96	48	3
NMSTR	27	96	4
NMSCR	27	96	4	96	48	7
NMSTR	27	192	3
NMSI_	27	192	3	96	48	0
NMSTR	27	288	7
NMSI_	27	288	7	96	48	4
NMSTR	28	0	0
NMSCR	28	0	0	96	48	3
NMSTR	28	96	4
NMSI_	28	96	4	96	48	0
NMSTR	28	192	3
NMSI_	28	192	3	96	48	7
NMSTR	28	288	0
NMSCR	28	288	0	96	192	7
NMTTP	30	0	5	B	0	M1
NMTTP	30	96	4	B	0	M1
NMTTP	30	96	6	B	0	M1
NMTTP	30	192	2	B	0	M1
NMTTP	30	288	1	B	0	M1
NMTTP	30	288	3	B	0	M1
NMTTP	31	0	6	E	0	M1
NMTTP	31	96	5	E	0	M1
NMTTP	31	96	7	E	0	M1
NMTTP	31	192	2	E	0	M1
NMTTP	31	288	1	E	0	M1
NMTTP	31	288	3	E	0	M1
NMTTP	32	0	6	B	0	M1
NMTTP	32	96	3	B	0	M1
NMTTP	32	96	5	B	0	M1
NMTTP	32	192	1	B	0	M1
NMTTP	32	288	2	B	0	M1
NMTTP	32	288	4	B	0	M1
NMHLD	33	0	5	96
NMTAP	33	96	3
NMTAP	33	192	2
NMTAP	33	240	2
NMTAP	33	288	3
NMTAP	33	336	2
NMHLD	34	0	1	96
NMSTR	34	96	3
NMSI_	34	96	3	96	48	7
NMTAP	34	288	0
NMTAP	34	336	0
NMTAP	35	0	7
NMTAP	35	48	7
NMTAP	35	96	2
NMTAP	35	96	6
NMTAP	35	192	5
NMTAP	35	240	5
NMTAP	35	288	4
NMTAP	35	336	5
NMHLD	36	0	6	96
NMTAP	36	96	4
NMHLD	36	192	2	48
NMHLD	36	192	3	48
NMHLD	36	288	0	48
NMHLD	36	288	1	48
NMHLD	37	0	6	48
NMHLD	37	0	7	48
NMHLD	37	96	4	48
NMHLD	37	96	5	48
NMTAP	37	192	2
NMTAP	37	192	3
NMTAP	37	240	1
NMTAP	37	288	0
NMTAP	37	336	7
NMTAP	38	0	6
NMTAP	38	48	5
NMTAP	38	80	5
NMTAP	38	96	4
NMTAP	38	144	3
NMTAP	38	192	4
NMTAP	38	192	5
NMTAP	38	240	6
NMTAP	38	288	7
NMTAP	38	336	0
NMTAP	39	0	1
NMTAP	39	48	2
NMTAP	39	80	2
NMTAP	39	96	3
NMTAP	39	144	4
NMTAP	39	192	2
NMTAP	39	192	3
NMTAP	39	240	1
NMTAP	39	288	0
NMTAP	39	336	7
NMTAP	40	0	6
NMTAP	40	48	5
NMTAP	40	96	4
NMTAP	40	144	3
NMHLD	40	192	2	48
NMHLD	40	192	3	48
NMHLD	40	288	0	48
NMHLD	40	288	1	48
NMHLD	41	0	6	48
NMHLD	41	0	7	48
NMHLD	41	96	4	48
NMHLD	41	96	5	48
NMSTR	41	192	6
NMSCR	41	192	6	96	48	1
NMTAP	41	288	3
NMTAP	41	336	3
NMSTR	42	0	2
NMSCR	42	0	2	96	48	5
NMTAP	42	96	7
NMTAP	42	144	7
NMSTR	42	192	6
NMSCR	42	192	6	96	48	1
NMTAP	42	288	3
NMTAP	42	336	3
NMSTR	43	0	2
NMSCR	43	0	2	96	48	5
NMTAP	43	96	6
NMTAP	43	144	6
NMSTR	43	192	7
NMSI_	43	192	7	96	48	3
NMTAP	43	288	1
NMTAP	43	336	1
NMTAP	44	0	2
NMTAP	44	0	5
NMTAP	44	48	2
NMTAP	44	48	5
NMTAP	44	96	3
NMTAP	44	96	4
NMTAP	44	192	2
NMTAP	44	224	3
NMTAP	44	256	4
NMSTR	44	288	5
NMSXL	44	288	5	96	144	4
NMSTR	45	192	1
NMSCL	45	192	1	96	48	6
NMTAP	45	288	4
NMTAP	45	336	4
NMSTR	46	0	5
NMSCL	46	0	5	96	48	2
NMTAP	46	96	0
NMTAP	46	144	0
NMSTR	46	192	1
NMSCL	46	192	1	96	48	6
NMTAP	46	288	4
NMTAP	46	336	4
NMSTR	47	0	5
NMSCL	47	0	5	96	48	2
NMTAP	47	96	1
NMTAP	47	144	1
NMSTR	47	192	0
NMSI_	47	192	0	96	48	4
NMHLD	47	288	5	96
NMTAP	48	0	3
NMSTR	48	96	1
NMSCL	48	96	1	96	144	5
NMSTR	48	96	7
NMSCR	48	96	7	96	144	3
BRTAP	49	48	2
BRTAP	49	48	6
BRTAP	49	96	2
BRTAP	49	96	6
NMSTR	49	192	1
NMSI_	49	192	1	96	48	3
NMSTR	49	192	5
NMSI_	49	192	5	96	48	7
EXTAP	49	288	1
EXTAP	49	288	5
NMTAP	50	0	4
NMTAP	50	48	4
NMTAP	50	96	3
NMTAP	50	96	5
NMTAP	50	144	3
NMTAP	50	144	5
NMSTR	50	192	2
NMSI_	50	192	2	96	48	0
NMSTR	50	192	6
NMSI_	50	192	6	96	48	4
EXTAP	50	288	2
EXTAP	50	288	6
NMTAP	51	0	7
NMTAP	51	48	7
NMTAP	51	96	0
NMTAP	51	96	6
NMSTR	51	192	1
NMSCR	51	192	1	96	48	4
NMSTR	51	288	5
NMSCR	51	288	5	96	48	0
NMSTR	52	0	4
NMSI_	52	0	4	96	48	1
NMSTR	52	96	0
NMSI_	52	96	0	96	48	5
NMSTR	52	192	1
NMSCR	52	192	1	96	48	4
NMSTR	52	288	6
NMSI_	52	288	6	96	48	3
NMTAP	53	0	0
NMTAP	53	96	1
NMTAP	53	96	5
NMSTR	53	192	2
NMSI_	53	192	2	96	48	0
NMSTR	53	192	6
NMSI_	53	192	6	96	48	4
EXTAP	53	288	2
EXTAP	53	288	6
NMTAP	54	0	3
NMTAP	54	48	3
NMTAP	54	96	2
NMTAP	54	96	4
NMTAP	54	144	2
NMTAP	54	144	4
NMSTR	54	192	1
NMSI_	54	192	1	96	48	3
NMSTR	54	192	5
NMSI_	54	192	5	96	48	7
EXTAP	54	288	1
EXTAP	54	288	5
NMTAP	55	0	0
NMTAP	55	48	0
NMTAP	55	96	1
NMTAP	55	96	7
NMSTR	55	192	6
NMSCL	55	192	6	96	48	3
NMSTR	55	288	2
NMSCL	55	288	2	96	48	7
NMSTR	56	0	3
NMSI_	56	0	3	96	48	6
NMSTR	56	96	7
NMSI_	56	96	7	96	48	2
NMSTR	56	192	6
NMSCL	56	192	6	96	48	3
NMSTR	56	288	2
NMSXR	56	288	2	96	144	3
EXTAP	57	192	6
NMTAP	57	240	5
NMTAP	57	272	5
NMTAP	57	288	4
NMTAP	57	336	3
NMTAP	57	336	6
NMTAP	58	0	2
NMTAP	58	32	2
NMTAP	58	48	3
NMHLD	58	96	1	48
NMHLD	58	96	4	48
NMTAP	58	192	1
NMTAP	58	192	4
NMTAP	58	240	2
NMTAP	58	272	2
NMTAP	58	288	3
NMTAP	58	336	1
NMTAP	58	336	4
NMTAP	59	0	5
NMTAP	59	32	5
NMTAP	59	48	4
NMHLD	59	96	3	48
NMHLD	59	96	6	48
NMTAP	59	192	4
NMTAP	59	192	5
NMTAP	59	240	6
NMTAP	59	272	6
NMTAP	59	288	4
NMTAP	59	336	3
NMTAP	59	336	5
NMTAP	60	0	1
NMTAP	60	32	1
NMTAP	60	48	3
NMHLD	60	96	2	48
NMHLD	60	96	4	48
NMTAP	60	192	2
NMTAP	60	192	4
NMTAP	60	240	1
NMTAP	60	272	1
NMTAP	60	288	3
NMTAP	60	336	2
NMTAP	60	336	4
NMTAP	61	0	6
NMTAP	61	32	6
NMTAP	61	48	4
NMHLD	61	96	3	48
NMHLD	61	96	5	48
NMTAP	61	192	3
NMTAP	61	192	5
NMTAP	61	240	6
NMTAP	61	272	6
NMTAP	61	288	7
NMTAP	61	336	5
NMTAP	61	368	5
NMTAP	62	0	4
NMTAP	62	48	2
NMTAP	62	80	2
NMTAP	62	96	3
NMTAP	62	144	2
NMTAP	62	144	4
NMTAP	62	192	2
NMTAP	62	192	4
NMTAP	62	240	1
NMTAP	62	272	1
NMTAP	62	288	0
NMTAP	62	336	2
NMTAP	62	368	2
NMTAP	63	0	3
NMTAP	63	48	5
NMTAP	63	80	5
NMTAP	63	96	4
NMTAP	63	144	3
NMTAP	63	144	6
NMTAP	63	192	3
NMTAP	63	192	6
NMTAP	63	288	4
NMTAP	63	288	5
NMTAP	64	0	2
NMSTR	64	0	3
NMSI_	64	0	3	96	48	7
NMSTR	64	96	1
NMSUR	64	96	1	96	48	5
EXTAP	64	192	1
BRTAP	64	192	6

T_REC_TAP	280
T_REC_BRK	9
T_REC_XTP	21
T_REC_BXX	0
T_REC_HLD	40
T_REC_XHO	1
T_REC_BHO	0
T_REC_BXH	0
T_REC_STR	71
T_REC_BST	0
T_REC_XST	1
T_REC_XBS	0
T_REC_TTP	18
T_REC_THO	0
T_REC_SLD	72
T_REC_BSL	0
T_REC_ALL	513
T_NUM_TAP	391
T_NUM_BRK	9
T_NUM_HLD	41
T_NUM_SLD	72
T_NUM_ALL	513
T_JUDGE_TAP	400
T_JUDGE_HLD	124
T_JUDGE_SLD	72
T_JUDGE_ALL	596
TTM_EACHPAIRS	74
TTM_SCR_TAP	195500
TTM_SCR_BRK	23400
TTM_SCR_HLD	41000
TTM_SCR_SLD	108000
TTM_SCR_ALL	367900
TTM_SCR_S	356000
TTM_SCR_SS	367000
TTM_RAT_ACV	10024

