VERSION	0.00.00	1.04.00
FES_MODE	0
BPM_DEF	173.000	173.000	173.000	173.000
MET_DEF	4	4
RESOLUTION	384
CLK_DEF	384
COMPATIBLE_CODE	MA2

BPM	0	0	173.000
MET	0	0	4	4

EXTAP	1	256	3
EXTAP	1	256	4
EXTAP	1	288	2
EXTAP	1	320	3
EXTAP	1	352	1
EXTAP	2	0	5
EXTAP	2	32	4
EXTAP	2	64	6
NMTHO	2	96	0	192	C	0	M1
NMTAP	3	0	4
NMTAP	3	0	6
NMTAP	3	48	5
NMTAP	3	96	1
NMTAP	3	96	3
NMTAP	3	144	2
NMTAP	3	192	3
NMTAP	3	192	4
NMTAP	3	240	3
NMTAP	3	240	4
BRTAP	3	288	1
BRTAP	3	288	6
NMHLD	4	0	1	96
NMHLD	4	96	2	96
NMHLD	4	192	3	96
NMHLD	4	288	4	96
NMHLD	5	0	3	96
NMHLD	5	96	2	96
NMTAP	5	192	0
NMTAP	5	240	0
NMTAP	5	288	1
NMTAP	5	288	7
NMHLD	6	0	6	96
NMHLD	6	96	5	96
NMHLD	6	192	4	96
NMHLD	6	288	3	96
NMHLD	7	0	4	96
NMHLD	7	96	5	96
NMTAP	7	192	7
NMTAP	7	240	7
NMSTR	7	288	0
NMSUL	7	288	0	96	144	4
NMSUR	7	288	0	96	144	4
NMTAP	7	288	6
NMHLD	8	192	3	288
NMHLD	8	192	5	192
NMSTR	9	96	4
NMSI_	9	96	4	96	48	6
NMSTR	9	192	4
NMSI_	9	192	4	96	48	0
NMTAP	9	288	7
NMHLD	10	0	6	96
NMTAP	10	96	7
NMTAP	10	192	0
NMSTR	10	288	1
NMSI_	10	288	1	96	48	3
NMSTR	11	0	7
NMSI_	11	0	7	96	48	3
NMTAP	11	96	2
NMHLD	11	192	1	96
NMTAP	11	288	0
NMTAP	12	0	2
NMTAP	12	0	3
NMTAP	12	96	1
NMTAP	12	192	3
NMTAP	12	240	3
NMTAP	12	288	2
NMTAP	13	0	4
NMTAP	13	0	5
NMTAP	13	96	6
NMTAP	13	192	4
NMTAP	13	240	4
NMTAP	13	288	5
NMTAP	14	0	1
NMTAP	14	0	6
NMSTR	14	96	0
NMSI_	14	96	0	96	48	4
NMSTR	14	96	7
NMSI_	14	96	7	96	48	3
NMTAP	14	288	2
NMTAP	14	288	5
NMTAP	15	0	6
NMTAP	15	48	6
NMTAP	15	96	4
NMTAP	15	144	4
NMTAP	15	192	3
NMTAP	15	240	3
NMSTR	15	288	1
NMSI_	15	288	1	96	48	3
NMSTR	16	0	1
NMSI_	16	0	1	96	48	7
NMSTR	16	96	1
NMSI_	16	96	1	96	48	3
NMSTR	16	192	1
NMSI_	16	192	1	96	48	5
NMTAP	16	288	1
EXTAP	17	0	0
EXTAP	17	0	6
NMTAP	17	48	5
NMTAP	17	72	4
NMTAP	17	96	5
NMTAP	17	144	2
NMTAP	17	168	3
NMTAP	17	192	2
NMTAP	17	240	5
NMTAP	17	264	4
NMTAP	17	288	6
NMTAP	17	336	2
NMTAP	17	360	3
NMTAP	18	0	1
NMTAP	18	48	0
NMTAP	18	96	7
NMHLD	18	144	6	96
NMTAP	18	240	4
NMTAP	18	288	5
NMTAP	18	336	6
EXTAP	19	0	1
EXTAP	19	0	7
NMTAP	19	48	2
NMTAP	19	72	3
NMTAP	19	96	2
NMTAP	19	144	5
NMTAP	19	168	4
NMTAP	19	192	5
NMTAP	19	240	2
NMTAP	19	264	3
NMTAP	19	288	1
NMTAP	19	336	5
NMTAP	19	360	4
NMTAP	20	0	6
NMTAP	20	48	7
NMTAP	20	96	0
NMHLD	20	144	1	96
NMTAP	20	240	0
NMTAP	20	288	7
NMTAP	20	336	6
NMTAP	21	0	4
NMTAP	21	0	5
NMTAP	21	96	1
NMTAP	21	96	2
NMTAP	21	192	6
NMTAP	21	192	7
NMTAP	21	240	6
NMTAP	21	240	7
NMTAP	21	336	3
NMTAP	21	336	4
NMHLD	22	0	3	48
NMHLD	22	0	4	48
NMHLD	22	96	2	48
NMHLD	22	96	3	48
NMHLD	22	192	1	48
NMHLD	22	192	2	48
NMTAP	22	288	0
NMTAP	22	288	1
NMTAP	22	336	0
NMTAP	22	336	1
NMSTR	23	0	2
NMSCR	23	0	2	96	48	4
NMSTR	23	0	7
NMSCL	23	0	7	96	48	5
EXTAP	23	192	0
EXTAP	23	192	1
NMTAP	23	288	6
NMTAP	23	288	7
NMTAP	24	0	1
NMTAP	24	48	1
NMTAP	24	96	3
NMTAP	24	144	3
NMTAP	24	192	4
NMTAP	24	240	4
NMTAP	24	288	6
NMTAP	24	336	6
NMSTR	25	0	0
NMSI_	25	0	0	96	48	2
NMSTR	25	96	6
NMSI_	25	96	6	96	48	4
NMSTR	25	192	7
NMSI_	25	192	7	96	48	3
NMTTP	26	0	4	A	0	M1
NMTTP	26	0	5	A	1	M1
NMTTP	26	0	5	D	0	M1
NMTTP	26	96	2	A	1	M1
NMTTP	26	96	3	A	0	M1
NMTTP	26	96	3	D	0	M1
NMTTP	26	192	0	E	1	M1
NMTTP	26	192	1	E	0	M1
NMTTP	26	192	7	E	0	M1
BRTAP	26	288	3
BRTAP	26	288	4
NMTAP	27	0	3
NMTAP	27	0	5
NMTAP	27	48	6
NMTAP	27	96	2
NMTAP	27	96	4
NMSTR	27	144	1
NMSLR	27	144	1	96	72	7
NMTAP	27	192	3
NMTAP	27	240	1
NMTAP	27	288	5
NMTAP	27	336	5
NMSTR	28	0	6
NMSI_	28	0	6	96	48	0
NMTAP	28	48	6
NMSTR	28	96	1
NMSI_	28	96	1	96	48	5
NMTAP	28	144	1
NMSTR	28	192	3
NMSI_	28	192	3	96	48	0
NMSI_	28	192	3	96	48	6
NMTAP	28	240	3
EXTAP	29	0	2
EXTAP	29	0	4
NMTAP	29	48	1
NMTAP	29	96	3
NMTAP	29	96	5
NMSTR	29	144	6
NMSLL	29	144	6	96	72	0
NMTAP	29	192	4
NMTAP	29	240	6
NMTAP	29	288	2
NMTAP	29	336	2
NMSTR	30	0	1
NMSI_	30	0	1	96	48	7
NMTAP	30	48	1
NMSTR	30	96	6
NMSI_	30	96	6	96	48	2
NMTAP	30	144	6
NMSTR	30	192	4
NMSI_	30	192	4	96	48	1
NMSI_	30	192	4	96	48	7
NMTAP	30	240	4
EXTAP	31	0	2
EXTAP	31	0	6
NMTAP	31	48	5
NMTAP	31	96	3
NMTAP	31	96	4
NMTAP	31	144	2
NMSTR	31	192	1
NMSI_	31	192	1	96	48	3
NMSTR	31	192	5
NMSI_	31	192	5	96	48	7
NMTAP	31	240	0
NMTAP	31	240	4
NMSTR	32	0	0
NMSI_	32	0	0	96	48	4
NMSTR	32	0	1
NMSI_	32	0	1	96	48	4
NMTAP	32	48	2
NMSTR	32	192	6
NMSI_	32	192	6	96	48	3
NMSTR	32	192	7
NMSI_	32	192	7	96	48	3
NMTAP	32	240	5
NMHLD	33	0	2	48
NMHLD	33	0	4	48
NMHLD	33	96	3	48
NMHLD	33	96	5	48
NMTAP	33	192	6
NMTAP	33	192	7
NMTAP	33	240	5
NMTAP	33	288	3
NMTAP	33	288	4
NMTAP	33	336	2
NMTAP	34	0	1
NMTAP	34	0	3
NMTAP	34	48	1
NMTAP	34	48	3
NMTAP	34	96	2
NMTAP	34	96	4
NMTAP	34	144	2
NMTAP	34	144	4
NMSTR	34	192	3
NMSF_	34	192	3	96	48	7
NMTAP	34	192	5
NMTAP	34	240	3
NMTAP	34	240	5
EXTAP	35	0	4
EXTAP	35	0	5
NMTAP	35	48	7
NMTAP	35	96	2
NMTAP	35	96	3
NMSTR	35	144	0
NMSI_	35	144	0	96	48	4
NMSTR	35	192	3
NMSI_	35	192	3	96	48	6
NMTAP	35	240	0
NMTAP	35	288	3
NMTAP	35	336	1
EXSTR	36	0	7
NMSCL	36	0	7	96	48	4
NMTAP	36	48	3
NMSTR	36	96	7
NMSCR	36	96	7	96	48	2
NMTAP	36	144	3
NMTAP	36	192	7
NMTAP	36	240	3
NMTAP	36	288	5
NMTAP	36	336	1
EXTAP	37	0	2
EXTAP	37	0	3
NMTAP	37	48	0
NMTAP	37	96	4
NMTAP	37	96	5
NMSTR	37	144	7
NMSI_	37	144	7	96	48	3
NMSTR	37	192	4
NMSI_	37	192	4	96	48	1
NMTAP	37	240	7
NMTAP	37	288	4
NMTAP	37	336	6
EXSTR	38	0	0
NMSCR	38	0	0	96	48	3
NMTAP	38	48	4
NMSTR	38	96	0
NMSCL	38	96	0	96	48	5
NMTAP	38	144	4
NMTAP	38	192	0
NMTAP	38	240	4
NMTAP	38	288	1
NMTAP	38	336	5
EXTAP	39	0	4
EXTAP	39	0	6
NMTAP	39	48	7
NMTAP	39	96	1
NMTAP	39	96	3
NMTAP	39	144	0
NMSTR	39	192	2
NMSI_	39	192	2	96	48	0
NMSTR	39	192	6
NMSI_	39	192	6	96	48	4
NMTAP	39	240	3
NMTAP	39	240	7
EXSTR	40	0	6
NMSI_	40	0	6	96	48	3
EXSTR	40	0	7
NMSI_	40	0	7	96	48	3
NMTAP	40	48	5
EXSTR	40	192	0
NMSI_	40	192	0	96	48	4
EXSTR	40	192	1
NMSI_	40	192	1	96	48	4
NMTAP	40	240	2
NMTAP	41	0	7
NMHLD	41	48	7	48
NMTAP	41	96	5
NMHLD	41	144	5	48
NMTAP	41	192	4
NMHLD	41	240	4	48
NMTAP	41	288	2
NMTAP	41	336	2
NMTAP	42	0	1
NMTAP	42	0	3
NMTAP	42	48	1
NMTAP	42	48	3
NMTAP	42	96	0
NMTAP	42	96	4
NMTAP	42	144	0
NMTAP	42	144	4
NMTAP	42	192	1
NMTAP	42	192	5
NMTAP	42	240	2
NMTAP	42	240	6
NMTAP	42	288	3
NMTAP	42	288	7
NMTAP	42	336	4
NMSTR	43	0	3
NMSV_	43	0	3	96	48	1
CNSCL	43	144	1	0	144	6
BXTAP	43	288	3
NMSTR	44	0	5
NMSCR	44	0	5	96	96	0
NMSTR	44	96	0
NMSCR	44	96	0	96	96	3
NMSTR	44	192	3
NMSCR	44	192	3	96	96	6
NMSTR	44	288	6
NMSCR	44	288	6	96	96	1
NMSTR	45	0	1
NMSCR	45	0	1	96	96	4
NMSTR	45	96	4
NMSCR	45	96	4	96	96	7
NMSTR	45	192	7
NMSI_	45	192	7	96	96	3
NMTAP	45	288	3
NMSTR	46	0	2
NMSCL	46	0	2	96	96	7
NMSTR	46	96	7
NMSCL	46	96	7	96	96	4
NMSTR	46	192	4
NMSCL	46	192	4	96	96	1
NMSTR	46	288	1
NMSCL	46	288	1	96	96	6
NMSTR	47	0	6
NMSCL	47	0	6	96	96	3
NMTAP	47	96	3
NMTAP	47	192	0
NMSTR	47	288	2
NMSXL	47	288	2	96	144	4
NMSTR	47	288	6
NMSXR	47	288	6	96	144	4
EXTAP	48	192	3
EXTAP	48	192	5
EXTAP	48	288	3
EXTAP	48	288	5
NMSTR	49	0	2
NMSCL	49	0	2	96	96	7
NMTAP	49	0	6
NMSTR	49	96	7
NMSCL	49	96	7	96	96	4
NMSTR	49	192	4
NMSI_	49	192	4	96	96	0
NMTAP	49	288	7
NMSTR	50	0	5
NMSCR	50	0	5	96	96	0
NMSTR	50	96	0
NMSCR	50	96	0	96	96	3
NMSTR	50	192	3
NMSUR	50	192	3	96	96	7
NMSTR	50	288	7
NMSUR	50	288	7	96	96	3
NMSTR	51	0	3
NMSCR	51	0	3	96	96	6
NMSTR	51	96	6
NMSI_	51	96	6	96	96	2
NMTAP	51	192	2
BRTAP	51	288	0
NMHLD	52	0	1	384
NMTTP	52	192	3	E	0	M1
NMHLD	53	0	4	384
NMTTP	53	96	2	B	0	M1
NMTTP	53	192	3	B	0	M1
EXTAP	54	0	1
EXHLD	54	48	1	336
NMTTP	54	192	3	E	0	M1
NMTAP	55	0	2
NMTAP	55	96	3
NMHLD	55	192	4	96
BRTAP	55	288	0
NMHLD	56	0	6	384
NMTTP	56	192	5	E	0	M1
NMHLD	57	0	3	480
NMTTP	57	96	6	E	0	M1
NMTTP	57	192	5	E	0	M1
NMTTP	57	288	4	E	0	M1
EXHLD	58	0	4	96
NMTAP	58	192	6
NMTAP	58	288	5
NMTAP	59	0	4
NMTAP	59	96	3
NMTAP	59	192	2
NMTAP	59	288	1
NMTAP	59	288	6
NMHLD	60	0	3	192
NMHLD	60	0	4	192
NMSTR	60	288	0
NMSCR	60	288	0	96	48	2
NMSTR	60	288	7
NMSCL	60	288	7	96	48	5
NMTAP	61	96	0
NMTAP	61	96	7
NMTAP	61	192	1
NMTAP	61	192	6
NMTAP	61	240	1
NMTAP	61	240	6
NMTAP	62	0	4
EXTAP	62	0	5
NMTAP	62	48	3
EXTAP	62	48	6
EXTAP	62	192	2
NMTAP	62	192	3
EXTAP	62	240	1
NMTAP	62	240	4
NMTTP	63	0	7	E	0	M1
NMTTP	63	32	6	E	0	M1
NMTTP	63	64	5	E	0	M1
NMTTP	63	96	3	E	0	M1
NMTTP	63	128	2	E	0	M1
NMTTP	63	160	1	E	0	M1
EXHLD	63	192	4	96
NMTTP	63	288	0	B	0	M1
NMTTP	63	288	0	E	1	M1
NMTAP	64	0	6
NMTAP	64	96	5
NMTAP	64	192	4
NMTAP	64	192	6
NMTAP	64	240	4
NMTAP	64	240	6
NMTAP	64	336	3
NMTAP	65	48	2
NMTAP	65	144	1
NMTAP	65	144	3
NMTAP	65	192	1
NMTAP	65	192	3
NMTAP	65	288	0
NMTAP	65	288	7
NMTAP	66	0	5
NMTAP	66	32	4
NMTAP	66	64	5
NMTAP	66	96	2
NMTAP	66	128	3
NMTAP	66	160	2
NMTAP	66	192	6
NMTAP	66	224	4
NMTAP	66	256	5
NMTAP	66	288	1
NMTAP	66	320	3
NMTAP	66	352	2
NMTAP	67	0	7
NMTAP	67	32	4
NMTAP	67	64	5
NMTAP	67	96	0
NMTAP	67	128	3
NMTAP	67	160	2
NMSTR	67	192	7
NMSCL	67	192	7	96	48	4
NMSTR	67	288	0
NMSCR	67	288	0	96	48	3
NMTTP	68	0	0	C	0	M1
BRTAP	69	0	6
BRTAP	69	0	7
BRTAP	69	48	0
BRTAP	69	48	5
BRTAP	69	144	0
BRTAP	69	144	1
BRTAP	69	192	2
BRSTR	69	192	7
BRSI_	69	192	7	96	48	3
NMTAP	70	0	2
NMSTR	70	0	4
NMSUL	70	0	4	96	192	7
NMTAP	70	96	2
NMTAP	70	192	2
EXTAP	70	288	2
NMTAP	71	0	2
NMSTR	71	0	6
NMSUL	71	0	6	96	192	1
NMTAP	71	96	2
NMTAP	71	192	2
EXTAP	71	288	3
NMSTR	72	0	0
NMSUL	72	0	0	96	192	3
NMTAP	72	0	4
NMTAP	72	96	4
NMTAP	72	192	4
EXTAP	72	288	4
NMSTR	73	0	2
NMSUL	73	0	2	96	192	5
NMTAP	73	0	4
NMTAP	73	96	4
NMTAP	73	192	4
EXTAP	73	288	3
NMTAP	74	0	2
NMSTR	74	0	4
NMSI_	74	0	4	96	48	6
NMTAP	74	96	2
NMTAP	74	192	1
NMSTR	74	192	7
NMSI_	74	192	7	96	48	3
NMTAP	74	288	1
NMSTR	75	0	0
NMSI_	75	0	0	96	48	2
NMTAP	75	0	4
NMTAP	75	96	4
NMSTR	75	192	3
NMSI_	75	192	3	96	48	7
NMTAP	75	192	5
NMTAP	75	288	5
NMTAP	76	0	0
NMTAP	76	0	6
NMTAP	76	48	0
NMTAP	76	96	1
NMTAP	76	96	5
NMTAP	76	144	1
NMTAP	76	192	2
NMTAP	76	192	4
NMTAP	76	240	4
NMTAP	76	288	3
NMTAP	76	288	5
NMTAP	76	336	5
NMTAP	77	0	2
NMTAP	77	0	6
NMTAP	77	48	2
NMTAP	77	48	6
NMTAP	77	96	1
NMTAP	77	96	5
NMTAP	77	144	1
NMTAP	77	144	5
NMSTR	77	192	0
NMSI_	77	192	0	96	48	3
NMSTR	77	192	4
NMSI_	77	192	4	96	48	7
BRTAP	77	288	0
BRTAP	77	288	4
EXTAP	78	0	2
EXTAP	78	0	4
NMTAP	78	48	0
NMTAP	78	96	3
NMTAP	78	96	5
NMSTR	78	144	7
NMSI_	78	144	7	96	48	3
NMSTR	78	192	3
NMSCL	78	192	3	96	48	0
NMSCR	78	192	3	96	48	6
NMTAP	78	240	7
EXSTR	79	0	5
NMSI_	79	0	5	96	48	0
NMSTR	79	48	4
NMSI_	79	48	4	96	48	1
NMTAP	79	96	5
NMTAP	79	144	4
NMSTR	79	192	7
NMSI_	79	192	7	96	48	2
NMSI_	79	192	7	96	48	4
NMTAP	79	240	0
NMTAP	79	288	7
EXTAP	80	0	3
EXTAP	80	0	5
NMTAP	80	48	7
NMTAP	80	96	2
NMTAP	80	96	4
NMSTR	80	144	0
NMSI_	80	144	0	96	48	4
NMSTR	80	192	4
NMSCL	80	192	4	96	48	1
NMSCR	80	192	4	96	48	7
NMTAP	80	240	0
EXSTR	81	0	2
NMSI_	81	0	2	96	48	7
NMSTR	81	48	3
NMSI_	81	48	3	96	48	6
NMTAP	81	96	2
NMTAP	81	144	3
NMSTR	81	192	0
NMSI_	81	192	0	96	48	3
NMSI_	81	192	0	96	48	5
NMTAP	81	240	7
NMTAP	81	288	0
EXTAP	82	0	2
EXTAP	82	0	6
NMTAP	82	48	3
NMTAP	82	96	4
NMTAP	82	96	7
NMTAP	82	144	6
NMSTR	82	192	1
NMSI_	82	192	1	96	48	4
NMSTR	82	192	5
NMSI_	82	192	5	96	48	0
NMTAP	82	240	0
NMTAP	82	240	4
EXSTR	83	0	2
NMSI_	83	0	2	96	48	7
EXSTR	83	0	3
NMSI_	83	0	3	96	48	7
NMTAP	83	48	1
EXSTR	83	192	4
NMSI_	83	192	4	96	48	0
EXSTR	83	192	5
NMSI_	83	192	5	96	48	0
NMTAP	83	240	6
EXHLD	84	0	1	48
EXHLD	84	0	7	48
NMHLD	84	96	3	48
NMHLD	84	96	5	48
NMTAP	84	192	6
NMTAP	84	192	7
NMTAP	84	240	0
NMTAP	84	240	5
NMTAP	84	288	1
NMTAP	84	288	4
NMTAP	84	336	2
NMTAP	84	336	3
EXTAP	85	0	1
NMTAP	85	0	4
NMTAP	85	48	2
NMTAP	85	96	3
EXTAP	85	96	6
NMTAP	85	144	5
EXSTR	85	192	3
BRSF_	85	192	3	96	48	7
NMTAP	85	192	4
EXTAP	85	240	2
NMTTP	85	288	0	C	1	M1
NMTAP	86	0	4
EXTAP	86	0	5
NMTAP	86	48	7
NMTAP	86	96	2
NMSTR	86	96	3
NMSCR	86	96	3	96	48	6
NMSTR	86	144	0
NMSCR	86	144	0	96	48	3
EXSTR	86	192	3
NMSI_	86	192	3	96	48	7
EXSTR	87	0	6
NMSI_	87	0	6	96	48	0
NMTAP	87	48	0
NMSTR	87	96	6
NMSI_	87	96	6	96	48	3
NMTAP	87	144	4
EXTAP	87	192	6
NMTAP	87	240	0
NMTAP	87	288	1
NMTAP	87	288	5
NMTAP	87	336	4
EXTAP	88	0	2
NMTAP	88	0	3
NMTAP	88	48	0
NMSTR	88	96	4
NMSCL	88	96	4	96	48	1
NMTAP	88	96	5
NMSTR	88	144	7
NMSCL	88	144	7	96	48	4
EXSTR	88	192	4
NMSI_	88	192	4	96	48	0
EXSTR	89	0	1
NMSI_	89	0	1	96	48	7
NMTAP	89	48	7
NMSTR	89	96	1
NMSI_	89	96	1	96	48	4
NMTAP	89	144	3
EXTAP	89	192	1
NMTAP	89	240	7
NMTAP	89	288	2
NMTAP	89	288	6
NMTAP	89	336	3
NMTAP	90	0	4
NMTAP	90	0	5
NMTAP	90	48	6
NMTAP	90	96	1
NMTAP	90	96	7
NMTAP	90	144	2
NMSTR	90	192	3
NMSI_	90	192	3	96	48	0
NMSTR	90	192	7
NMSI_	90	192	7	96	48	4
NMTAP	90	240	0
NMTAP	90	240	4
EXSTR	91	0	1
BRSV_	91	0	1	96	48	4
EXSTR	91	0	5
BRSI_	91	0	5	96	48	0
NMTAP	91	48	2
NMTAP	91	48	6
EXSTR	91	192	2
BRSI_	91	192	2	96	48	7
EXSTR	91	192	6
BRSV_	91	192	6	96	48	3
NMTAP	91	240	1
NMTAP	91	240	5
NMTAP	92	0	6
NMHLD	92	48	6	48
NMTAP	92	96	4
NMHLD	92	144	4	48
NMTAP	92	192	2
NMHLD	92	240	2	48
NMTAP	92	288	0
NMTAP	92	336	0
NMTAP	93	0	1
NMTAP	93	0	7
NMTAP	93	48	5
NMTAP	93	72	4
NMTAP	93	96	6
NMTAP	93	144	2
NMTAP	93	168	3
NMTAP	93	192	1
NMTAP	93	240	0
NMTAP	93	240	4
NMTAP	93	288	2
NMTAP	93	288	6
NMSTR	93	336	4
NMSXL	93	336	4	96	144	4
NMSTR	94	0	3
NMSV_	94	0	3	96	96	0
NMTTP	94	288	0	C	0	M1
NMTAP	95	0	0
NMSTR	95	0	6
NMSI_	95	0	6	96	48	4
NMSTR	95	96	2
NMSI_	95	96	2	96	48	0
EXTAP	95	96	6
EXTAP	95	192	2
NMSTR	95	192	7
NMSI_	95	192	7	96	48	5
NMSTR	95	288	3
NMSI_	95	288	3	96	48	1
EXTAP	95	288	7
NMTAP	96	0	0
NMTAP	96	48	7
NMTAP	96	96	6
NMTAP	96	144	5
NMTAP	96	192	2
NMTAP	96	192	4
NMTAP	96	240	1
NMTAP	96	288	0
NMTAP	96	336	1
NMSTR	97	0	2
NMSI_	97	0	2	96	48	0
NMTAP	97	0	7
NMTAP	97	96	2
NMSTR	97	96	6
NMSI_	97	96	6	96	48	4
NMSTR	97	192	3
NMSI_	97	192	3	96	48	1
NMTAP	97	192	6
NMTAP	97	288	3
NMSTR	97	288	7
NMSI_	97	288	7	96	48	5
NMTAP	98	0	4
NMTAP	98	48	3
NMTAP	98	96	2
NMTAP	98	144	1
NMTAP	98	192	0
NMTAP	98	192	6
NMTAP	98	240	5
NMTAP	98	288	4
NMTAP	98	336	5
NMTAP	99	0	3
NMSTR	99	0	6
NMSI_	99	0	6	96	48	4
NMSTR	99	96	2
NMSI_	99	96	2	96	48	0
NMTAP	99	96	6
NMTAP	99	192	2
NMSTR	99	192	7
NMSI_	99	192	7	96	48	5
NMSTR	99	288	3
NMSI_	99	288	3	96	48	1
NMTAP	99	288	7
NMTAP	100	0	0
NMTAP	100	48	7
NMTAP	100	96	6
NMTAP	100	144	5
NMSTR	100	192	4
NMSF_	100	192	4	96	48	0
EXTAP	100	288	4
EXSTR	101	0	2
NMSCR	101	0	2	96	96	5
EXTAP	101	0	6
NMSTR	101	96	5
NMSCR	101	96	5	96	96	0
NMSTR	101	192	0
NMSCR	101	192	0	96	96	3
NMSTR	101	288	3
NMSXL	101	288	3	96	144	3
NMSXR	101	288	3	96	144	3
EXTAP	102	192	1
EXTAP	102	192	5
NMTAP	102	288	0
NMTAP	102	288	6
EXSTR	103	0	1
NMSI_	103	0	1	96	48	4
NMTAP	103	0	7
NMTAP	103	96	1
EXSTR	103	96	5
NMSI_	103	96	5	96	48	0
EXSTR	103	192	1
NMSI_	103	192	1	96	48	5
NMTAP	103	192	5
NMTAP	103	288	1
EXSTR	103	288	7
NMSXR	103	288	7	96	144	4
EXTAP	104	0	3
NMTAP	104	48	2
NMTAP	104	96	1
NMTAP	104	144	0
EXTAP	104	192	7
NMTAP	104	240	5
NMTAP	104	288	4
NMTAP	104	336	5
NMTAP	105	0	2
EXSTR	105	0	6
NMSI_	105	0	6	96	48	3
EXSTR	105	96	2
NMSI_	105	96	2	96	48	7
NMTAP	105	96	6
NMTAP	105	192	2
EXSTR	105	192	6
NMSI_	105	192	6	96	48	2
EXSTR	105	288	0
NMSXL	105	288	0	96	144	3
NMTAP	105	288	6
EXTAP	106	0	4
NMTAP	106	48	5
NMTAP	106	96	6
NMTAP	106	144	7
EXTAP	106	192	0
NMTAP	106	240	2
NMTAP	106	288	3
NMTAP	106	336	2
NMTAP	107	0	1
EXSTR	107	0	4
NMSI_	107	0	4	96	48	7
EXSTR	107	96	0
NMSI_	107	96	0	96	48	3
NMTAP	107	96	4
NMTAP	107	192	0
EXSTR	107	192	5
NMSI_	107	192	5	96	48	1
EXSTR	107	288	3
NMSXR	107	288	3	96	144	0
NMTAP	107	288	5
NMTAP	108	0	7
NMTAP	108	48	6
NMTAP	108	96	5
NMTAP	108	144	4
EXSTR	108	192	3
NMSF_	108	192	3	96	48	7
EXTAP	108	288	3
NMTAP	109	0	1
NMSTR	109	0	5
NMSCL	109	0	5	96	96	2
NMSTR	109	96	2
NMSCL	109	96	2	96	96	7
NMSTR	109	192	7
NMSCL	109	192	7	96	96	4
NMSTR	109	288	3
NMSXR	109	288	3	96	96	3
NMSTR	110	0	3
NMSXL	110	0	3	96	96	3
EXSTR	110	240	1
NMSI_	110	240	1	96	48	4
EXSTR	110	240	5
NMSI_	110	240	5	96	48	0
BRTAP	110	336	1
BRTAP	110	336	5

T_REC_TAP	445
T_REC_BRK	17
T_REC_XTP	62
T_REC_BXX	1
T_REC_HLD	43
T_REC_XHO	5
T_REC_BHO	0
T_REC_BXH	0
T_REC_STR	118
T_REC_BST	1
T_REC_XST	37
T_REC_XBS	0
T_REC_TTP	28
T_REC_THO	1
T_REC_SLD	158
T_REC_BSL	6
T_REC_ALL	922
T_NUM_TAP	690
T_NUM_BRK	25
T_NUM_HLD	49
T_NUM_SLD	158
T_NUM_ALL	922
T_JUDGE_TAP	709
T_JUDGE_HLD	121
T_JUDGE_SLD	164
T_JUDGE_ALL	994
TTM_EACHPAIRS	176
TTM_SCR_TAP	345000
TTM_SCR_BRK	65000
TTM_SCR_HLD	49000
TTM_SCR_SLD	237000
TTM_SCR_ALL	696000
TTM_SCR_S	672700
TTM_SCR_SS	693500
TTM_RAT_ACV	10036

