VERSION	0.00.00	1.04.00
FES_MODE	0
BPM_DEF	173.000	173.000	173.000	173.000
MET_DEF	4	4
RESOLUTION	384
CLK_DEF	384
COMPATIBLE_CODE	MA2

BPM	0	0	173.000
MET	0	0	4	4

EXTAP	1	256	2
EXTAP	1	256	5
EXSTR	1	288	2
NMSXR	1	288	2	96	288	4
EXSTR	1	288	5
NMSXL	1	288	5	96	288	3
NMTAP	3	288	2
NMTAP	3	288	5
NMHLD	4	0	1	192
NMTAP	4	96	3
NMHLD	4	192	5	192
NMTAP	4	288	3
NMHLD	5	0	1	192
NMTAP	5	96	3
NMTAP	5	192	5
NMTAP	5	240	2
NMTAP	5	240	4
NMTAP	5	288	2
NMTAP	5	288	4
NMHLD	6	0	6	192
NMTAP	6	96	4
NMHLD	6	192	2	192
NMTAP	6	288	4
NMHLD	7	0	6	192
NMTAP	7	96	4
NMTAP	7	192	2
NMTAP	7	240	1
NMTAP	7	240	7
NMTAP	7	288	1
NMSTR	7	288	7
NMSUL	7	288	7	96	96	2
NMTTP	8	192	1	B	0	M1
NMTTP	8	192	1	A	0	M1
NMTTP	8	192	2	E	0	M1
NMTAP	8	336	0
NMSTR	9	0	0
NMSI_	9	0	0	96	48	3
NMSTR	9	192	4
NMSI_	9	192	4	96	48	0
NMSTR	9	192	5
NMSI_	9	192	5	96	48	7
NMTAP	10	48	7
NMTAP	10	96	7
NMTAP	10	192	0
NMTAP	10	192	6
NMTAP	10	240	0
NMTAP	10	240	6
NMTAP	10	336	2
NMTAP	11	0	3
NMTAP	11	48	4
NMTAP	11	96	5
NMTAP	11	192	4
NMTAP	11	192	6
NMTAP	11	288	1
NMTAP	11	288	3
NMHLD	12	0	1	96
NMHLD	12	96	3	96
NMTAP	12	192	4
NMTAP	12	240	4
NMTAP	12	336	6
NMHLD	13	0	6	96
NMHLD	13	96	4	96
NMHLD	13	192	3	96
NMHLD	13	288	1	96
NMTAP	14	0	4
NMTAP	14	96	2
NMTAP	14	96	3
NMHLD	14	192	1	96
NMHLD	14	192	4	96
NMTAP	14	336	1
NMTAP	14	336	4
NMTAP	15	48	5
NMTAP	15	96	5
NMTAP	15	144	3
NMTAP	15	192	3
NMTAP	15	288	2
NMTAP	15	288	6
NMTTP	16	0	5	A	0	M1
NMTTP	16	0	6	E	0	M1
NMTTP	16	0	6	D	0	M1
NMTTP	16	96	0	C	0	M1
NMTTP	16	96	3	B	0	M1
NMTTP	16	96	4	B	0	M1
NMTTP	16	192	2	E	0	M1
NMTTP	16	192	2	A	0	M1
NMTTP	16	192	2	D	0	M1
BRTAP	16	288	0
NMTAP	17	0	1
NMTAP	17	48	1
NMTAP	17	96	3
NMTAP	17	144	3
NMTAP	17	192	2
NMTAP	17	240	2
NMTAP	17	288	4
NMTAP	17	336	4
NMTAP	18	0	3
NMTAP	18	48	2
NMTAP	18	96	1
NMHLD	18	144	0	96
NMTAP	18	240	7
NMTAP	18	288	0
NMTAP	18	288	7
NMTAP	19	0	6
NMTAP	19	48	6
NMTAP	19	96	4
NMTAP	19	144	4
NMTAP	19	192	5
NMTAP	19	240	5
NMTAP	19	288	3
NMTAP	19	336	3
NMTAP	20	0	4
NMTAP	20	48	5
NMTAP	20	96	6
NMHLD	20	144	7	96
NMTAP	20	240	0
NMTAP	20	288	0
NMTAP	20	288	7
NMHLD	21	0	1	48
NMHLD	21	0	3	48
NMHLD	21	96	4	48
NMHLD	21	96	6	48
NMTAP	21	192	1
NMTAP	21	192	3
NMTAP	21	240	1
NMTAP	21	240	3
NMTAP	21	336	4
NMTAP	21	336	6
NMTAP	22	0	4
NMTAP	22	0	6
NMHLD	22	96	5	96
NMHLD	22	192	7	96
NMHLD	22	288	0	96
NMHLD	23	0	2	96
NMTAP	23	96	4
NMHLD	23	192	1	96
NMHLD	23	192	5	96
NMTAP	23	336	1
NMTAP	23	336	5
NMTAP	24	48	6
NMSTR	24	96	6
NMSI_	24	96	6	96	48	2
NMSTR	24	192	0
NMSI_	24	192	0	96	48	4
NMHLD	24	288	7	96
NMTAP	25	0	5
NMTAP	25	96	3
NMTAP	25	96	5
NMHLD	25	192	1	96
NMSTR	25	192	3
NMSI_	25	192	3	96	48	7
NMSTR	26	0	2
NMSCL	26	0	2	96	48	7
NMSTR	26	0	6
NMSCL	26	0	6	96	48	3
BXTAP	26	192	0
BXTAP	26	192	4
NMTAP	26	288	3
NMTAP	26	288	5
NMSTR	27	0	6
NMSI_	27	0	6	96	48	3
NMSTR	27	0	7
NMSI_	27	0	7	96	48	3
NMTAP	27	96	6
NMTAP	27	96	7
NMTAP	27	192	2
NMTAP	27	240	2
NMTAP	27	288	2
NMTAP	27	288	3
NMSTR	28	0	1
NMSI_	28	0	1	96	48	3
NMTAP	28	0	4
NMSTR	28	96	5
NMSI_	28	96	5	96	48	7
NMTAP	28	192	1
NMTAP	28	240	1
NMTAP	28	288	0
NMTAP	28	288	1
NMSTR	29	0	0
NMSI_	29	0	0	96	48	4
NMSTR	29	0	1
NMSI_	29	0	1	96	48	4
NMTAP	29	96	0
NMTAP	29	96	1
NMTAP	29	192	5
NMTAP	29	240	5
NMTAP	29	288	4
NMTAP	29	288	5
NMTAP	30	0	3
NMSTR	30	0	6
BRSI_	30	0	6	96	48	4
NMSTR	30	96	2
BRSI_	30	96	2	96	48	0
NMTAP	30	192	6
NMTAP	30	240	6
NMTAP	30	288	6
NMTAP	30	288	7
NMTAP	31	0	4
NMTAP	31	48	4
NMTAP	31	96	3
NMTAP	31	96	5
NMSTR	31	192	2
NMSI_	31	192	2	96	48	0
NMSTR	31	192	4
NMSI_	31	192	4	96	48	6
NMSTR	32	0	2
NMSCL	32	0	2	96	48	0
NMSTR	32	0	4
NMSCR	32	0	4	96	48	6
NMSTR	32	192	2
NMSI_	32	192	2	96	48	0
NMSTR	32	192	4
NMSI_	32	192	4	96	48	6
NMTAP	33	0	2
NMTAP	33	0	4
NMTAP	33	48	2
NMTAP	33	48	4
NMSTR	33	96	2
NMSI_	33	96	2	96	48	5
NMTAP	33	96	4
NMSTR	33	192	6
NMSI_	33	192	6	96	48	1
NMTAP	33	288	3
NMTAP	34	0	2
NMTAP	34	48	2
NMSTR	34	96	1
NMSCR	34	96	1	96	48	4
NMSTR	34	96	5
NMSCR	34	96	5	96	48	0
EXTAP	34	288	3
EXTAP	34	288	7
NMSTR	35	0	0
NMSI_	35	0	0	96	48	4
NMSTR	35	0	1
NMSI_	35	0	1	96	48	3
NMTAP	35	96	0
NMTAP	35	96	1
NMTAP	35	192	5
NMTAP	35	240	5
NMTAP	35	288	4
NMTAP	35	288	5
NMSTR	36	0	3
NMSI_	36	0	3	96	48	7
NMTAP	36	0	6
NMSTR	36	96	5
NMSI_	36	96	5	96	48	2
NMSTR	36	192	1
NMSI_	36	192	1	96	48	5
NMTAP	36	288	6
NMSTR	37	0	6
NMSI_	37	0	6	96	48	4
NMSTR	37	0	7
NMSI_	37	0	7	96	48	3
NMTAP	37	96	6
NMTAP	37	96	7
NMTAP	37	192	2
NMTAP	37	240	2
NMTAP	37	288	2
NMTAP	37	288	3
NMTAP	38	0	1
NMSTR	38	0	4
NMSI_	38	0	4	96	48	0
NMSTR	38	96	2
NMSI_	38	96	2	96	48	5
NMSTR	38	192	6
NMSI_	38	192	6	96	48	2
NMTAP	38	288	1
NMTAP	39	0	0
NMTAP	39	48	0
NMTAP	39	96	1
NMTAP	39	96	7
NMSTR	39	192	3
NMSI_	39	192	3	96	48	1
NMSTR	39	192	5
NMSI_	39	192	5	96	48	7
NMSTR	40	0	3
NMSCL	40	0	3	96	48	1
NMSTR	40	0	5
NMSCR	40	0	5	96	48	7
NMSTR	40	192	3
NMSI_	40	192	3	96	48	1
NMSTR	40	192	5
NMSI_	40	192	5	96	48	7
NMTAP	41	0	3
NMTAP	41	0	5
NMTAP	41	48	3
NMTAP	41	48	5
NMTAP	41	96	3
NMSTR	41	96	5
NMSI_	41	96	5	96	48	2
NMSTR	41	192	1
NMSI_	41	192	1	96	48	6
NMTAP	41	288	4
NMTAP	42	0	5
NMTAP	42	48	5
NMSTR	42	96	2
NMSCL	42	96	2	96	48	7
NMSTR	42	96	6
NMSCL	42	96	6	96	48	3
NMSTR	42	288	0
NMSV_	42	288	0	96	48	3
NMSTR	42	288	4
NMSI_	42	288	4	96	48	7
EXTAP	43	288	3
EXTAP	43	288	5
NMHLD	44	0	6	192
NMTAP	44	96	4
NMHLD	44	192	2	192
NMTAP	44	288	4
NMHLD	45	0	6	192
NMTAP	45	96	4
NMTAP	45	192	2
NMTAP	45	240	3
NMTAP	45	240	5
NMTAP	45	288	3
NMTAP	45	288	5
NMHLD	46	0	1	192
NMTAP	46	96	3
NMHLD	46	192	5	192
NMTAP	46	288	3
NMHLD	47	0	1	192
NMTAP	47	96	3
NMTAP	47	192	5
NMTAP	47	240	2
NMTAP	47	240	4
NMTAP	47	288	2
NMTAP	47	288	4
NMHLD	48	0	0	96
NMHLD	48	0	6	96
NMTAP	48	192	1
NMTAP	48	192	5
NMTAP	48	288	2
NMTAP	48	288	4
NMHLD	49	0	6	192
NMTAP	49	96	0
NMTAP	49	192	2
NMTAP	49	240	3
NMTAP	49	240	5
NMTAP	49	288	3
NMTAP	49	288	5
NMHLD	50	0	1	192
NMTAP	50	96	7
NMHLD	50	192	5	192
NMTAP	50	288	7
NMHLD	51	0	1	192
NMTAP	51	96	7
NMTAP	51	192	5
NMTAP	51	240	2
NMTAP	51	240	4
NMTAP	51	288	2
NMTAP	51	288	4
NMSTR	52	0	5
NMSCR	52	0	5	96	480	3
NMTAP	52	192	4
NMTAP	53	0	4
NMTAP	53	192	4
NMSTR	54	0	2
NMSCL	54	0	2	96	480	4
NMTAP	54	192	3
NMTAP	55	0	3
NMTAP	55	192	3
EXTAP	55	288	2
EXTAP	55	288	4
NMSTR	56	0	5
NMSCR	56	0	5	96	480	3
NMTAP	56	192	4
NMTAP	57	0	4
NMTAP	57	192	4
NMHLD	58	0	3	96
NMHLD	58	96	2	96
NMHLD	58	192	1	96
NMHLD	58	288	0	96
NMHLD	59	0	7	96
NMHLD	59	96	6	96
NMHLD	59	192	5	96
NMSTR	59	288	4
NMSUL	59	288	4	96	192	3
EXHLD	60	288	2	96
NMTAP	61	0	4
NMSTR	61	96	1
NMSCR	61	96	1	96	96	4
NMSTR	61	96	5
NMSCR	61	96	5	96	96	0
NMHLD	62	0	0	96
NMHLD	62	0	2	96
NMHLD	62	192	5	96
NMHLD	62	192	7	96
NMTAP	63	0	5
NMTAP	63	0	7
NMTAP	63	96	0
NMTAP	63	96	2
NMTAP	63	192	5
NMTAP	63	192	7
BRTAP	63	288	0
BRTAP	63	288	7
NMSTR	64	0	1
NMSCR	64	0	1	96	96	4
NMSTR	64	192	5
NMSCR	64	192	5	96	96	0
NMSTR	65	0	1
NMSCR	65	0	1	96	96	4
NMTAP	65	192	6
NMTAP	65	288	3
NMTAP	65	288	5
NMHLD	66	0	4	96
NMHLD	66	96	5	96
NMHLD	66	192	6	96
NMHLD	66	288	7	96
NMHLD	67	0	0	96
NMHLD	67	96	1	96
NMHLD	67	192	2	96
NMTAP	67	288	3
NMHLD	68	0	1	288
NMHLD	68	0	4	288
NMSTR	69	0	0
NMSI_	69	0	0	96	48	3
NMSTR	69	0	7
NMSI_	69	0	7	96	48	4
BRHLD	69	192	1	96
BRHLD	69	192	6	96
NMTTP	70	0	0	C	0	M1
NMTTP	70	0	5	E	0	M1
NMTTP	70	96	6	E	0	M1
NMTTP	70	192	7	E	0	M1
NMTTP	70	288	0	E	0	M1
NMTTP	71	0	0	C	0	M1
NMTTP	71	0	1	E	0	M1
NMTTP	71	96	2	E	0	M1
NMTTP	71	192	3	E	0	M1
NMTTP	71	288	4	E	0	M1
NMTTP	72	0	0	C	0	M1
NMTTP	72	0	5	E	0	M1
NMTTP	72	96	6	E	0	M1
NMTTP	72	192	7	E	0	M1
NMTTP	72	288	0	E	0	M1
NMTTP	73	0	0	C	0	M1
NMTTP	73	0	1	E	0	M1
NMTTP	73	96	2	E	0	M1
NMTTP	73	192	3	E	0	M1
NMTTP	73	288	4	E	0	M1
NMHLD	74	0	6	384
NMTTP	74	96	6	E	0	M1
NMTTP	74	192	7	E	0	M1
NMTTP	74	288	0	E	0	M1
NMHLD	75	0	1	384
NMTTP	75	96	2	E	0	M1
NMTTP	75	192	1	E	0	M1
NMTTP	75	288	0	E	0	M1
NMTAP	76	0	5
NMTAP	76	48	5
NMTAP	76	96	3
NMTAP	76	144	3
NMTAP	76	192	4
NMSTR	76	288	2
NMSXR	76	288	2	96	192	4
NMSTR	76	288	5
NMSXL	76	288	5	96	192	3
BRTAP	77	288	2
BRTAP	77	288	5
NMHLD	78	0	0	96
NMSTR	78	0	1
NMSI_	78	0	1	96	48	4
NMTAP	78	96	1
NMTAP	78	192	5
NMTAP	78	240	5
NMTAP	78	288	4
NMTAP	78	288	5
NMSTR	79	0	6
NMSI_	79	0	6	96	48	3
NMHLD	79	0	7	96
NMTAP	79	96	6
NMTAP	79	192	2
NMTAP	79	240	2
NMTAP	79	288	2
NMTAP	79	288	3
NMSTR	80	0	1
NMSI_	80	0	1	96	48	5
NMSTR	80	96	7
NMSI_	80	96	7	96	48	3
NMSTR	80	192	2
NMSI_	80	192	2	96	48	5
NMSTR	80	288	6
NMSI_	80	288	6	96	48	1
NMSTR	81	0	3
NMSI_	81	0	3	96	48	0
NMSTR	81	96	4
NMSI_	81	96	4	96	48	7
NMSTR	81	192	1
NMSI_	81	192	1	96	48	4
BRTAP	81	288	6
NMTAP	82	0	5
NMTAP	82	48	5
NMTAP	82	96	4
NMTAP	82	96	6
NMSTR	82	192	1
NMSI_	82	192	1	96	48	4
NMSTR	82	192	7
NMSI_	82	192	7	96	48	4
NMSTR	83	0	1
NMSCR	83	0	1	96	48	4
NMSTR	83	0	7
NMSCL	83	0	7	96	48	4
NMSTR	83	192	1
NMSV_	83	192	1	96	48	4
NMSTR	83	192	7
NMSV_	83	192	7	96	48	4
NMTAP	84	0	3
NMTAP	84	0	5
NMTAP	84	48	3
NMTAP	84	48	5
NMTAP	84	96	3
NMSTR	84	96	5
NMSI_	84	96	5	96	48	2
NMSTR	84	192	1
NMSI_	84	192	1	96	48	6
NMTAP	84	288	4
NMTAP	85	0	5
NMTAP	85	48	5
NMSTR	85	96	2
NMSCL	85	96	2	96	48	7
NMSTR	85	96	6
NMSCL	85	96	6	96	48	3
EXTAP	85	288	0
EXTAP	85	288	4
NMSTR	86	0	6
NMSI_	86	0	6	96	48	3
NMSTR	86	0	7
NMSI_	86	0	7	96	48	3
NMTAP	86	96	6
NMTAP	86	96	7
NMTAP	86	192	1
NMTAP	86	240	1
NMTAP	86	288	1
NMTAP	86	288	3
NMSTR	87	0	0
NMSI_	87	0	0	96	48	4
NMSTR	87	0	1
NMSI_	87	0	1	96	48	4
NMTAP	87	96	0
NMTAP	87	96	1
NMTAP	87	192	6
NMTAP	87	240	6
NMTAP	87	288	4
NMTAP	87	288	6
NMSTR	88	0	6
NMSI_	88	0	6	96	48	2
NMSTR	88	0	7
NMSI_	88	0	7	96	48	3
NMTAP	88	96	6
NMTAP	88	96	7
NMSTR	88	192	0
NMSI_	88	192	0	96	48	4
NMSTR	88	192	1
NMSI_	88	192	1	96	48	5
NMTAP	88	288	0
NMTAP	88	288	1
NMSTR	89	0	6
BRSI_	89	0	6	96	48	3
NMSTR	89	0	7
BRSI_	89	0	7	96	48	2
NMTAP	89	96	6
NMTAP	89	96	7
BXTAP	89	192	1
BXTAP	89	192	4
BXTAP	89	240	1
BXTAP	89	240	4
BXTAP	89	288	1
BXTAP	89	288	4
NMTAP	90	0	2
NMTAP	90	48	2
NMTAP	90	96	1
NMTAP	90	96	3
NMSTR	90	192	0
NMSI_	90	192	0	96	48	3
NMSTR	90	192	6
NMSI_	90	192	6	96	48	3
NMSTR	91	0	0
NMSCR	91	0	0	96	48	3
NMSTR	91	0	6
NMSCL	91	0	6	96	48	3
NMSTR	91	192	0
NMSV_	91	192	0	96	48	3
NMSTR	91	192	6
NMSV_	91	192	6	96	48	3
NMTAP	92	0	2
NMTAP	92	0	4
NMTAP	92	48	2
NMTAP	92	48	4
NMSTR	92	96	2
NMSI_	92	96	2	96	48	5
NMTAP	92	96	4
NMSTR	92	192	6
NMSI_	92	192	6	96	48	1
NMTAP	92	288	3
NMTAP	93	0	2
NMTAP	93	48	2
NMSTR	93	96	1
NMSCR	93	96	1	96	48	4
NMSTR	93	96	5
NMSCR	93	96	5	96	48	0
NMSTR	93	288	3
NMSV_	93	288	3	96	48	0
NMSTR	93	288	7
NMSI_	93	288	7	96	48	4
EXTAP	94	288	1
EXTAP	94	288	7
NMSTR	95	0	0
NMSCR	95	0	0	96	96	4
NMSTR	95	96	4
NMSCR	95	96	4	96	96	0
NMSTR	95	192	0
NMSCR	95	192	0	96	96	4
NMSTR	95	288	4
NMSCR	95	288	4	96	96	0
NMTAP	96	0	0
NMTAP	96	96	4
NMTAP	96	192	2
NMTAP	96	192	6
NMTAP	96	240	2
NMTAP	96	240	6
NMTAP	96	288	2
NMTAP	96	288	6
NMSTR	97	0	7
NMSCL	97	0	7	96	96	3
NMSTR	97	96	3
NMSCL	97	96	3	96	96	7
NMSTR	97	192	7
NMSCL	97	192	7	96	96	3
NMSTR	97	288	3
NMSCL	97	288	3	96	96	7
NMTAP	98	0	7
NMTAP	98	96	3
NMTAP	98	192	1
NMTAP	98	192	5
NMTAP	98	240	1
NMTAP	98	240	5
NMTAP	98	288	1
NMTAP	98	288	5
NMSTR	99	0	0
NMSCR	99	0	0	96	96	4
NMSTR	99	96	4
NMSCR	99	96	4	96	96	0
NMSTR	99	192	0
NMSCR	99	192	0	96	96	4
NMSTR	99	288	4
NMSCR	99	288	4	96	96	0
NMTAP	100	0	0
NMTAP	100	96	4
NMTAP	100	192	2
NMTAP	100	192	6
NMHLD	100	288	5	96
NMHLD	101	0	7	96
NMHLD	101	96	0	96
NMHLD	101	192	2	96
NMSTR	101	288	4
NMSXL	101	288	4	96	192	4
NMSXR	101	288	4	96	192	4
EXTAP	102	288	3
EXTAP	102	288	5
NMSTR	103	0	4
NMSCR	103	0	4	96	96	0
NMSTR	103	96	0
NMSCR	103	96	0	96	96	4
NMSTR	103	192	4
NMSCR	103	192	4	96	96	0
NMSTR	103	288	0
NMSCR	103	288	0	96	96	4
NMTAP	104	0	4
NMTAP	104	96	0
NMTAP	104	192	2
NMTAP	104	192	6
NMTAP	104	240	2
NMTAP	104	240	6
NMTAP	104	288	2
NMTAP	104	288	6
NMSTR	105	0	3
NMSCL	105	0	3	96	96	7
NMSTR	105	96	7
NMSCL	105	96	7	96	96	3
NMSTR	105	192	3
NMSCL	105	192	3	96	96	7
NMSTR	105	288	7
NMSCL	105	288	7	96	96	3
NMTAP	106	0	3
NMTAP	106	96	7
NMTAP	106	192	1
NMTAP	106	192	5
NMTAP	106	240	1
NMTAP	106	240	5
NMTAP	106	288	1
NMTAP	106	288	5
NMSTR	107	0	4
NMSCR	107	0	4	96	96	0
NMSTR	107	96	0
NMSCR	107	96	0	96	96	4
NMSTR	107	192	4
NMSCR	107	192	4	96	96	0
NMSTR	107	288	0
NMSCR	107	288	0	96	96	4
NMTAP	108	0	4
NMTAP	108	96	0
NMTAP	108	192	2
NMTAP	108	192	6
NMHLD	108	288	1	96
NMHLD	109	0	3	96
NMHLD	109	96	4	96
NMHLD	109	192	6	96
NMSTR	109	288	0
NMSXL	109	288	0	96	192	4
NMTAP	110	0	5
NMTAP	110	192	6
BXSTR	110	240	7
NMSI_	110	240	7	96	48	3
EXTAP	110	336	7

T_REC_TAP	306
T_REC_BRK	6
T_REC_XTP	15
T_REC_BXX	8
T_REC_HLD	72
T_REC_XHO	1
T_REC_BHO	2
T_REC_BXH	0
T_REC_STR	129
T_REC_BST	0
T_REC_XST	2
T_REC_XBS	1
T_REC_TTP	38
T_REC_THO	0
T_REC_SLD	129
T_REC_BSL	4
T_REC_ALL	713
T_NUM_TAP	490
T_NUM_BRK	21
T_NUM_HLD	73
T_NUM_SLD	129
T_NUM_ALL	713
T_JUDGE_TAP	505
T_JUDGE_HLD	198
T_JUDGE_SLD	133
T_JUDGE_ALL	836
TTM_EACHPAIRS	146
TTM_SCR_TAP	245000
TTM_SCR_BRK	54600
TTM_SCR_HLD	73000
TTM_SCR_SLD	193500
TTM_SCR_ALL	566100
TTM_SCR_S	547100
TTM_SCR_SS	564000
TTM_RAT_ACV	10037

