VERSION	0.00.00	1.04.00
FES_MODE	0
BPM_DEF	173.000	173.000	173.000	173.000
MET_DEF	4	4
RESOLUTION	384
CLK_DEF	384
COMPATIBLE_CODE	MA2

BPM	0	0	173.000
MET	0	0	4	4

NMTHO	1	288	0	384	C	0	M1
NMTTP	2	288	1	B	0	M1
NMTTP	2	288	6	B	0	M1
EXTAP	3	288	0
EXTAP	3	288	7
NMTAP	4	0	1
NMTAP	4	96	2
NMTAP	4	96	3
NMTAP	4	192	4
NMTAP	4	288	3
NMTAP	4	288	5
NMTAP	5	0	6
NMTAP	5	96	4
NMTAP	5	96	5
NMTAP	5	192	3
NMTAP	5	288	2
NMTAP	5	288	4
NMTAP	6	0	1
NMTAP	6	96	2
NMTAP	6	96	3
NMTAP	6	192	4
NMTAP	6	288	3
NMTAP	6	288	5
NMTAP	7	0	6
NMTAP	7	96	4
NMTAP	7	96	5
NMTAP	7	192	3
NMTAP	7	192	4
NMTAP	7	288	2
NMTAP	7	288	3
NMHLD	8	0	2	576
NMHLD	8	0	3	384
NMSTR	10	0	2
NMSI_	10	0	2	96	96	4
CNSI_	10	192	4	0	96	6
CNSI_	10	288	6	0	96	0
CNSI_	11	0	0	0	192	3
NMTTP	12	0	4	B	0	M1
NMTTP	12	0	5	E	0	M1
NMTTP	12	192	2	B	0	M1
NMTTP	12	192	2	E	0	M1
NMTTP	13	0	1	E	0	M1
NMTTP	13	96	0	C	0	M1
NMTTP	13	192	4	B	0	M1
NMTTP	13	192	5	B	0	M1
NMTTP	14	0	2	B	0	M1
NMTTP	14	0	3	E	0	M1
NMTTP	14	192	5	B	0	M1
NMTTP	14	192	5	E	0	M1
NMTTP	15	0	7	E	0	M1
NMTTP	15	96	0	C	0	M1
NMTTP	15	192	2	B	0	M1
NMTTP	15	192	3	B	0	M1
NMSTR	16	0	0
NMSI_	16	0	0	96	96	4
NMTAP	17	0	2
NMHLD	17	0	5	288
NMTAP	17	96	2
NMTAP	17	192	4
NMTAP	17	288	4
NMTAP	18	0	5
NMTAP	18	48	5
NMTAP	18	96	4
NMTAP	18	192	3
NMTAP	18	192	6
NMHLD	19	0	2	288
NMTAP	19	0	4
NMTAP	19	96	4
NMTAP	19	192	3
NMTAP	19	288	4
NMTAP	20	0	2
NMTAP	20	48	2
NMTAP	20	96	3
NMTAP	20	192	1
NMTAP	20	192	4
NMHLD	21	0	2	96
NMHLD	21	0	3	96
NMTAP	21	192	4
NMTAP	21	192	5
NMTAP	21	288	4
NMTAP	21	288	5
NMHLD	22	0	6	96
NMHLD	22	0	7	96
NMTAP	22	192	0
NMTAP	22	192	1
NMTAP	22	288	0
NMTAP	22	288	1
NMSTR	23	0	2
NMSCR	23	0	2	96	96	5
NMSTR	23	192	6
NMSCR	23	192	6	96	96	1
NMSTR	24	0	3
NMSI_	24	0	3	96	96	0
NMSI_	24	0	3	96	96	6
NMHLD	25	0	1	288
NMHLD	25	0	5	288
NMTAP	26	0	2
NMTAP	26	0	4
NMTAP	26	96	3
NMTAP	26	96	5
BRHLD	26	192	1	96
BRHLD	26	192	7	96
NMTAP	27	0	2
NMTAP	27	0	3
NMTAP	27	96	4
NMTAP	27	96	6
NMTAP	27	192	0
NMTAP	27	192	1
NMTAP	27	288	2
NMTAP	27	288	7
NMTAP	28	0	4
NMTAP	28	0	5
NMTAP	28	96	1
NMTAP	28	96	3
NMTAP	28	192	6
NMTAP	28	192	7
NMTAP	28	288	0
NMTAP	28	288	5
NMTAP	29	0	2
NMTAP	29	0	3
NMTAP	29	96	2
NMTAP	29	96	3
NMTAP	29	192	0
NMTAP	29	192	7
NMTAP	29	288	4
NMTAP	29	288	6
NMTAP	30	0	1
NMTAP	30	0	3
NMTAP	30	96	1
NMTAP	30	96	3
NMTAP	30	192	6
NMTAP	30	192	7
NMTAP	30	288	0
NMTAP	30	288	5
NMHLD	31	0	1	96
NMHLD	31	96	3	96
NMHLD	31	192	4	96
NMTAP	31	288	6
NMHLD	32	0	6	96
NMHLD	32	96	4	96
NMHLD	32	192	3	96
NMTAP	32	288	1
NMTAP	33	0	0
NMTAP	33	0	1
NMTAP	33	96	2
NMTAP	33	96	7
NMTAP	33	192	6
NMTAP	33	192	7
NMTAP	33	288	0
NMTAP	33	288	5
NMTAP	34	0	1
NMTAP	34	0	7
NMTAP	34	96	0
NMTAP	34	96	6
BRTAP	34	192	1
BRTAP	34	192	5
NMHLD	35	0	2	96
NMTAP	35	96	3
NMTAP	35	192	5
NMTAP	35	240	5
NMTAP	35	288	4
NMTAP	35	288	5
NMHLD	36	0	6	96
NMTAP	36	96	4
NMTAP	36	192	2
NMTAP	36	240	2
NMTAP	36	288	2
NMTAP	36	288	3
NMHLD	37	0	1	96
NMTAP	37	96	0
NMTAP	37	192	6
NMTAP	37	240	6
NMTAP	37	288	6
NMTAP	37	288	7
NMTAP	38	0	0
NMSTR	38	0	5
NMSI_	38	0	5	96	96	0
NMSTR	38	192	1
NMSI_	38	192	1	96	96	4
NMTAP	39	0	6
NMTAP	39	48	6
NMHLD	39	96	6	96
NMTAP	39	192	4
NMTAP	39	288	0
NMTAP	39	288	5
NMTAP	40	0	1
NMTAP	40	48	1
NMHLD	40	96	1	96
NMTAP	40	192	3
NMTAP	40	288	2
NMTAP	40	288	7
NMTAP	41	0	0
NMTAP	41	0	1
NMTAP	41	96	6
NMTAP	41	96	7
NMTAP	41	192	4
NMTAP	41	192	5
NMTAP	41	288	1
NMTAP	41	288	3
NMTAP	42	0	0
NMTAP	42	0	6
NMTAP	42	96	1
NMTAP	42	96	5
NMTAP	42	192	2
NMTAP	42	192	4
NMTAP	42	240	2
NMTAP	42	240	4
NMSTR	42	288	2
NMSI_	42	288	2	96	48	0
NMSTR	42	288	4
NMSI_	42	288	4	96	48	6
EXTAP	43	288	0
EXTAP	43	288	7
NMSTR	44	0	1
NMSCR	44	0	1	96	96	4
NMTAP	44	192	5
NMTAP	44	288	5
NMSTR	45	0	6
NMSCL	45	0	6	96	96	3
NMTAP	45	192	2
NMTAP	45	288	2
NMSTR	46	0	1
NMSI_	46	0	1	96	96	5
NMTAP	46	192	7
NMTAP	46	288	7
NMSTR	47	0	6
NMSI_	47	0	6	96	96	2
NMTAP	47	192	1
NMTAP	47	288	1
NMHLD	48	0	0	192
NMHLD	48	0	1	192
EXTAP	48	288	0
EXTAP	48	288	1
NMSTR	49	0	7
NMSCL	49	0	7	96	96	4
NMTAP	49	192	3
NMTAP	49	288	3
NMSTR	50	0	2
NMSCL	50	0	2	96	96	7
NMTAP	50	192	6
NMTAP	50	288	6
NMTAP	51	0	6
NMTAP	51	0	7
NMTAP	51	96	0
NMTAP	51	96	5
NMTAP	51	192	1
NMTAP	51	192	4
NMTAP	51	288	2
NMTAP	51	288	3
NMHLD	52	0	2	1152
NMTAP	52	0	3
NMTTP	52	192	3	B	0	M1
NMTTP	53	0	1	B	0	M1
NMTTP	53	192	7	B	0	M1
NMTTP	54	0	2	B	0	M1
NMTTP	54	0	3	B	0	M1
NMTTP	54	192	4	B	0	M1
NMTTP	54	192	5	B	0	M1
NMTTP	55	0	0	C	0	M1
NMTAP	55	192	0
NMTAP	55	192	7
EXTAP	55	288	0
EXTAP	55	288	7
NMTAP	56	0	1
NMHLD	56	0	6	1152
NMTTP	56	192	7	B	0	M1
NMTTP	57	0	5	B	0	M1
NMTTP	57	192	3	B	0	M1
NMTHO	58	0	0	384	C	0	M1
NMTAP	59	192	0
NMTAP	59	192	7
NMTAP	59	288	0
NMSTR	59	288	7
NMSF_	59	288	7	96	96	3
BXHLD	60	288	1	192
BXTAP	60	288	5
NMTAP	61	96	3
NMTAP	61	192	2
NMTAP	61	192	4
NMTAP	61	288	3
NMTAP	61	288	5
NMTAP	62	0	4
NMHLD	62	0	6	192
NMTAP	62	192	4
NMTAP	62	288	3
NMTAP	62	288	5
NMHLD	63	0	2	96
NMHLD	63	0	4	96
EXTAP	63	192	1
BXTAP	63	288	0
BXTAP	63	288	7
NMHLD	64	0	6	192
NMTAP	64	0	7
NMTAP	64	192	4
NMHLD	64	288	2	192
NMTAP	64	288	3
NMTAP	65	96	3
NMTAP	65	192	1
NMTAP	65	192	4
EXTAP	65	288	0
EXTAP	65	288	3
NMHLD	66	0	1	96
NMHLD	66	96	3	96
NMHLD	66	192	4	96
NMHLD	66	288	6	96
NMHLD	67	0	2	96
NMHLD	67	96	3	96
NMHLD	67	192	4	96
NMSTR	67	288	5
NMSCL	67	288	5	96	96	4
CNSV_	68	96	4	0	48	3
CNSCL	68	144	3	0	96	2
EXTAP	69	0	0
EXTAP	69	0	6
EXTAP	69	48	0
EXTAP	69	48	6
EXTAP	69	144	1
EXTAP	69	144	5
BXTAP	69	192	1
BXTAP	69	192	5
NMTAP	70	0	3
NMSTR	70	0	4
NMSXL	70	0	4	96	288	7
NMSTR	71	0	0
NMSXL	71	0	0	96	288	3
NMSTR	72	0	5
NMSXR	72	0	5	96	288	0
NMSTR	73	0	1
NMSXR	73	0	1	96	288	4
NMHLD	74	0	5	384
NMTAP	74	192	4
NMTAP	74	288	4
NMHLD	75	0	2	480
NMTAP	75	192	3
NMTAP	75	288	3
NMHLD	76	0	4	96
NMHLD	76	192	3	96
NMHLD	76	192	5	96
EXHLD	77	0	3	192
EXHLD	77	0	4	192
BRTAP	77	288	3
BRTAP	77	288	4
NMTAP	78	0	4
NMTAP	78	0	5
NMTAP	78	96	1
NMTAP	78	96	3
NMTAP	78	192	6
NMTAP	78	192	7
NMTAP	78	288	0
NMTAP	78	288	5
NMTAP	79	0	2
NMTAP	79	0	3
NMTAP	79	96	4
NMTAP	79	96	6
NMTAP	79	192	0
NMTAP	79	192	1
NMTAP	79	288	2
NMTAP	79	288	7
NMTAP	80	0	4
NMTAP	80	0	5
NMTAP	80	96	2
NMTAP	80	96	3
NMTAP	80	192	6
NMTAP	80	192	7
NMTAP	80	288	0
NMTAP	80	288	1
NMTAP	81	0	4
NMTAP	81	0	6
NMTAP	81	96	1
NMTAP	81	96	3
NMTAP	81	192	6
NMTAP	81	192	7
NMTAP	81	288	0
NMTAP	81	288	5
NMHLD	82	0	6	96
NMHLD	82	96	4	96
NMHLD	82	192	3	96
NMTAP	82	288	1
NMHLD	83	0	1	96
NMHLD	83	96	3	96
NMHLD	83	192	4	96
NMTAP	83	288	6
NMTAP	84	0	6
NMTAP	84	0	7
NMTAP	84	96	2
NMTAP	84	96	4
NMTAP	84	192	0
NMTAP	84	192	1
NMTAP	84	288	3
NMTAP	84	288	5
NMTAP	85	0	2
NMTAP	85	0	6
NMTAP	85	96	1
NMTAP	85	96	5
BRTAP	85	192	3
BRTAP	85	192	7
NMHLD	86	0	5	96
NMTAP	86	96	4
NMTAP	86	192	2
NMTAP	86	240	2
NMTAP	86	288	1
NMTAP	86	288	3
NMHLD	87	0	2	96
NMTAP	87	96	3
NMTAP	87	192	5
NMTAP	87	240	5
NMTAP	87	288	4
NMTAP	87	288	6
NMHLD	88	0	6	96
NMTAP	88	96	7
NMTAP	88	192	1
NMTAP	88	240	1
NMTAP	88	288	0
NMTAP	88	288	2
NMSTR	89	0	3
NMSCL	89	0	3	96	96	0
NMTAP	89	0	7
NMSTR	89	192	6
NMSCL	89	192	6	96	96	3
NMTAP	90	0	1
NMTAP	90	48	1
NMHLD	90	96	1	96
NMTAP	90	96	3
NMTAP	90	192	0
NMTAP	90	288	2
NMTAP	90	288	7
NMTAP	91	0	6
NMTAP	91	48	6
NMTAP	91	96	4
NMHLD	91	96	6	96
NMTAP	91	192	7
NMTAP	91	288	0
NMTAP	91	288	5
NMTAP	92	0	2
NMTAP	92	48	2
NMTAP	92	96	1
NMTAP	92	96	3
NMTAP	92	192	5
NMTAP	92	240	5
NMTAP	92	288	4
NMTAP	92	288	6
NMTAP	93	0	3
NMTAP	93	48	3
NMTAP	93	96	4
NMTAP	93	144	4
NMTAP	93	192	3
NMTAP	93	192	5
NMTAP	93	240	3
NMTAP	93	240	5
NMSTR	93	288	3
NMSCL	93	288	3	96	48	1
NMSTR	93	288	5
NMSCR	93	288	5	96	48	7
EXTAP	94	288	0
EXTAP	94	288	6
NMHLD	95	0	2	96
NMTAP	95	0	3
NMTAP	95	96	7
NMTAP	95	192	4
NMHLD	95	192	5	96
NMTAP	95	288	0
NMTAP	96	0	0
NMSTR	96	0	1
NMSI_	96	0	1	96	48	4
NMSTR	96	192	6
NMSI_	96	192	6	96	48	3
NMTAP	96	192	7
EXTAP	97	0	0
EXTAP	97	0	1
NMTAP	97	96	2
NMTAP	97	96	3
NMTAP	97	192	4
NMTAP	97	192	5
NMSTR	97	288	6
NMSXR	97	288	6	96	192	3
NMSTR	97	288	7
NMSXL	97	288	7	96	192	2
NMTAP	99	0	4
NMHLD	99	0	5	96
NMTAP	99	96	0
NMHLD	99	192	2	96
NMTAP	99	192	3
NMTAP	99	288	7
NMTAP	100	0	6
NMSTR	100	0	7
NMSI_	100	0	7	96	48	3
NMSTR	100	192	0
NMSI_	100	192	0	96	48	4
NMTAP	100	192	1
NMTAP	101	0	6
NMTAP	101	0	7
NMTAP	101	96	6
NMTAP	101	96	7
NMTAP	101	192	4
NMTAP	101	192	5
NMTAP	101	288	2
NMSTR	101	288	3
NMSXL	101	288	3	96	192	3
NMSXR	101	288	3	96	192	3
EXTAP	102	288	2
EXTAP	102	288	4
NMTAP	103	0	6
NMTAP	103	0	7
NMTAP	103	96	3
NMTAP	103	96	4
NMTAP	103	192	0
NMTAP	103	192	1
NMTAP	103	288	3
NMTAP	103	288	4
NMSTR	104	0	6
NMSI_	104	0	6	96	48	3
NMSTR	104	0	7
NMSI_	104	0	7	96	48	3
NMSTR	104	192	0
NMSI_	104	192	0	96	48	4
NMSTR	104	192	1
NMSI_	104	192	1	96	48	4
NMHLD	105	0	6	96
NMTAP	105	0	7
NMHLD	105	96	4	96
NMHLD	105	192	2	96
NMTAP	105	288	0
NMSTR	106	0	1
NMSI_	106	0	1	96	48	4
NMSTR	106	0	7
NMSI_	106	0	7	96	48	4
EXTAP	106	192	3
EXTAP	106	192	5
NMTAP	107	0	4
NMTAP	107	0	6
NMTAP	107	96	0
NMTAP	107	192	1
NMTAP	107	192	3
NMTAP	107	288	7
NMSTR	108	0	0
NMSI_	108	0	0	96	48	4
NMSTR	108	0	6
NMSI_	108	0	6	96	48	3
BXTAP	108	192	2
BXTAP	108	192	5
NMTAP	108	288	0
NMTAP	108	288	7
NMTAP	109	0	1
NMTAP	109	48	1
NMTAP	109	96	3
NMTAP	109	144	3
NMTAP	109	192	2
NMTAP	109	240	2
NMTAP	109	288	4
NMTAP	109	336	4
NMTAP	110	0	3
NMTAP	110	96	6
NMTAP	110	96	7
EXTAP	110	192	1
EXTAP	110	192	5
EXSTR	110	240	1
NMSI_	110	240	1	96	48	4
EXSTR	110	240	5
NMSI_	110	240	5	96	48	0

T_REC_TAP	332
T_REC_BRK	6
T_REC_XTP	27
T_REC_BXX	7
T_REC_HLD	60
T_REC_XHO	2
T_REC_BHO	2
T_REC_BXH	1
T_REC_STR	40
T_REC_BST	0
T_REC_XST	2
T_REC_XBS	0
T_REC_TTP	29
T_REC_THO	2
T_REC_SLD	44
T_REC_BSL	0
T_REC_ALL	554
T_NUM_TAP	430
T_NUM_BRK	16
T_NUM_HLD	64
T_NUM_SLD	44
T_NUM_ALL	554
T_JUDGE_TAP	443
T_JUDGE_HLD	252
T_JUDGE_SLD	44
T_JUDGE_ALL	739
TTM_EACHPAIRS	166
TTM_SCR_TAP	215000
TTM_SCR_BRK	41600
TTM_SCR_HLD	64000
TTM_SCR_SLD	66000
TTM_SCR_ALL	386600
TTM_SCR_S	373450
TTM_SCR_SS	385000
TTM_RAT_ACV	10041

