VERSION	0.00.00	1.04.00
FES_MODE	0
BPM_DEF	173.000	173.000	173.000	173.000
MET_DEF	4	4
RESOLUTION	384
CLK_DEF	384
COMPATIBLE_CODE	MA2

BPM	0	0	173.000
MET	0	0	4	4

NMTAP	4	0	2
NMTAP	4	96	2
NMTAP	4	192	2
NMTAP	5	0	3
NMTAP	5	96	3
NMTAP	5	192	3
NMTAP	6	0	4
NMTAP	6	96	4
NMTAP	6	192	4
NMTAP	7	0	5
NMTAP	7	96	5
NMTAP	7	192	4
NMTAP	7	192	5
NMHLD	8	0	2	192
NMTAP	8	192	3
NMHLD	9	0	5	192
NMTAP	9	192	4
NMHLD	10	0	2	192
NMTAP	10	192	3
NMTAP	11	0	5
NMTAP	11	96	5
NMTAP	11	192	4
NMTAP	11	192	5
NMHLD	12	0	6	192
NMTAP	12	192	7
NMHLD	13	0	1	192
NMTAP	13	192	0
NMHLD	14	0	6	192
NMTAP	14	192	7
NMTAP	15	0	1
NMTAP	15	96	1
NMTAP	15	192	0
NMTAP	15	192	1
BRTAP	16	0	0
BRTAP	16	0	1
NMHLD	17	0	2	192
NMHLD	17	192	3	192
NMHLD	18	0	4	192
NMTAP	18	192	5
NMHLD	19	0	5	192
NMHLD	19	192	4	192
NMHLD	20	0	3	192
NMTAP	20	192	2
NMHLD	21	0	1	192
NMHLD	21	192	2	192
NMHLD	22	0	3	192
NMTAP	22	192	4
NMHLD	23	0	6	192
NMHLD	23	192	5	192
NMHLD	24	0	4	192
NMTAP	24	192	3
NMHLD	25	0	3	384
NMHLD	25	0	4	384
BRTAP	27	0	2
NMTAP	27	96	2
NMTAP	27	192	1
NMTAP	27	288	1
NMTAP	28	0	0
NMTAP	28	96	0
NMTAP	28	192	6
NMTAP	28	192	7
NMTAP	29	0	5
NMTAP	29	96	5
NMTAP	29	192	6
NMTAP	29	288	6
NMTAP	30	0	7
NMTAP	30	96	7
NMTAP	30	192	0
NMTAP	30	192	1
NMTAP	31	0	1
NMTAP	31	96	1
NMTAP	31	192	2
NMTAP	31	288	2
NMTAP	32	0	3
NMTAP	32	96	3
NMTAP	32	192	4
NMTAP	32	192	5
NMTAP	33	0	6
NMTAP	33	96	6
NMTAP	33	192	5
NMTAP	33	288	5
NMTAP	34	0	4
NMTAP	34	96	4
BRTAP	34	192	3
BRTAP	34	192	4
NMTAP	35	0	4
NMTAP	35	96	4
NMTAP	35	192	5
NMTAP	35	288	5
NMTAP	36	0	6
NMTAP	36	96	6
NMTAP	36	192	7
NMTAP	36	288	7
NMTAP	37	0	0
NMTAP	37	96	0
NMTAP	37	192	1
NMTAP	37	288	1
NMTAP	38	0	2
NMTAP	38	96	2
NMTAP	38	192	2
NMTAP	38	192	3
NMTAP	39	0	3
NMTAP	39	96	3
NMTAP	39	192	2
NMTAP	39	288	2
NMTAP	40	0	1
NMTAP	40	96	1
NMTAP	40	192	0
NMTAP	40	288	0
NMTAP	41	0	7
NMTAP	41	96	7
NMTAP	41	192	6
NMTAP	41	288	6
NMTAP	42	0	5
NMTAP	42	96	5
NMTAP	42	192	4
NMTAP	42	192	5
BXTAP	43	0	3
BXTAP	43	0	4
NMHLD	44	0	2	192
NMHLD	44	192	3	192
NMHLD	45	0	4	192
NMTAP	45	192	5
NMHLD	46	0	5	192
NMHLD	46	192	4	192
NMHLD	47	0	3	192
NMTAP	47	192	2
NMHLD	48	0	1	192
NMHLD	48	192	0	192
NMHLD	49	0	7	192
NMTAP	49	192	6
NMHLD	50	0	6	192
NMHLD	50	192	7	192
NMHLD	51	0	0	192
NMTAP	51	192	1
NMSTR	52	0	1
NMSI_	52	0	1	96	192	5
NMSTR	53	0	6
NMSI_	53	0	6	96	192	2
NMSTR	54	0	0
NMSI_	54	0	0	96	192	4
NMTAP	55	0	5
NMTAP	55	96	5
NMTAP	55	192	4
NMTAP	55	192	5
NMSTR	56	0	6
NMSI_	56	0	6	96	192	3
NMSTR	57	0	1
NMSI_	57	0	1	96	192	5
NMSTR	58	0	7
NMSI_	58	0	7	96	192	3
NMTAP	59	0	2
NMTAP	59	96	2
NMTAP	59	192	3
NMTAP	59	192	4
NMSTR	60	0	4
NMSI_	60	0	4	96	192	0
NMSTR	61	0	2
NMSI_	61	0	2	96	192	7
NMSTR	62	0	5
NMSI_	62	0	5	96	192	0
NMTAP	63	0	1
NMTAP	63	96	1
NMTAP	63	192	0
NMTAP	63	192	1
NMSTR	64	0	2
NMSI_	64	0	2	96	192	7
NMSTR	65	0	5
NMSI_	65	0	5	96	192	0
NMSTR	66	0	1
NMSI_	66	0	1	96	192	5
NMTAP	67	0	6
NMTAP	67	96	6
NMTAP	67	192	6
NMTAP	67	192	7
NMHLD	68	0	0	384
NMHLD	68	0	7	384
NMTTP	70	0	0	B	0	L1
NMTTP	70	96	1	B	0	L1
NMTTP	70	192	2	B	0	L1
NMTTP	71	0	7	B	0	L1
NMTTP	71	96	6	B	0	L1
NMTTP	71	192	5	B	0	L1
NMTTP	72	0	2	E	0	L1
NMTTP	72	96	3	E	0	L1
NMTTP	72	192	4	E	0	L1
NMTTP	72	288	5	E	0	L1
NMTTP	73	0	6	E	0	L1
NMTTP	73	192	0	C	0	L1
NMTTP	74	0	7	B	0	L1
NMTTP	74	96	6	B	0	L1
NMTTP	74	192	4	B	0	L1
NMTTP	74	192	5	B	0	L1
NMTTP	75	0	0	B	0	L1
NMTTP	75	96	1	B	0	L1
NMTTP	75	192	2	B	0	L1
NMTTP	75	192	3	B	0	L1
NMTTP	76	0	6	E	0	L1
NMTTP	76	96	7	E	0	L1
NMTTP	76	192	0	E	0	L1
NMTTP	76	288	1	E	0	L1
NMTTP	77	0	2	E	0	L1
NMTTP	77	192	3	E	0	L1
NMTTP	77	192	5	E	0	L1
BXTAP	78	0	3
NMTAP	78	96	3
NMTAP	78	192	2
NMTAP	78	288	2
NMTAP	79	0	1
NMTAP	79	96	1
NMTAP	79	192	0
NMTAP	79	192	1
NMTAP	79	288	0
NMTAP	79	288	1
NMTAP	80	0	7
NMTAP	80	96	7
NMTAP	80	192	6
NMTAP	80	288	6
NMTAP	81	0	4
NMTAP	81	0	5
NMTAP	81	96	4
NMTAP	81	96	5
NMTAP	81	192	4
NMTAP	81	192	5
NMTAP	82	0	4
NMTAP	82	96	4
NMTAP	82	192	5
NMTAP	82	288	5
NMTAP	83	0	6
NMTAP	83	96	6
NMTAP	83	192	6
NMTAP	83	192	7
NMTAP	83	288	6
NMTAP	83	288	7
NMTAP	84	0	0
NMTAP	84	96	0
NMTAP	84	192	1
NMTAP	84	288	1
NMTAP	85	0	2
NMTAP	85	0	3
NMTAP	85	96	2
NMTAP	85	96	3
BRTAP	85	192	2
BRTAP	85	192	3
NMTAP	86	0	1
NMTAP	86	96	1
NMTAP	86	192	0
NMTAP	86	192	1
NMTAP	86	288	0
NMTAP	86	288	1
NMTAP	87	0	2
NMTAP	87	96	2
NMTAP	87	192	2
NMTAP	87	192	3
NMTAP	87	288	2
NMTAP	87	288	3
NMTAP	88	0	5
NMTAP	88	96	5
NMTAP	88	192	4
NMTAP	88	192	5
NMTAP	88	288	4
NMTAP	88	288	5
NMTAP	89	0	6
NMTAP	89	0	7
NMTAP	89	96	6
NMTAP	89	96	7
NMTAP	89	192	6
NMTAP	89	192	7
NMTAP	90	0	6
NMTAP	90	96	6
NMTAP	90	192	6
NMTAP	90	192	7
NMTAP	90	288	6
NMTAP	90	288	7
NMTAP	91	0	5
NMTAP	91	96	5
NMTAP	91	192	4
NMTAP	91	192	5
NMTAP	91	288	4
NMTAP	91	288	5
NMTAP	92	0	2
NMTAP	92	96	2
NMTAP	92	192	2
NMTAP	92	192	3
NMTAP	92	288	2
NMTAP	92	288	3
NMTAP	93	0	0
NMTAP	93	0	1
NMTAP	93	96	0
NMTAP	93	96	1
NMTAP	93	192	0
NMTAP	93	192	1
BXTAP	94	0	0
BXTAP	94	0	7
NMHLD	95	0	1	192
NMHLD	95	192	2	192
NMHLD	96	0	3	192
NMHLD	96	192	4	192
NMHLD	97	0	5	192
NMHLD	97	192	6	192
NMTAP	98	0	7
NMTAP	98	96	7
NMTAP	98	192	6
NMTAP	98	192	7
NMHLD	99	0	6	192
NMHLD	99	192	5	192
NMHLD	100	0	4	192
NMHLD	100	192	3	192
NMHLD	101	0	2	192
NMHLD	101	192	1	192
NMTAP	102	0	0
NMTAP	102	96	0
NMTAP	102	192	0
NMTAP	102	192	1
NMHLD	103	0	2	192
NMHLD	103	192	1	192
NMHLD	104	0	0	192
NMHLD	104	192	7	192
NMHLD	105	0	6	192
NMHLD	105	192	5	192
NMTAP	106	0	4
NMTAP	106	96	4
NMTAP	106	192	4
NMTAP	106	192	5
NMHLD	107	0	5	192
NMHLD	107	192	6	192
NMHLD	108	0	7	192
NMHLD	108	192	0	192
NMHLD	109	0	1	192
NMHLD	109	192	2	192
NMTAP	110	0	3
NMTAP	110	96	3
NMHLD	110	192	3	144
NMHLD	110	192	4	144

T_REC_TAP	211
T_REC_BRK	7
T_REC_XTP	0
T_REC_BXX	5
T_REC_HLD	60
T_REC_XHO	0
T_REC_BHO	0
T_REC_BXH	0
T_REC_STR	12
T_REC_BST	0
T_REC_XST	0
T_REC_XBS	0
T_REC_TTP	27
T_REC_THO	0
T_REC_SLD	12
T_REC_BSL	0
T_REC_ALL	334
T_NUM_TAP	250
T_NUM_BRK	12
T_NUM_HLD	60
T_NUM_SLD	12
T_NUM_ALL	334
T_JUDGE_TAP	262
T_JUDGE_HLD	254
T_JUDGE_SLD	12
T_JUDGE_ALL	528
TTM_EACHPAIRS	50
TTM_SCR_TAP	125000
TTM_SCR_BRK	31200
TTM_SCR_HLD	60000
TTM_SCR_SLD	18000
TTM_SCR_ALL	234200
TTM_SCR_S	226050
TTM_SCR_SS	233000
TTM_RAT_ACV	10051

