VERSION	0.00.00	1.04.00
FES_MODE	0
BPM_DEF	166.000	166.000	167.000	150.000
MET_DEF	4	4
RESOLUTION	384
CLK_DEF	384
COMPATIBLE_CODE	MA2

BPM	0	0	166.000
BPM	54	192	158.500
BPM	54	288	150.000
BPM	71	0	156.000
BPM	71	288	158.000
BPM	80	144	166.000
BPM	80	288	167.000
BPM	81	0	166.000

BXSTR	1	0	1
BRSCR	1	0	1	96	288	6
BXTAP	1	0	6
BXTAP	2	96	0
BXTAP	2	96	7
BXTAP	2	240	2
BXTAP	2	240	3
BXTAP	3	0	4
BXSTR	3	0	5
BRSLR	3	0	5	96	192	1
CNSI_	3	288	1	0	96	3
BXTAP	4	96	1
BXTAP	4	96	3
BXTAP	4	240	4
BXTAP	4	240	6
BXSTR	5	0	0
BRSCR	5	0	0	96	288	7
BXTAP	5	0	7
BXTAP	6	96	0
BXTAP	6	96	6
BXTAP	6	240	1
BXTAP	6	240	3
BXSTR	7	0	4
BRSI_	7	0	4	96	96	2
BXTAP	7	0	6
CNSI_	7	192	2	0	48	6
CNSI_	7	240	6	0	144	0
BXTAP	8	96	1
BXTAP	8	96	3
BXTAP	8	240	0
BXTAP	8	240	7
BXTAP	9	0	4
BXTAP	9	0	6
NMTAP	9	96	5
BXTAP	9	192	1
BXTAP	9	192	3
NMTAP	9	288	2
BXTAP	9	336	2
BXTAP	9	336	3
BXTAP	10	48	4
BXTAP	10	48	5
BXTAP	10	144	0
BXTAP	10	144	7
BXTAP	10	192	1
BXTAP	10	192	6
NMTAP	10	288	2
NMTAP	10	288	4
NMHLD	11	0	4	96
NMHLD	11	0	6	96
NMHLD	11	192	1	96
NMHLD	11	192	3	96
NMHLD	12	0	0	96
NMHLD	12	0	7	96
NMTAP	12	192	3
NMTAP	12	192	4
NMTAP	12	288	2
NMTAP	12	288	5
NMSTR	13	0	1
NMSCR	13	0	1	96	96	4
NMSTR	13	96	4
NMSUL	13	96	4	96	96	7
NMTAP	13	192	6
NMTAP	13	288	5
NMTAP	13	336	6
NMSTR	14	0	6
NMSI_	14	0	6	96	96	3
NMSTR	14	96	3
NMSLR	14	96	3	96	120	7
NMTAP	14	192	1
NMTAP	14	288	2
NMTAP	14	336	1
NMSTR	15	0	1
NMSLR	15	0	1	96	96	5
NMSTR	15	96	5
NMSLR	15	96	5	96	96	1
NMSTR	15	192	1
NMSLR	15	192	1	96	96	5
NMSTR	15	288	5
NMSCR	15	288	5	96	96	1
NMSTR	16	0	1
NMSV_	16	0	1	96	96	3
NMTAP	16	96	4
NMTAP	16	192	4
NMTAP	16	288	2
NMTAP	16	288	6
NMTAP	16	336	7
NMSTR	17	0	0
NMSI_	17	0	0	96	96	3
NMTAP	17	0	1
NMSTR	17	96	1
NMSI_	17	96	1	96	96	4
NMTAP	17	288	5
NMTAP	17	336	6
NMSTR	18	0	7
NMSI_	18	0	7	96	96	4
NMSTR	18	96	4
NMSXR	18	96	4	96	168	4
NMTAP	18	192	2
EXTAP	18	288	1
NMTAP	18	336	0
NMSTR	19	0	0
NMSCL	19	0	0	96	96	5
NMSTR	19	96	5
NMSCL	19	96	5	96	96	2
NMTAP	19	192	2
NMSTR	19	288	6
NMSUL	19	288	6	96	96	1
NMSTR	20	0	1
NMSUR	20	0	1	96	96	6
NMTAP	20	96	0
NMTAP	20	192	0
NMTAP	20	288	0
NMTAP	20	288	7
NMHLD	21	0	4	48
NMHLD	21	0	6	48
NMHLD	21	72	3	48
NMHLD	21	72	4	48
NMTAP	21	144	1
NMSTR	21	144	3
NMSUR	21	144	3	96	48	7
NMTAP	21	240	0
NMTAP	21	288	0
NMTAP	21	336	0
NMHLD	22	0	1	48
NMHLD	22	0	3	48
NMHLD	22	72	3	48
NMHLD	22	72	4	48
NMHLD	22	144	4	48
NMHLD	22	144	6	48
NMTAP	22	240	7
NMTAP	22	288	7
NMTAP	22	336	6
NMSTR	23	0	5
NMSI_	23	0	5	96	48	2
NMTAP	23	96	0
NMSTR	23	192	1
NMSI_	23	192	1	96	48	6
NMSTR	23	288	4
NMSCL	23	288	4	96	144	5
NMHLD	24	0	0	96
NMTAP	24	192	2
NMTAP	24	240	2
NMTAP	24	288	4
NMHLD	25	0	4	48
NMHLD	25	0	6	48
NMHLD	25	72	0	48
NMHLD	25	72	7	48
NMTAP	25	144	1
NMSTR	25	144	3
NMSUR	25	144	3	96	48	7
NMTAP	25	240	2
NMTAP	25	288	2
NMTAP	25	336	1
NMHLD	26	0	0	48
NMHLD	26	0	2	48
NMHLD	26	72	3	48
NMHLD	26	72	4	48
NMHLD	26	144	5	48
NMHLD	26	144	7	48
NMTAP	26	240	4
NMTAP	26	288	4
NMTAP	26	336	3
NMSTR	27	0	2
NMSI_	27	0	2	96	48	7
NMTAP	27	96	5
NMTAP	27	144	5
NMSTR	27	192	6
NMSI_	27	192	6	96	48	3
NMTAP	27	288	2
NMSTR	27	336	2
NMSCL	27	336	2	96	144	4
NMTAP	28	48	3
NMTAP	28	96	3
NMTTP	28	192	3	B	0	M1
NMTTP	28	192	3	E	0	M1
NMTTP	28	192	4	E	0	M1
BRTAP	28	288	1
BRTAP	28	288	5
NMSTR	29	0	2
NMSUR	29	0	2	96	144	4
NMTAP	29	0	4
NMTAP	29	144	7
NMSTR	29	192	7
NMSI_	29	192	7	96	48	3
NMTAP	29	288	7
NMSTR	30	0	2
NMSUR	30	0	2	96	144	4
NMTAP	30	0	4
NMTAP	30	144	7
NMSTR	30	192	7
NMSI_	30	192	7	96	48	3
NMTAP	30	288	7
NMSTR	31	0	2
NMSUR	31	0	2	96	144	4
NMTAP	31	0	4
NMTAP	31	144	7
NMSTR	31	192	7
NMSI_	31	192	7	96	48	3
NMTAP	31	288	7
EXTAP	32	0	2
EXTAP	32	0	4
NMTAP	32	96	2
NMTAP	32	96	4
NMTAP	32	192	3
NMTAP	32	216	4
NMTAP	32	240	3
NMTAP	32	264	4
NMTAP	32	288	2
NMTAP	32	288	5
NMSTR	33	0	2
NMSI_	33	0	2	96	48	0
NMTAP	33	0	3
NMTTP	33	96	5	B	0	M1
NMTTP	33	96	6	E	0	M1
NMSTR	33	192	2
NMSI_	33	192	2	96	48	0
NMTAP	33	192	3
NMTTP	33	288	5	B	0	M1
NMTTP	33	288	6	E	0	M1
NMSTR	34	0	2
NMSI_	34	0	2	96	48	0
NMTAP	34	0	3
NMTTP	34	96	5	B	0	M1
NMTTP	34	96	6	E	0	M1
NMTAP	34	192	2
NMTAP	34	192	3
NMTAP	34	240	1
EXTAP	34	288	1
EXTAP	34	288	7
BRTAP	35	0	2
BRTAP	35	0	6
NMTAP	35	96	4
NMTAP	35	96	5
EXTAP	35	192	3
EXTAP	35	192	5
EXTAP	35	264	4
EXTAP	35	264	6
EXTAP	35	336	4
EXTAP	35	336	5
NMTAP	36	48	5
NMTAP	36	96	4
NMTAP	36	96	5
NMTAP	36	144	6
NMTAP	36	192	4
NMTAP	36	192	6
NMTAP	36	288	2
NMTAP	36	288	4
NMTAP	37	0	2
NMTAP	37	0	4
NMTTP	37	48	1	B	0	M1
NMTTP	37	48	1	E	0	M1
NMTTP	37	96	5	B	0	M1
NMTTP	37	96	6	E	0	M1
NMTAP	37	144	0
NMTAP	37	192	0
NMTAP	37	288	1
NMTAP	37	288	3
NMTAP	37	336	1
NMTAP	37	336	3
NMSTR	38	48	4
NMSI_	38	48	4	96	48	0
NMTAP	38	48	6
NMTAP	38	144	7
NMTAP	38	192	7
NMSTR	38	288	1
NMSCR	38	288	1	96	48	4
NMSTR	38	288	5
NMSCR	38	288	5	96	48	0
BRTAP	39	0	1
BRTAP	39	0	5
BRTAP	39	96	3
BRTAP	39	96	7
NMTAP	39	192	0
NMTAP	39	192	1
NMTAP	39	288	2
NMTAP	39	288	3
NMTAP	39	336	4
NMTAP	40	0	5
NMSTR	40	48	6
NMSI_	40	48	6	96	48	4
NMSTR	40	96	7
NMSI_	40	96	7	96	48	3
NMTAP	40	144	6
NMTAP	40	192	7
NMTAP	40	288	2
NMTAP	40	288	4
NMTAP	41	0	0
NMSTR	41	0	1
NMSI_	41	0	1	96	48	3
NMSTR	41	96	0
NMSI_	41	96	0	96	48	4
NMTAP	41	96	1
NMTAP	41	192	0
NMSTR	41	192	3
NMSI_	41	192	3	96	48	7
NMTAP	41	288	3
NMTAP	41	288	5
NMHLD	41	336	6	96
NMTAP	42	48	7
NMSTR	42	96	0
NMSI_	42	96	0	96	48	4
NMSTR	42	192	0
NMSF_	42	192	0	96	48	4
BRTAP	42	288	0
NMSTR	43	0	2
NMSI_	43	0	2	96	48	4
NMTAP	43	0	6
NMTAP	43	96	2
NMSTR	43	96	5
NMSI_	43	96	5	96	48	1
NMSTR	43	192	0
NMSI_	43	192	0	96	48	6
NMTAP	43	192	5
NMTAP	43	288	4
NMSTR	43	336	4
NMSXL	43	336	4	96	96	0
NMTAP	44	48	2
NMTAP	44	96	2
NMHLD	44	192	7	96
NMSTR	44	288	0
BRSI_	44	288	0	96	48	5
NMTAP	45	0	0
NMSTR	45	0	6
BRSUR	45	0	6	96	48	2
NMSTR	45	96	3
BRSI_	45	96	3	96	48	0
NMTAP	45	96	6
NMTAP	45	192	3
NMSTR	45	192	5
BRSI_	45	192	5	96	48	2
NMTAP	45	288	1
NMSTR	45	336	0
BRSI_	45	336	0	96	48	4
NMTAP	46	48	0
NMTAP	46	48	4
NMTAP	46	144	2
NMTAP	46	144	6
NMTAP	46	192	2
NMHLD	46	192	6	96
NMHLD	46	288	4	96
NMTTP	47	0	4	E	0	M1
NMTAP	47	96	2
NMTAP	47	96	3
NMTAP	47	144	1
NMTAP	47	192	0
NMTAP	47	192	4
NMSTR	47	288	2
NMSCR	47	288	2	96	48	5
NMTAP	48	0	2
NMTAP	48	0	6
NMSTR	48	96	7
NMSXL	48	96	7	96	96	0
NMSXR	48	96	7	96	96	7
NMTAP	49	0	2
NMTAP	49	0	4
NMHLD	49	96	1	48
NMHLD	49	96	5	48
NMTAP	49	192	2
NMSTR	49	192	4
NMSCL	49	192	4	96	48	1
NMTAP	49	240	3
NMSTR	49	288	4
NMSCR	49	288	4	96	48	7
NMTAP	49	288	6
NMTAP	49	336	5
NMTAP	50	0	2
NMSTR	50	0	4
NMSI_	50	0	4	96	48	0
NMTAP	50	48	3
NMSTR	50	96	4
NMSXL	50	96	4	96	96	5
NMTAP	50	96	6
NMTAP	50	144	5
NMTAP	50	192	2
NMSTR	50	192	4
NMSXR	50	192	4	96	96	3
EXTAP	51	0	6
NMSTR	51	96	1
BRSI_	51	96	1	96	48	5
NMSTR	51	144	7
BRSI_	51	144	7	96	48	3
NMTAP	51	192	1
NMTAP	51	240	7
NMSTR	51	288	0
BRSI_	51	288	0	96	48	4
NMTAP	52	0	0
NMTAP	52	0	4
NMTAP	52	96	5
NMTAP	52	144	5
NMTAP	52	168	4
NMTAP	52	192	6
NMTAP	52	240	1
NMTAP	52	288	2
NMTAP	52	288	4
NMTAP	52	336	1
NMTAP	52	336	5
NMSTR	53	0	0
NMSI_	53	0	0	96	48	3
NMSTR	53	0	6
NMSI_	53	0	6	96	48	3
NMTAP	53	96	0
NMTAP	53	96	6
NMSTR	53	192	2
NMSI_	53	192	2	96	48	7
NMSTR	53	240	4
NMSI_	53	240	4	96	48	7
NMTAP	53	288	2
NMTAP	53	336	4
NMSTR	54	48	0
NMSCR	54	48	0	96	96	5
BRTAP	54	144	7
BRTAP	54	192	7
EXTAP	54	288	0
EXTAP	54	288	7
BRTAP	55	0	2
BRTAP	55	0	5
NMTAP	55	96	3
NMTAP	55	128	3
NMTAP	55	160	3
NMTAP	55	192	2
NMTAP	55	192	4
NMTAP	55	288	5
NMTAP	55	320	5
NMTAP	55	352	5
NMTAP	56	0	4
NMTAP	56	0	6
NMTAP	56	96	2
NMTAP	56	128	2
NMTAP	56	160	2
BRTAP	56	192	1
BRTAP	56	192	3
BRTAP	56	288	0
BRTAP	56	288	7
BRTAP	57	0	3
BRTAP	57	0	6
NMTAP	57	96	4
NMTAP	57	128	4
NMTAP	57	160	4
NMTAP	57	192	3
NMTAP	57	192	5
NMTAP	57	288	2
NMTAP	57	320	2
NMTAP	57	352	2
NMTAP	58	0	1
NMTAP	58	0	3
NMTAP	58	96	5
NMTAP	58	128	5
NMTAP	58	160	5
BRTAP	58	192	4
BRTAP	58	192	6
BRTAP	58	288	0
BRTAP	58	288	7
BRTAP	59	0	1
BRTAP	59	0	4
NMTAP	59	96	2
NMTAP	59	128	2
NMTAP	59	160	3
NMTAP	59	192	1
NMTAP	59	192	3
NMTAP	59	288	5
NMTAP	59	320	5
NMTAP	59	352	4
NMTAP	60	0	4
NMTAP	60	0	6
NMTAP	60	96	1
NMTAP	60	128	1
NMTAP	60	160	0
BRTAP	60	192	0
BRTAP	60	192	2
BRTAP	60	288	3
BRTAP	60	288	4
BRTAP	61	0	3
BRTAP	61	0	6
NMTAP	61	96	5
NMTAP	61	128	5
NMTAP	61	160	4
NMTAP	61	192	4
NMTAP	61	192	6
NMTAP	61	288	2
NMTAP	61	320	2
NMTAP	61	352	3
NMTAP	62	0	1
NMTAP	62	0	3
NMTAP	62	96	6
NMTAP	62	128	6
NMTAP	62	160	7
BRTAP	62	192	5
BRTAP	62	192	7
BRTAP	62	288	3
BRTAP	62	288	4
BRTAP	63	0	2
BRTAP	63	0	5
NMTAP	63	96	3
NMTAP	63	128	4
NMTAP	63	160	3
NMTAP	63	192	2
NMTAP	63	192	4
NMTAP	63	288	5
NMTAP	63	320	4
NMTAP	63	352	5
NMTAP	64	0	4
NMTAP	64	0	6
NMTAP	64	96	2
NMTAP	64	128	3
NMTAP	64	160	2
BRSTR	64	192	1
NMSI_	64	192	1	96	48	4
BRTAP	64	192	3
BRSTR	64	288	5
NMSI_	64	288	5	96	48	0
BRTAP	65	0	1
NMTAP	65	96	1
NMTAP	65	128	0
NMTAP	65	160	1
NMTAP	65	192	0
NMTAP	65	192	2
NMTAP	65	288	5
NMTAP	65	320	4
NMTAP	65	352	5
NMTAP	66	0	4
NMTAP	66	0	6
NMTAP	66	96	2
NMTAP	66	128	3
NMTAP	66	160	2
BRTAP	66	192	1
BRSTR	66	192	3
NMSI_	66	192	3	96	48	6
BRSTR	66	288	1
NMSI_	66	288	1	96	48	4
BRTAP	67	0	7
NMTAP	67	96	5
NMTAP	67	128	4
NMTAP	67	160	5
NMTAP	67	192	3
NMTAP	67	192	6
NMTAP	67	288	2
NMTAP	67	320	3
NMTAP	67	352	2
NMTAP	68	0	1
NMTAP	68	0	4
NMTAP	68	96	5
NMTAP	68	128	4
NMTAP	68	160	5
BRTAP	68	192	3
BRSTR	68	192	6
NMSV_	68	192	6	96	48	3
BRSTR	68	288	2
NMSI_	68	288	2	96	48	7
BRTAP	69	0	5
NMTAP	69	96	6
NMTAP	69	128	7
NMTAP	69	160	6
NMTAP	69	192	0
NMTAP	69	192	5
NMTAP	69	288	3
NMTAP	69	320	4
NMTAP	69	352	3
NMSTR	70	0	2
BRSXR	70	0	2	96	192	3
NMSTR	70	0	5
BRSXL	70	0	5	96	192	4
EXTAP	71	0	2
EXTAP	71	32	1
EXTAP	71	64	0
EXTAP	71	96	7
EXTAP	71	128	6
EXTAP	71	160	5
EXHLD	71	192	3	96
EXHLD	71	192	4	96
NMSTR	72	0	2
NMSCR	72	0	2	96	480	5
NMTTP	73	0	4	E	0	M1
NMTTP	73	192	0	C	0	M1
NMSTR	74	0	6
NMSCL	74	0	6	96	480	3
NMTTP	75	0	5	E	0	M1
NMTTP	75	192	0	C	0	M1
NMSTR	76	0	1
NMSCR	76	0	1	96	480	5
NMTTP	77	0	0	C	0	M1
NMTTP	77	192	7	B	0	M1
NMSTR	78	0	6
NMSCL	78	0	6	96	480	1
NMTTP	79	0	0	C	0	M1
NMTTP	79	192	0	E	0	M1
EXSTR	79	336	0
NMSI_	79	336	0	96	144	3
NMTAP	81	0	2
NMTAP	81	0	4
NMTAP	81	96	2
NMTAP	81	96	4
NMTAP	81	192	2
NMTAP	81	192	5
NMTAP	81	288	2
NMTAP	81	288	5
NMTAP	82	0	2
NMTAP	82	0	6
NMTAP	82	96	2
NMTAP	82	96	7
NMTAP	82	192	0
NMTAP	82	192	1
NMTAP	82	288	2
NMTAP	82	288	3
NMTAP	83	0	3
NMTAP	83	0	5
NMTAP	83	96	3
NMTAP	83	96	5
NMTAP	83	192	4
NMTAP	83	192	6
NMTAP	83	288	3
NMTAP	83	288	7
BRTAP	83	336	1
BRTAP	83	336	5
NMTAP	84	48	3
NMSTR	84	96	3
BRSI_	84	96	3	96	48	7
BRSTR	84	192	3
BRSF_	84	192	3	96	48	7
BRTAP	84	288	3
NMTTP	84	300	0	C	1	M1
EXSTR	85	0	1
NMSI_	85	0	1	96	48	5
NMSTR	85	96	0
NMSI_	85	96	0	96	48	4
NMTAP	85	96	1
NMTAP	85	192	0
NMSTR	85	192	7
NMSI_	85	192	7	96	48	3
NMTAP	85	288	6
NMSTR	85	336	6
NMSI_	85	336	6	96	48	3
NMSTR	86	48	3
NMSLR	86	48	3	96	96	0
NMSTR	86	96	2
NMSI_	86	96	2	96	48	7
EXTAP	86	288	0
EXTAP	86	288	7
NMTAP	86	336	1
NMTAP	86	336	5
NMTAP	87	0	2
NMTAP	87	0	3
NMTAP	87	96	4
NMTAP	87	96	5
NMTAP	87	192	4
NMTAP	87	192	6
NMTAP	87	240	7
NMTAP	87	288	1
NMTAP	87	288	3
NMSTR	87	336	0
NMSCL	87	336	0	96	48	5
NMSCR	87	336	0	96	48	3
NMTAP	88	48	0
EXTAP	88	144	4
EXSTR	88	192	4
NMSV_	88	192	4	96	48	1
NMSV_	88	192	4	96	48	7
BRTAP	89	0	2
BRTAP	89	0	6
NMSTR	89	96	1
NMSI_	89	96	1	96	48	3
NMSTR	89	144	0
NMSI_	89	144	0	96	48	4
NMSTR	89	192	1
NMSI_	89	192	1	96	48	5
NMSTR	89	240	0
NMSI_	89	240	0	96	48	6
NMSTR	89	288	1
NMSCR	89	288	1	96	96	5
NMTAP	89	336	0
NMTAP	90	0	1
EXTAP	90	96	7
EXTAP	90	144	7
NMTAP	90	192	4
NMTAP	90	192	6
NMTAP	90	240	3
NMTAP	90	288	2
NMTAP	90	288	4
NMTAP	90	336	1
NMSTR	91	0	0
NMSI_	91	0	0	96	48	4
NMTAP	91	0	5
NMTAP	91	96	0
NMSTR	91	96	6
NMSI_	91	96	6	96	48	0
NMTAP	91	144	5
NMSTR	91	192	2
NMSI_	91	192	2	96	48	4
NMTAP	91	192	6
NMTAP	91	240	1
NMTAP	91	288	2
NMSTR	91	288	5
NMSI_	91	288	5	96	48	1
NMTAP	91	336	6
NMSTR	92	0	3
NMSI_	92	0	3	96	48	0
NMTAP	92	0	5
NMTAP	92	48	4
NMTAP	92	96	3
NMSTR	92	96	6
NMSI_	92	96	6	96	48	2
NMTAP	92	144	5
EXSTR	92	192	0
NMSI_	92	192	0	96	48	4
NMTAP	92	192	6
NMTAP	92	240	7
NMTAP	92	288	0
NMSTR	92	288	3
NMSCL	92	288	3	96	48	0
NMSCR	92	288	3	96	48	6
BRTAP	93	0	3
EXTAP	93	96	7
EXTAP	93	144	7
NMTAP	93	192	2
NMTAP	93	192	6
NMTAP	93	240	1
NMTAP	93	288	0
NMSTR	93	288	7
NMSI_	93	288	7	96	48	3
NMTAP	93	336	6
NMTAP	94	0	0
NMTAP	94	0	7
NMTAP	94	96	2
NMTAP	94	96	4
NMTAP	94	144	2
NMTAP	94	168	3
NMTAP	94	192	1
NMTAP	94	240	1
NMTAP	94	288	5
NMTAP	94	336	0
NMTAP	94	336	6
NMTAP	95	0	5
NMSTR	95	0	7
NMSI_	95	0	7	96	48	3
NMSTR	95	48	6
NMSI_	95	48	6	96	48	2
NMTAP	95	96	7
NMTAP	95	144	6
NMSTR	95	192	1
BRSI_	95	192	1	96	48	5
NMSTR	95	240	0
BRSI_	95	240	0	96	48	4
NMTAP	95	288	1
NMTAP	95	336	0
NMTAP	96	48	3
NMTAP	96	48	6
NMTAP	96	144	1
NMTAP	96	144	5
NMHLD	96	192	1	96
NMHLD	96	192	5	96
NMTAP	97	0	2
NMTAP	97	0	4
NMTAP	97	96	2
NMTAP	97	144	3
NMTAP	97	192	2
NMTAP	97	192	3
NMTAP	97	288	2
NMTAP	97	336	4
NMTAP	98	0	2
NMTAP	98	0	4
NMTAP	98	96	2
NMTAP	98	144	3
NMTAP	98	192	4
NMTAP	98	240	4
NMTAP	98	288	3
NMTAP	98	336	4
NMTAP	99	0	3
NMTAP	99	0	5
NMTAP	99	96	5
NMTAP	99	144	4
NMTAP	99	192	4
NMTAP	99	192	5
NMTAP	99	288	3
NMTAP	99	288	4
NMSTR	99	336	3
NMSCL	99	336	3	96	48	0
NMSTR	99	336	4
NMSCR	99	336	4	96	48	7
NMHLD	100	192	0	96
NMHLD	100	192	7	96
NMTTP	101	0	0	B	0	M1
NMTTP	101	0	0	C	1	M1
NMTTP	101	0	0	E	0	M1
NMTTP	101	0	0	A	0	M1
NMTTP	101	0	1	B	0	M1
NMTTP	101	0	1	E	0	M1
NMTTP	101	0	1	A	0	M1
NMTTP	101	0	1	D	0	M1
NMTTP	101	0	2	B	0	M1
NMTTP	101	0	2	E	0	M1
NMTTP	101	0	3	B	0	M1
NMTTP	101	0	4	B	0	M1
NMTTP	101	0	4	E	0	M1
NMTTP	101	0	5	B	0	M1
NMTTP	101	0	6	B	0	M1
NMTTP	101	0	6	E	0	M1
NMTTP	101	0	6	A	0	M1
NMTTP	101	0	7	B	0	M1
NMTTP	101	0	7	E	0	M1
NMTTP	101	0	7	A	0	M1
NMTTP	101	0	7	D	0	M1

T_REC_TAP	372
T_REC_BRK	49
T_REC_XTP	27
T_REC_BXX	32
T_REC_HLD	37
T_REC_XHO	2
T_REC_BHO	0
T_REC_BXH	0
T_REC_STR	100
T_REC_BST	7
T_REC_XST	4
T_REC_XBS	4
T_REC_TTP	44
T_REC_THO	0
T_REC_SLD	101
T_REC_BSL	18
T_REC_ALL	797
T_NUM_TAP	547
T_NUM_BRK	110
T_NUM_HLD	39
T_NUM_SLD	101
T_NUM_ALL	797
T_JUDGE_TAP	639
T_JUDGE_HLD	56
T_JUDGE_SLD	119
T_JUDGE_ALL	814
TTM_EACHPAIRS	180
TTM_SCR_TAP	273500
TTM_SCR_BRK	286000
TTM_SCR_HLD	39000
TTM_SCR_SLD	151500
TTM_SCR_ALL	750000
TTM_SCR_S	716850
TTM_SCR_SS	739000
TTM_RAT_ACV	10148

