VERSION	0.00.00	1.04.00
FES_MODE	0
BPM_DEF	166.000	166.000	167.000	150.000
MET_DEF	4	4
RESOLUTION	384
CLK_DEF	384
COMPATIBLE_CODE	MA2

BPM	0	0	166.000
BPM	54	192	158.500
BPM	54	288	150.000
BPM	71	0	156.000
BPM	71	288	158.000
BPM	80	144	166.000
BPM	80	288	167.000
BPM	81	0	166.000

NMHLD	1	0	1	384
NMHLD	1	0	4	384
NMTAP	2	96	2
NMTAP	2	96	3
NMTAP	2	240	4
NMTAP	2	240	5
NMHLD	3	0	3	384
NMHLD	3	0	6	384
NMTAP	4	96	6
NMTAP	4	96	7
NMTAP	4	240	0
NMTAP	4	240	1
NMHLD	5	0	2	384
NMHLD	5	0	7	384
NMTAP	6	96	0
NMTAP	6	96	1
NMTAP	6	240	6
NMTAP	6	240	7
NMHLD	7	0	0	384
NMHLD	7	0	5	384
NMTAP	8	96	4
NMTAP	8	96	5
NMTAP	8	240	2
NMTAP	8	240	3
NMSTR	9	0	0
NMSCR	9	0	0	96	48	3
NMSTR	9	192	7
NMSCL	9	192	7	96	48	4
NMTAP	9	288	2
NMTAP	9	336	2
NMTAP	10	48	0
NMTAP	10	48	1
NMTAP	10	144	2
NMTAP	10	144	7
NMTAP	10	192	2
NMSTR	10	192	7
NMSI_	10	192	7	96	48	3
NMHLD	11	0	1	96
NMHLD	11	96	3	96
NMHLD	11	192	4	96
NMHLD	11	288	6	96
NMHLD	12	0	1	96
NMHLD	12	96	3	96
NMTAP	12	192	4
NMTAP	12	288	2
NMTAP	12	288	5
NMTAP	13	0	6
NMTAP	13	48	6
NMTAP	13	96	4
NMTAP	13	192	3
NMTAP	13	192	7
NMTAP	13	288	2
NMTAP	13	336	2
NMTAP	14	0	4
NMTAP	14	96	1
NMTAP	14	96	5
NMTAP	14	192	1
NMTAP	14	192	5
NMTAP	14	288	2
NMTAP	14	288	4
NMSTR	15	0	5
NMSI_	15	0	5	96	48	2
NMSTR	15	96	0
NMSI_	15	96	0	96	48	4
NMSTR	15	192	7
NMSI_	15	192	7	96	48	3
NMTAP	15	288	2
NMTAP	16	0	0
NMTAP	16	0	1
NMTAP	16	96	6
NMTAP	16	96	7
NMTAP	16	192	0
NMTAP	16	192	1
NMTAP	16	288	6
NMTAP	16	288	7
NMSTR	17	0	6
NMSI_	17	0	6	96	48	2
NMSTR	17	0	7
NMSI_	17	0	7	96	48	3
NMTAP	17	192	1
NMTAP	17	192	4
NMTAP	17	288	2
NMTAP	17	288	3
NMSTR	18	0	0
NMSI_	18	0	0	96	48	4
NMSTR	18	0	1
NMSI_	18	0	1	96	48	5
NMTAP	18	192	3
NMTAP	18	192	6
NMTAP	18	288	4
NMTAP	18	288	5
NMHLD	19	0	6	96
NMTAP	19	96	4
NMHLD	19	192	1	96
NMSTR	19	288	3
NMSUR	19	288	3	96	192	4
EXTAP	20	288	2
EXTAP	20	288	5
NMHLD	21	0	6	72
NMHLD	21	72	5	72
NMTAP	21	144	4
NMTAP	21	240	2
NMTAP	21	240	3
NMTAP	21	288	2
NMTAP	21	288	3
NMHLD	22	0	1	72
NMHLD	22	72	2	72
NMTAP	22	144	3
NMTAP	22	240	4
NMTAP	22	240	5
NMTAP	22	288	4
NMTAP	22	288	5
NMSTR	23	0	6
NMSI_	23	0	6	96	48	2
NMSTR	23	96	1
NMSI_	23	96	1	96	48	5
NMSTR	23	192	7
NMSI_	23	192	7	96	48	3
NMSTR	23	288	0
NMSCR	23	288	0	96	192	5
BRTAP	24	192	7
NMTAP	24	288	6
NMTAP	24	288	7
NMHLD	25	0	5	72
NMHLD	25	72	6	72
NMTAP	25	144	7
NMTAP	25	240	0
NMTAP	25	240	1
NMTAP	25	288	0
NMTAP	25	288	1
NMHLD	26	0	2	72
NMHLD	26	72	1	72
NMTAP	26	144	0
NMTAP	26	240	6
NMTAP	26	240	7
NMTAP	26	288	6
NMTAP	26	288	7
EXSTR	27	0	6
NMSCL	27	0	6	96	48	3
EXSTR	27	0	7
NMSCR	27	0	7	96	48	2
EXTAP	27	192	1
EXTAP	27	192	4
NMTAP	27	288	3
NMTAP	27	288	6
NMTAP	27	336	3
NMTAP	27	336	6
NMTAP	28	48	7
NMSTR	28	96	7
BRSI_	28	96	7	96	48	4
BRTAP	28	192	2
NMTAP	28	288	0
NMHLD	29	0	6	144
NMTAP	29	144	4
NMTAP	29	192	4
BXTAP	29	288	0
BXTAP	29	288	7
NMHLD	30	0	1	144
NMTAP	30	144	3
NMTAP	30	192	3
BXTAP	30	288	0
BXTAP	30	288	7
NMHLD	31	0	6	144
NMTAP	31	144	4
NMTAP	31	192	4
BXTAP	31	288	0
BXTAP	31	288	7
NMTAP	32	0	1
NMTAP	32	96	2
NMTAP	32	96	3
NMTAP	32	192	3
NMTAP	32	192	4
NMTAP	32	240	3
NMTAP	32	240	4
BRTAP	32	288	2
BRTAP	32	288	5
NMTAP	33	0	4
BXTAP	33	96	6
BXTAP	33	96	7
NMTAP	33	192	3
BXTAP	33	288	0
BXTAP	33	288	1
NMTAP	34	0	4
BXTAP	34	96	0
BXTAP	34	96	6
NMTAP	34	192	0
NMTAP	34	192	6
NMTAP	34	288	1
NMTAP	34	336	1
NMTAP	35	0	3
NMTAP	35	96	1
NMTAP	35	96	3
NMTAP	35	192	1
NMTAP	35	192	3
NMTAP	35	264	2
NMTAP	35	264	4
NMTAP	35	336	3
NMTAP	35	336	5
NMTAP	36	48	6
NMTAP	36	96	6
NMTAP	36	144	4
NMTAP	36	192	4
NMTAP	36	192	5
NMTAP	36	288	3
NMTAP	36	288	6
NMTAP	37	0	1
NMTAP	37	0	4
NMTAP	37	144	2
NMTAP	37	144	7
NMTAP	37	192	2
NMTAP	37	192	7
NMTAP	37	288	0
NMTAP	37	288	5
NMTAP	37	336	0
NMTAP	37	336	5
NMTAP	38	48	4
NMTAP	38	48	5
BRTAP	38	144	3
BRTAP	38	144	6
BRHLD	38	192	3	96
BRHLD	38	192	6	96
NMSTR	39	0	6
NMSI_	39	0	6	96	48	4
NMSTR	39	0	7
NMSI_	39	0	7	96	48	3
EXTAP	39	96	6
EXTAP	39	96	7
NMHLD	39	192	1	96
NMTAP	39	288	0
NMTAP	39	336	0
NMTAP	40	48	6
NMSTR	40	96	6
NMSI_	40	96	6	96	48	2
NMSTR	40	192	1
NMSI_	40	192	1	96	48	5
NMTAP	40	288	7
NMTAP	41	0	4
NMTAP	41	0	6
NMTAP	41	96	1
NMSTR	41	96	3
NMSI_	41	96	3	96	48	7
NMSTR	41	192	0
NMSI_	41	192	0	96	48	4
NMTAP	41	288	6
NMHLD	41	336	6	96
NMTAP	42	48	7
NMTAP	42	96	7
NMSTR	42	192	6
NMSI_	42	192	6	96	48	3
NMSTR	42	192	7
NMSI_	42	192	7	96	48	2
BXTAP	42	288	6
BXTAP	42	288	7
NMHLD	43	0	1	96
NMSTR	43	96	0
NMSI_	43	96	0	96	48	4
NMTAP	43	288	3
NMTAP	43	288	5
NMTAP	43	336	3
NMTAP	43	336	5
NMTAP	44	48	1
NMSTR	44	96	1
NMSCL	44	96	1	96	48	6
NMTAP	44	192	4
NMTAP	44	288	4
NMSTR	45	0	3
NMSI_	45	0	3	96	48	0
NMTAP	45	0	5
NMTAP	45	96	4
NMTAP	45	192	4
BRTAP	45	288	0
BRSTR	45	336	0
NMSCR	45	336	0	96	48	3
NMSTR	46	48	7
NMSCL	46	48	7	96	48	4
NMTAP	46	144	1
NMTAP	46	192	1
NMSTR	46	288	2
NMSI_	46	288	2	96	48	7
NMSTR	46	288	3
NMSI_	46	288	3	96	48	6
EXTAP	47	144	1
EXSTR	47	192	1
NMSCR	47	192	1	96	48	4
NMHLD	47	288	6	96
NMTAP	48	0	7
NMTAP	48	96	5
NMTAP	48	144	5
NMTAP	48	192	4
BRTAP	48	288	3
BRTAP	48	288	6
BRTAP	49	0	1
BRTAP	49	0	4
NMSTR	49	96	0
NMSI_	49	96	0	96	48	4
NMSTR	49	192	6
NMSI_	49	192	6	96	48	2
NMSTR	49	288	1
NMSI_	49	288	1	96	48	5
NMSTR	50	0	7
NMSI_	50	0	7	96	48	3
NMSTR	50	96	0
NMSCR	50	96	0	96	48	3
NMSTR	50	192	4
NMSCR	50	192	4	96	48	7
NMTAP	50	288	2
NMTAP	51	0	1
NMTAP	51	0	5
EXTAP	51	144	6
NMSTR	51	192	6
NMSUL	51	192	6	96	96	2
NMSUR	51	192	6	96	96	2
EXTAP	52	144	1
EXTAP	52	144	3
EXTAP	52	192	1
EXTAP	52	192	3
NMSTR	52	288	0
BRSI_	52	288	0	96	48	3
NMTAP	52	288	4
NMTAP	53	0	6
NMSTR	53	96	7
NMSI_	53	96	7	96	48	4
NMTAP	53	192	2
NMTAP	53	288	0
NMHLD	53	336	0	96
NMTAP	54	48	7
BXTAP	54	144	1
BXTAP	54	144	6
BXTAP	54	192	1
BXTAP	54	192	6
NMTAP	55	0	2
NMTAP	55	0	5
NMTAP	55	96	4
NMTAP	55	128	3
NMTAP	55	160	4
NMTAP	55	192	3
NMTAP	55	288	2
NMTAP	55	320	3
NMTAP	55	352	2
NMTAP	56	0	3
NMTAP	56	96	5
NMTAP	56	128	4
NMTAP	56	160	5
NMTAP	56	192	4
EXTAP	56	288	3
EXTAP	56	288	6
EXTAP	57	0	1
EXTAP	57	0	4
NMTAP	57	96	2
NMTAP	57	128	3
NMTAP	57	160	2
NMTAP	57	192	3
NMTAP	57	288	5
NMTAP	57	320	4
NMTAP	57	352	5
NMTAP	58	0	4
NMTAP	58	96	2
NMTAP	58	128	3
NMTAP	58	160	2
NMTAP	58	192	3
EXTAP	58	288	0
EXTAP	58	288	1
EXTAP	59	0	6
EXTAP	59	0	7
NMTAP	59	96	6
NMTAP	59	128	4
NMTAP	59	160	6
NMTAP	59	192	4
NMTAP	59	288	1
NMTAP	59	320	3
NMTAP	59	352	1
NMTAP	60	0	3
NMTAP	60	96	6
NMTAP	60	128	4
NMTAP	60	160	6
NMTAP	60	192	4
EXTAP	60	288	6
EXTAP	60	288	7
EXTAP	61	0	0
EXTAP	61	0	1
NMTAP	61	96	1
NMTAP	61	128	3
NMTAP	61	160	1
NMTAP	61	192	3
NMTAP	61	288	6
NMTAP	61	320	4
NMTAP	61	352	6
NMTAP	62	0	4
NMTAP	62	96	1
NMTAP	62	128	3
NMTAP	62	160	1
NMTAP	62	192	3
NMSTR	62	288	0
NMSCR	62	288	0	96	96	4
NMSTR	63	0	4
NMSCR	63	0	4	96	96	0
NMSTR	63	96	0
NMSCR	63	96	0	96	96	4
NMSTR	63	192	4
NMSCR	63	192	4	96	96	0
NMSTR	63	288	0
NMSCR	63	288	0	96	96	4
NMTAP	64	0	4
NMTAP	64	96	0
NMTAP	64	192	2
NMTAP	64	192	6
NMSTR	64	288	7
BRSCL	64	288	7	96	96	3
NMSTR	65	0	3
BRSCL	65	0	3	96	96	7
NMSTR	65	96	7
BRSCL	65	96	7	96	96	3
NMSTR	65	192	3
BRSCL	65	192	3	96	96	7
NMSTR	65	288	7
BRSCL	65	288	7	96	96	3
NMTAP	66	0	3
NMTAP	66	96	7
NMTAP	66	192	1
NMTAP	66	192	5
NMTAP	66	288	0
NMSTR	67	0	0
NMSI_	67	0	0	96	48	2
NMSI_	67	0	0	96	48	4
NMSTR	67	192	7
NMSI_	67	192	7	96	48	3
NMSI_	67	192	7	96	48	5
NMSTR	68	0	0
NMSI_	68	0	0	96	48	2
NMSI_	68	0	0	96	48	4
EXTAP	68	192	6
NMHLD	68	288	6	96
NMHLD	68	288	7	96
BRTAP	69	96	0
BRTAP	69	96	5
NMTAP	69	192	2
NMTAP	69	192	3
NMHLD	69	288	1	96
NMHLD	70	0	3	96
NMHLD	70	96	4	96
NMHLD	70	192	6	96
NMSTR	70	288	0
NMSSL	70	288	0	96	192	4
NMSTR	72	0	6
NMSCL	72	0	6	96	192	2
NMTAP	72	192	0
NMSTR	73	0	1
NMSCR	73	0	1	96	192	5
NMTAP	73	192	7
NMSTR	74	0	6
NMSCL	74	0	6	96	192	2
NMTAP	74	192	0
NMHLD	75	0	1	96
NMTAP	75	96	3
NMTAP	75	192	2
NMTAP	75	192	4
EXTAP	75	288	1
EXTAP	75	288	3
NMSTR	76	0	2
NMSCL	76	0	2	96	192	6
NMTAP	76	192	4
NMSTR	77	0	5
NMSCR	77	0	5	96	192	1
NMTAP	77	192	3
NMSTR	78	0	2
NMSCL	78	0	2	96	192	6
NMTAP	78	192	4
NMSTR	79	0	5
NMSI_	79	0	5	96	96	0
NMHLD	79	336	7	288
NMTAP	80	240	0
NMHLD	80	288	0	1056
NMTTP	81	0	4	E	0	M1
NMTTP	81	96	5	E	0	M1
NMTTP	81	192	6	E	0	M1
NMTTP	81	288	7	E	0	M1
NMTTP	82	0	0	E	0	M1
NMTTP	82	96	1	E	0	M1
NMTTP	82	192	2	E	0	M1
NMTTP	82	288	3	E	0	M1
NMTTP	83	0	4	E	0	M1
NMTTP	83	96	5	E	0	M1
NMTTP	83	192	6	E	0	M1
EXTAP	83	288	6
EXTAP	83	288	7
EXTAP	83	336	6
EXTAP	83	336	7
NMTAP	84	48	0
NMTAP	84	48	7
NMTAP	84	96	0
NMTAP	84	96	7
NMSTR	84	192	0
NMSI_	84	192	0	96	48	5
NMSTR	84	192	1
NMSI_	84	192	1	96	48	4
EXTAP	84	288	0
EXTAP	84	288	1
NMSTR	85	0	6
NMSI_	85	0	6	96	48	3
NMSTR	85	96	2
NMSI_	85	96	2	96	48	7
NMSTR	85	192	5
NMSI_	85	192	5	96	48	2
NMTAP	85	288	0
NMHLD	85	336	0	96
NMTAP	86	48	3
NMSTR	86	96	3
NMSI_	86	96	3	96	48	0
NMSI_	86	96	3	96	48	6
EXTAP	86	288	1
EXTAP	86	288	5
NMSTR	87	0	4
NMSXL	87	0	4	96	96	4
NMSXR	87	0	4	96	96	4
EXTAP	87	288	3
EXTAP	87	288	5
EXTAP	87	336	3
NMSTR	87	336	5
NMSCR	87	336	5	96	48	0
NMSTR	88	48	1
NMSCR	88	48	1	96	48	4
NMTAP	88	144	7
NMTAP	88	192	7
NMSTR	88	288	6
NMSI_	88	288	6	96	48	3
NMSTR	88	288	7
NMSI_	88	288	7	96	48	3
EXTAP	89	0	6
EXTAP	89	0	7
BXTAP	89	96	2
BXTAP	89	96	4
NMTAP	89	144	2
NMTAP	89	144	4
NMTAP	89	192	2
NMTAP	89	192	4
NMSTR	89	288	0
NMSI_	89	288	0	96	48	4
NMSTR	89	288	1
NMSI_	89	288	1	96	48	4
EXTAP	90	0	0
EXTAP	90	0	1
BXTAP	90	96	3
BXTAP	90	96	5
NMTAP	90	144	3
NMTAP	90	144	5
NMTAP	90	192	3
NMTAP	90	192	5
NMTAP	90	288	6
NMTAP	90	288	7
NMSTR	91	0	0
NMSLR	91	0	0	96	96	4
NMTAP	91	0	5
NMSTR	91	96	4
NMSLR	91	96	4	96	96	0
NMSTR	91	192	0
NMSLR	91	192	0	96	96	4
NMSTR	91	288	4
NMSLR	91	288	4	96	96	0
NMTAP	92	0	0
NMTAP	92	96	4
NMTAP	92	192	2
NMTAP	92	192	6
NMSTR	92	288	1
NMSI_	92	288	1	96	48	4
NMSTR	92	288	7
NMSI_	92	288	7	96	48	4
EXTAP	93	0	1
EXTAP	93	0	7
BXTAP	93	96	3
BXTAP	93	96	5
NMTAP	93	144	3
NMTAP	93	144	5
NMTAP	93	192	3
NMTAP	93	192	5
NMSTR	93	288	0
NMSI_	93	288	0	96	48	3
NMSTR	93	288	6
NMSI_	93	288	6	96	48	3
EXTAP	94	0	0
EXTAP	94	0	6
BXTAP	94	96	2
BXTAP	94	96	4
NMTAP	94	144	2
NMTAP	94	144	4
NMTAP	94	192	2
NMTAP	94	192	4
NMTAP	94	288	1
NMTAP	94	288	7
NMSTR	95	0	6
NMSI_	95	0	6	96	48	2
NMSTR	95	96	0
NMSI_	95	96	0	96	48	4
NMSTR	95	192	7
NMSI_	95	192	7	96	48	3
NMSTR	95	288	1
NMSCR	95	288	1	96	192	0
NMSTR	96	288	0
NMSUR	96	288	0	96	96	5
NMSTR	96	288	1
NMSCR	96	288	1	96	96	4
NMHLD	97	144	6	96
NMTAP	97	240	7
NMSTR	97	288	6
NMSCL	97	288	6	96	96	3
NMSTR	97	288	7
NMSUL	97	288	7	96	96	2
NMHLD	98	144	1	96
NMTAP	98	240	0
NMSTR	98	288	0
NMSI_	98	288	0	96	48	4
NMSTR	98	288	1
NMSI_	98	288	1	96	48	5
NMSTR	99	96	6
NMSI_	99	96	6	96	48	2
NMSTR	99	96	7
NMSI_	99	96	7	96	48	3
NMTAP	99	288	1
NMSTR	99	336	1
NMSI_	99	336	1	96	48	5
NMSTR	100	48	4
NMSCR	100	48	4	96	48	7
NMTAP	100	144	2
NMTAP	100	192	2
NMSTR	100	288	3
NMSI_	100	288	3	96	48	0
NMSTR	100	288	7
NMSI_	100	288	7	96	48	4
EXTAP	101	0	3
EXTAP	101	0	7

T_REC_TAP	277
T_REC_BRK	13
T_REC_XTP	48
T_REC_BXX	26
T_REC_HLD	44
T_REC_XHO	0
T_REC_BHO	2
T_REC_BXH	0
T_REC_STR	97
T_REC_BST	1
T_REC_XST	3
T_REC_XBS	0
T_REC_TTP	11
T_REC_THO	0
T_REC_SLD	100
T_REC_BSL	7
T_REC_ALL	629
T_NUM_TAP	436
T_NUM_BRK	49
T_NUM_HLD	44
T_NUM_SLD	100
T_NUM_ALL	629
T_JUDGE_TAP	476
T_JUDGE_HLD	167
T_JUDGE_SLD	107
T_JUDGE_ALL	750
TTM_EACHPAIRS	140
TTM_SCR_TAP	218000
TTM_SCR_BRK	127400
TTM_SCR_HLD	44000
TTM_SCR_SLD	150000
TTM_SCR_ALL	539400
TTM_SCR_S	518500
TTM_SCR_SS	534500
TTM_RAT_ACV	10091

