VERSION	0.00.00	1.04.00
FES_MODE	0
BPM_DEF	166.000	166.000	167.000	150.000
MET_DEF	4	4
RESOLUTION	384
CLK_DEF	384
COMPATIBLE_CODE	MA2

BPM	0	0	166.000
BPM	54	192	158.500
BPM	54	288	150.000
BPM	71	0	156.000
BPM	71	288	158.000
BPM	80	144	166.000
BPM	80	288	167.000
BPM	81	0	166.000

EXHLD	1	0	1	576
EXTAP	1	0	4
NMTAP	1	192	3
NMTAP	1	288	3
NMTAP	2	0	4
NMSTR	2	96	4
NMSV_	2	96	4	96	96	5
EXTAP	3	0	3
EXHLD	3	0	6	576
NMTAP	3	192	4
NMTAP	3	288	4
NMTAP	4	0	3
NMSTR	4	96	3
NMSV_	4	96	3	96	96	2
EXHLD	5	0	1	576
EXTAP	5	0	4
NMTAP	5	192	3
NMTAP	5	288	4
NMTAP	6	0	5
NMSTR	6	96	5
NMSV_	6	96	5	96	96	4
EXTAP	7	0	3
EXHLD	7	0	6	576
NMTAP	7	192	4
NMTAP	7	288	3
NMTAP	8	0	2
NMSTR	8	96	2
NMSV_	8	96	2	96	96	3
EXHLD	9	0	2	96
EXHLD	9	0	7	96
EXHLD	9	192	0	96
EXHLD	9	192	5	96
NMTAP	9	336	4
NMTAP	9	336	6
NMTAP	10	48	1
NMTAP	10	48	3
NMTAP	10	144	3
NMTAP	10	144	4
NMTAP	10	192	3
NMTAP	10	192	4
BRTAP	10	288	2
BRTAP	10	288	7
NMTTP	11	0	5	B	0	M1
NMTTP	11	0	6	B	0	M1
NMTTP	11	0	7	B	0	M1
NMTTP	11	192	0	B	0	M1
NMTTP	11	192	1	B	0	M1
NMTTP	11	192	2	B	0	M1
NMTTP	12	0	4	B	0	M1
NMTTP	12	0	5	B	0	M1
NMTTP	12	0	6	B	0	M1
NMTTP	12	192	1	B	0	M1
NMTTP	12	192	2	B	0	M1
NMTTP	12	192	3	B	0	M1
EXTAP	13	0	5
NMTAP	13	96	5
NMTAP	13	192	4
NMTAP	13	192	6
NMTAP	14	0	2
NMTAP	14	96	2
NMTAP	14	192	1
NMTAP	14	192	3
NMHLD	15	0	6	96
NMTAP	15	96	4
NMHLD	15	192	2	96
NMSTR	15	288	4
NMSLL	15	288	4	96	192	7
NMTAP	17	0	2
NMTAP	17	96	2
NMTAP	17	192	1
NMTAP	17	192	3
NMTAP	18	0	5
NMTAP	18	96	5
NMTAP	18	192	4
NMTAP	18	192	6
NMHLD	19	0	1	96
NMTAP	19	96	3
NMHLD	19	192	5	96
NMSTR	19	288	3
NMSXL	19	288	3	96	192	0
EXHLD	21	0	4	72
EXHLD	21	0	6	72
NMTAP	21	144	4
NMTAP	21	144	6
NMTAP	21	240	3
NMTAP	21	240	4
NMTAP	21	288	3
NMTAP	21	288	4
NMHLD	22	0	1	72
NMHLD	22	0	3	72
NMTAP	22	144	1
NMTAP	22	144	3
NMTAP	22	240	3
NMTAP	22	240	4
NMTAP	22	288	3
NMTAP	22	288	4
NMSTR	23	0	6
NMSI_	23	0	6	96	48	2
NMSTR	23	192	0
NMSI_	23	192	0	96	48	4
NMSTR	24	0	5
NMSUR	24	0	5	96	96	2
EXHLD	25	0	1	72
EXHLD	25	0	3	72
NMTAP	25	144	1
NMTAP	25	144	2
NMTAP	25	240	3
NMTAP	25	240	4
NMTAP	25	288	3
NMTAP	25	288	4
NMHLD	26	0	4	72
NMHLD	26	0	6	72
NMTAP	26	144	5
NMTAP	26	144	6
NMTAP	26	240	3
NMTAP	26	240	4
NMTAP	26	288	3
NMTAP	26	288	4
NMSTR	27	0	1
NMSI_	27	0	1	96	48	5
NMSTR	27	192	7
NMSI_	27	192	7	96	48	3
NMHLD	28	0	2	96
NMTAP	28	96	3
BRTAP	28	192	1
BRTAP	28	192	4
NMHLD	29	0	6	192
NMTAP	29	144	4
NMTAP	29	192	4
EXTAP	29	288	5
EXTAP	29	288	6
NMHLD	30	0	6	192
NMTAP	30	144	4
NMTAP	30	192	4
EXTAP	30	288	5
EXTAP	30	288	6
NMHLD	31	0	1	192
NMTAP	31	144	3
NMTAP	31	192	3
EXTAP	31	288	1
EXTAP	31	288	2
NMHLD	32	0	1	192
NMTAP	32	144	3
NMTAP	32	192	3
EXTAP	32	288	1
EXTAP	32	288	2
NMTAP	33	0	4
EXTAP	33	96	4
EXTAP	33	96	5
NMTAP	33	192	3
EXTAP	33	288	4
EXTAP	33	288	6
NMTAP	34	0	3
EXTAP	34	96	2
EXTAP	34	96	3
NMTAP	34	192	4
EXTAP	34	288	1
EXTAP	34	288	3
NMTAP	35	0	4
EXTAP	35	96	4
EXTAP	35	96	6
NMTAP	35	192	3
EXTAP	35	288	4
EXTAP	35	288	7
NMTAP	36	0	3
EXTAP	36	96	1
EXTAP	36	96	3
NMTAP	36	192	4
EXTAP	36	288	0
EXTAP	36	288	3
NMHLD	37	0	2	96
NMHLD	37	0	3	96
NMTAP	37	144	4
NMTAP	37	144	5
NMTAP	37	192	4
NMTAP	37	192	5
NMTAP	37	288	1
NMTAP	37	288	3
NMTAP	37	336	1
NMTAP	37	336	3
NMTAP	38	48	4
NMTAP	38	48	6
NMTAP	38	96	4
NMTAP	38	96	6
EXTAP	38	192	0
EXTAP	38	192	5
BXTAP	39	0	0
BXTAP	39	0	1
NMTAP	39	96	2
NMTAP	39	96	3
NMTAP	39	192	4
NMTAP	39	192	5
NMTAP	39	288	6
NMTAP	39	288	7
NMTAP	39	336	6
NMTAP	39	336	7
NMTAP	40	48	5
NMTAP	40	96	4
NMTAP	40	144	3
NMHLD	40	192	2	96
NMTAP	40	288	3
NMHLD	41	0	5	96
NMTAP	41	96	4
NMTAP	41	192	2
NMTAP	41	192	3
NMTAP	41	288	4
NMTAP	41	288	6
NMTAP	41	336	4
NMTAP	41	336	6
NMTAP	42	48	1
NMTAP	42	48	3
NMHLD	42	96	1	96
NMTAP	42	96	3
BRTAP	42	192	0
BRTAP	42	288	2
BRTAP	42	288	7
BXTAP	43	0	6
BXTAP	43	0	7
NMTAP	43	96	4
NMTAP	43	96	5
NMTAP	43	192	2
NMTAP	43	192	3
NMTAP	43	288	0
NMTAP	43	288	1
NMTAP	43	336	0
NMTAP	43	336	1
NMTAP	44	48	2
NMTAP	44	96	3
NMTAP	44	144	4
NMSTR	44	192	5
NMSI_	44	192	5	96	48	7
NMTAP	44	288	4
NMSTR	45	0	2
NMSI_	45	0	2	96	48	0
NMTAP	45	96	3
NMTAP	45	192	5
NMTAP	45	192	7
NMTAP	45	288	2
NMTAP	45	288	3
NMTAP	45	336	2
NMTAP	45	336	3
NMTAP	46	48	4
NMTAP	46	48	5
NMTAP	46	144	1
NMTAP	46	144	7
BRTAP	46	192	1
BRSTR	46	192	7
NMSI_	46	192	7	96	48	3
EXHLD	47	0	2	288
NMTTP	47	96	4	E	0	M1
NMTTP	47	192	1	B	0	M1
NMTTP	47	288	0	D	0	M1
NMHLD	48	0	5	288
NMTTP	48	96	4	E	0	M1
NMTTP	48	192	6	B	0	M1
NMTTP	48	288	0	D	0	M1
NMTAP	49	0	2
NMTAP	49	96	1
NMTAP	49	96	3
NMTAP	49	192	0
NMTAP	49	192	4
NMTAP	49	288	5
NMTAP	49	288	7
NMSTR	50	0	6
NMSXL	50	0	6	96	192	3
EXHLD	51	0	2	288
NMTTP	51	96	4	E	0	M1
NMTTP	51	192	2	E	0	M1
NMTTP	51	288	0	D	0	M1
NMHLD	52	0	5	288
NMTTP	52	96	4	E	0	M1
NMTTP	52	192	6	E	0	M1
NMTTP	52	288	0	D	0	M1
NMTAP	53	0	0
NMTAP	53	0	7
NMTAP	53	96	1
NMTAP	53	96	6
NMTAP	53	192	2
NMTAP	53	192	5
NMTAP	53	288	3
NMTAP	53	288	4
NMSTR	53	336	3
NMSI_	53	336	3	96	48	0
NMTAP	53	336	4
EXTAP	54	192	1
EXTAP	54	192	5
BXTAP	54	288	0
BXTAP	54	288	7
EXHLD	55	0	2	96
EXHLD	55	0	6	480
NMHLD	55	192	4	96
NMHLD	56	0	7	96
EXTAP	56	192	5
EXTAP	56	192	6
EXTAP	56	288	3
EXTAP	56	288	4
EXHLD	57	0	1	480
EXHLD	57	0	5	96
NMHLD	57	192	3	96
NMHLD	58	0	0	96
EXTAP	58	192	1
EXTAP	58	192	2
EXTAP	58	288	3
EXTAP	58	288	4
EXHLD	59	0	2	480
EXHLD	59	0	6	96
NMHLD	59	192	3	96
NMHLD	60	0	1	96
EXTAP	60	192	0
EXTAP	60	192	3
EXTAP	60	288	2
EXTAP	60	288	6
EXHLD	61	0	1	96
EXHLD	61	0	5	480
NMHLD	61	192	4	96
NMHLD	62	0	6	96
EXTAP	62	192	4
EXTAP	62	192	7
EXTAP	62	288	1
EXTAP	62	288	5
EXHLD	63	0	2	96
EXHLD	63	0	7	480
NMTAP	63	192	4
NMTAP	63	240	4
NMTAP	63	288	4
NMTAP	64	0	5
NMTAP	64	48	5
NMTAP	64	96	5
EXTAP	64	192	4
EXTAP	64	192	7
EXTAP	64	288	2
EXTAP	64	288	6
EXHLD	65	0	0	480
EXHLD	65	0	5	96
NMTAP	65	192	3
NMTAP	65	240	3
NMTAP	65	288	3
NMTAP	66	0	2
NMTAP	66	48	2
NMTAP	66	96	2
EXTAP	66	192	0
EXTAP	66	192	3
EXTAP	66	288	1
EXTAP	66	288	5
EXHLD	67	0	2	96
EXHLD	67	0	7	480
NMTAP	67	192	4
NMTAP	67	240	4
NMTAP	67	288	4
NMTAP	68	0	5
NMTAP	68	48	5
NMTAP	68	96	5
EXTAP	68	192	4
EXTAP	68	192	7
EXTAP	68	288	2
EXTAP	68	288	6
EXHLD	69	0	0	480
EXHLD	69	0	5	96
NMTAP	69	192	3
NMTAP	69	240	3
NMTAP	69	288	3
NMTAP	70	0	2
NMTAP	70	48	2
NMTAP	70	96	2
BRTAP	70	192	1
BRTAP	70	192	5
NMTTP	71	0	6	E	0	M1
NMTTP	71	96	2	E	0	M1
NMTTP	71	192	3	B	0	M1
NMTTP	71	192	4	B	0	M1
NMTTP	71	192	4	E	0	M1
NMSTR	72	0	6
NMSCR	72	0	6	96	96	2
CNSUR	72	192	2	0	384	4
NMSTR	74	0	1
NMSCL	74	0	1	96	96	5
CNSUL	74	192	5	0	384	3
NMTTP	76	0	4	D	0	M1
NMTTP	76	192	3	E	0	M1
NMTTP	76	192	5	E	0	M1
NMTTP	77	0	2	E	0	M1
NMTTP	77	0	6	E	0	M1
NMTTP	77	192	1	E	0	M1
NMTTP	77	192	7	E	0	M1
NMTTP	78	0	0	B	0	M1
NMTTP	78	0	7	B	0	M1
NMTTP	78	192	2	E	0	M1
NMTTP	78	192	6	E	0	M1
NMTHO	79	0	0	336	C	0	M1
NMHLD	81	0	4	768
NMTAP	81	96	2
NMTAP	81	192	3
NMTAP	81	288	2
NMTAP	82	0	3
NMTAP	82	96	2
NMTAP	82	192	3
NMTAP	82	288	2
NMHLD	83	0	3	192
NMTAP	83	96	5
NMTAP	83	192	6
NMTAP	83	288	4
NMTAP	83	288	7
BXTAP	83	336	4
BXSTR	83	336	7
NMSI_	83	336	7	96	48	3
EXTAP	84	192	2
EXTAP	84	192	4
EXTAP	84	288	0
EXTAP	84	288	6
BRTAP	85	0	0
BRTAP	85	0	1
NMTAP	85	96	0
NMTAP	85	96	5
NMTAP	85	192	2
NMHLD	85	192	7	144
NMTAP	85	288	4
NMTAP	85	336	4
NMTAP	86	48	6
NMTAP	86	96	5
NMTAP	86	144	4
NMSTR	86	192	3
NMSI_	86	192	3	96	48	1
NMTAP	86	288	0
NMSTR	87	0	7
NMSI_	87	0	7	96	48	5
NMTAP	87	96	4
NMTAP	87	192	3
NMTAP	87	192	4
NMTAP	87	288	2
NMTAP	87	288	3
NMTAP	87	336	2
NMTAP	87	336	3
NMTAP	88	48	4
NMTAP	88	48	5
NMTAP	88	144	1
NMTAP	88	144	7
EXTAP	88	192	1
EXSTR	88	192	7
NMSI_	88	192	7	96	48	3
EXTAP	89	0	2
EXTAP	89	0	4
BXTAP	89	96	1
EXHLD	89	96	7	96
NMTAP	89	192	4
NMTAP	89	240	4
BXTAP	89	288	6
EXTAP	90	0	2
EXTAP	90	0	4
EXHLD	90	96	0	96
BXTAP	90	96	6
NMTAP	90	192	3
NMTAP	90	240	3
BXTAP	90	288	1
NMTAP	91	0	3
NMTAP	91	0	4
BXTAP	91	96	5
BXTAP	91	96	7
NMTAP	91	192	3
NMTAP	91	192	4
BXTAP	91	288	5
BXTAP	91	288	7
NMTAP	92	0	3
NMTAP	92	0	4
BXTAP	92	96	0
BXTAP	92	96	2
NMTAP	92	192	3
NMTAP	92	192	4
BXTAP	92	288	0
BXTAP	92	288	2
EXTAP	93	0	3
EXTAP	93	0	5
EXHLD	93	96	0	96
BXTAP	93	96	6
NMTAP	93	192	3
NMTAP	93	240	3
BXTAP	93	288	1
EXTAP	94	0	3
EXTAP	94	0	5
BXTAP	94	96	1
EXHLD	94	96	7	96
NMTAP	94	192	4
NMTAP	94	240	4
BXTAP	94	288	6
NMTAP	95	0	3
NMTAP	95	0	4
BXTAP	95	96	0
BXTAP	95	96	5
NMTAP	95	192	3
NMTAP	95	192	4
BXTAP	95	288	2
BXTAP	95	288	7
EXTAP	95	336	2
EXTAP	95	336	7
EXTAP	96	48	0
EXTAP	96	48	5
EXTAP	96	144	2
EXTAP	96	144	6
EXTAP	96	192	2
EXTAP	96	192	6
BXTAP	96	288	0
BXTAP	96	288	7
NMTTP	97	0	1	E	0	M1
NMTTP	97	96	2	B	0	M1
NMTTP	97	192	4	D	0	M1
NMTTP	98	0	7	E	0	M1
NMTTP	98	96	5	B	0	M1
NMTTP	98	192	4	D	0	M1
NMTAP	99	0	1
NMTAP	99	96	7
NMTAP	99	192	5
NMTAP	99	288	3
NMSTR	99	336	3
NMSXL	99	336	3	96	192	3
NMSXR	99	336	3	96	192	3
BXTAP	101	0	7

T_REC_TAP	230
T_REC_BRK	12
T_REC_XTP	82
T_REC_BXX	30
T_REC_HLD	31
T_REC_XHO	34
T_REC_BHO	0
T_REC_BXH	0
T_REC_STR	20
T_REC_BST	1
T_REC_XST	1
T_REC_XBS	1
T_REC_TTP	46
T_REC_THO	1
T_REC_SLD	24
T_REC_BSL	0
T_REC_ALL	513
T_NUM_TAP	379
T_NUM_BRK	44
T_NUM_HLD	66
T_NUM_SLD	24
T_NUM_ALL	513
T_JUDGE_TAP	423
T_JUDGE_HLD	282
T_JUDGE_SLD	24
T_JUDGE_ALL	729
TTM_EACHPAIRS	145
TTM_SCR_TAP	189500
TTM_SCR_BRK	114400
TTM_SCR_HLD	66000
TTM_SCR_SLD	36000
TTM_SCR_ALL	405900
TTM_SCR_S	389500
TTM_SCR_SS	401500
TTM_RAT_ACV	10109

