VERSION	0.00.00	1.04.00
FES_MODE	0
BPM_DEF	160.000	160.000	160.000	160.000
MET_DEF	4	4
RESOLUTION	384
CLK_DEF	384
COMPATIBLE_CODE	MA2

BPM	0	0	160.000
MET	0	0	4	4

NMSTR	1	0	3
BRSXR	1	0	3	96	48	1
NMSTR	1	0	4
BRSXL	1	0	4	96	48	6
NMTTP	1	192	0	C	0	M1
NMTTP	1	192	3	B	0	M1
NMTTP	1	192	4	B	0	M1
NMTAP	1	288	0
NMTAP	1	288	7
NMSTR	2	0	1
NMSCR	2	0	1	96	48	4
NMSTR	2	96	5
NMSCR	2	96	5	96	48	0
NMTAP	2	192	3
NMSTR	2	240	3
NMSXL	2	240	3	96	48	5
NMSXR	2	240	3	96	48	1
EXTAP	3	48	2
EXTAP	3	48	4
NMTAP	3	144	3
NMTAP	3	144	5
NMTAP	3	192	3
NMTAP	3	192	5
NMTAP	3	240	6
NMTAP	3	288	4
NMTAP	3	288	7
NMSTR	4	0	6
NMSI_	4	0	6	96	48	4
NMSTR	4	96	0
NMSI_	4	96	0	96	48	2
NMTAP	4	192	7
NMSTR	4	240	7
NMSUL	4	240	7	96	48	3
NMSUR	4	240	7	96	48	3
NMTAP	4	336	7
EXTAP	5	48	1
EXTAP	5	48	5
NMTAP	5	144	2
NMTAP	5	144	6
NMTAP	5	192	2
NMTAP	5	192	6
NMTAP	5	240	3
NMTAP	5	288	4
NMSTR	5	288	7
NMSI_	5	288	7	96	48	4
NMSTR	6	0	2
NMSI_	6	0	2	96	48	7
NMSTR	6	96	6
NMSI_	6	96	6	96	48	3
NMTAP	6	192	0
NMSTR	6	240	0
NMSSL	6	240	0	96	96	4
NMTAP	6	336	5
NMTAP	7	48	6
NMTAP	7	144	0
NMTAP	7	144	7
NMTAP	7	192	0
NMTAP	7	192	7
NMTAP	7	240	6
NMTAP	7	288	3
NMTAP	7	288	5
NMSTR	8	0	2
NMSI_	8	0	2	96	48	5
NMTAP	8	0	4
NMSTR	8	96	6
NMSI_	8	96	6	96	48	1
NMTAP	8	192	3
NMSTR	8	240	3
NMSCL	8	240	3	96	48	0
NMSCR	8	240	3	96	48	6
EXTAP	9	48	1
EXTAP	9	48	5
BXTAP	9	96	1
BXTAP	9	96	5
NMTAP	9	192	4
NMTAP	9	192	6
NMTAP	9	264	7
NMTAP	9	288	0
NMTAP	9	336	1
NMTAP	9	336	3
NMTAP	10	0	1
NMTAP	10	0	3
NMTAP	10	96	0
NMTAP	10	96	6
NMTAP	10	192	1
NMTAP	10	192	7
NMTAP	10	240	1
NMTAP	10	240	7
NMTAP	10	336	4
NMTAP	10	336	6
NMTAP	11	0	2
NMTAP	11	24	3
NMSTR	11	48	1
NMSI_	11	48	1	96	48	5
NMTAP	11	72	4
NMTAP	11	96	0
CNSI_	11	192	5	0	48	2
CNSI_	11	240	2	0	48	4
NMTAP	11	288	7
NMTAP	11	336	7
NMTAP	12	0	4
NMTAP	12	0	6
NMTAP	12	96	0
NMTAP	12	96	1
NMTAP	12	192	1
NMTAP	12	192	3
NMTAP	12	240	1
NMTAP	12	240	3
NMTAP	12	336	0
NMTAP	12	336	4
NMSTR	13	0	0
NMSI_	13	0	0	96	48	3
NMTAP	13	0	4
NMSTR	13	96	6
NMSI_	13	96	6	96	48	4
CNSI_	13	144	3	0	48	1
CNSI_	13	240	4	0	48	7
CNSI_	13	288	7	0	48	3
CNSI_	13	336	3	0	48	0
EXTAP	14	0	2
NMTAP	14	96	1
NMTAP	14	96	7
NMTAP	14	192	0
NMTAP	14	192	6
NMTAP	14	240	0
NMTAP	14	240	6
NMTAP	14	336	1
NMTAP	14	336	3
NMTAP	15	0	5
NMTAP	15	24	4
NMSTR	15	48	6
NMSI_	15	48	6	96	48	2
NMTAP	15	72	3
NMTAP	15	96	7
CNSI_	15	192	2	0	48	5
CNSI_	15	240	5	0	48	3
NMTAP	15	288	1
NMTAP	15	336	1
NMTAP	16	0	0
NMTAP	16	0	1
NMTAP	16	96	4
NMTAP	16	96	5
NMTAP	16	192	2
NMTAP	16	192	3
NMTAP	16	240	2
NMTAP	16	240	3
NMSTR	16	288	1
NMSI_	16	288	1	96	48	6
NMTAP	16	336	0
CNSI_	17	48	6	0	48	2
CNSI_	17	96	2	0	48	5
CNSI_	17	144	5	0	48	3
NMTAP	17	192	7
BRSTR	17	288	3
NMSI_	17	288	3	96	192	7
NMSI_	17	288	3	96	192	7
CNSCL	18	192	7	0	288	5
CNSCR	18	192	7	0	288	1
NMSTR	19	288	2
NMSI_	19	288	2	96	216	5
NMHLD	20	0	6	1920
CNSCL	20	216	5	0	360	1
NMTTP	22	0	4	B	0	M1
NMTTP	22	192	1	B	0	M1
NMTTP	22	192	2	E	0	M1
NMTTP	23	0	2	B	0	M1
NMTTP	23	0	3	B	0	M1
NMTTP	23	0	3	E	0	M1
EXSTR	23	288	3
NMSV_	23	288	3	96	96	1
CNSCL	24	96	1	0	192	5
NMTAP	25	0	4
NMHLD	25	96	3	96
NMHLD	25	96	5	96
NMTAP	25	240	2
NMTAP	25	240	6
BRTAP	25	288	1
BRTAP	25	288	7
NMSTR	26	0	0
NMSXL	26	0	0	96	96	0
NMTAP	26	96	6
NMSTR	26	192	7
NMSXR	26	192	7	96	96	7
NMTAP	26	288	0
NMTAP	27	0	1
NMTAP	27	48	1
NMTAP	27	96	3
NMTAP	27	144	2
NMTAP	27	192	4
NMTAP	27	240	2
NMTAP	27	288	1
NMTAP	27	288	5
NMSTR	28	0	3
NMSV_	28	0	3	96	48	0
NMTAP	28	96	5
CNSCR	28	144	0	0	48	2
NMSTR	28	192	4
NMSV_	28	192	4	96	48	7
NMTAP	28	288	2
CNSI_	28	336	7	0	48	5
NMTAP	29	0	3
NMTAP	29	48	3
NMTAP	29	96	5
NMTAP	29	144	4
NMTAP	29	192	6
NMTAP	29	240	4
NMTAP	29	288	3
NMTAP	29	288	7
NMSTR	30	0	2
NMSI_	30	0	2	96	48	4
NMTAP	30	96	5
NMTAP	30	192	3
NMSTR	30	192	6
NMSI_	30	192	6	96	48	3
NMTAP	30	288	2
NMSTR	31	0	1
NMSI_	31	0	1	96	48	4
NMTAP	31	0	4
NMTAP	31	96	6
NMTAP	31	192	3
NMSTR	31	192	7
NMSCL	31	192	7	96	48	3
NMTAP	31	288	1
NMHLD	32	0	0	96
NMTAP	32	96	4
EXSTR	32	192	1
NMSCR	32	192	1	96	48	4
EXSTR	32	192	5
NMSCR	32	192	5	96	48	0
EXSTR	32	288	1
NMSLL	32	288	1	96	144	4
EXSTR	32	288	5
NMSLL	32	288	5	96	144	0
NMTTP	33	192	1	B	0	M1
NMTTP	33	192	2	B	0	M1
NMTTP	33	192	2	E	0	M1
NMTTP	33	192	5	B	0	M1
NMTTP	33	192	6	B	0	M1
NMTTP	33	192	6	E	0	M1
EXSTR	33	288	0
NMSCR	33	288	0	96	48	3
EXTAP	33	288	7
NMTAP	34	0	0
NMSTR	34	0	4
NMSCR	34	0	4	96	48	7
NMTAP	34	96	2
NMTAP	34	96	4
NMTAP	34	192	3
NMSTR	34	240	3
NMSXL	34	240	3	96	48	5
NMSXR	34	240	3	96	48	1
NMTAP	35	48	2
NMTAP	35	48	3
NMTAP	35	144	3
NMTAP	35	144	4
NMTAP	35	192	3
NMTAP	35	192	4
NMTAP	35	240	5
NMTAP	35	288	2
NMTAP	35	288	6
NMTAP	36	0	3
NMSTR	36	0	7
NMSI_	36	0	7	96	48	3
NMSTR	36	96	4
NMSI_	36	96	4	96	48	1
NMTAP	36	96	7
NMTAP	36	192	6
NMSTR	36	240	6
NMSI_	36	240	6	96	48	1
NMSI_	36	240	6	96	48	3
EXTAP	37	48	0
NMTAP	37	144	4
NMTAP	37	144	6
NMTAP	37	192	3
NMTAP	37	240	2
NMTAP	37	288	1
NMSTR	37	288	7
NMSCL	37	288	7	96	48	4
NMSTR	38	0	3
NMSCL	38	0	3	96	48	0
NMTAP	38	0	7
NMTAP	38	96	3
NMTAP	38	192	6
NMTAP	38	192	7
NMSTR	38	240	6
NMSI_	38	240	6	96	48	2
NMSTR	38	240	7
NMSI_	38	240	7	96	48	3
NMTAP	38	336	6
NMTAP	38	336	7
NMTAP	39	48	1
NMTAP	39	48	4
NMTAP	39	144	3
NMTAP	39	144	6
NMTAP	39	192	3
NMTAP	39	192	6
NMTAP	39	240	2
NMTAP	39	288	1
NMTAP	39	288	4
NMSTR	40	0	3
NMSCL	40	0	3	96	48	0
NMSTR	40	0	6
NMSCL	40	0	6	96	48	3
NMTAP	40	96	3
NMTAP	40	96	6
NMTAP	40	192	7
NMSTR	40	240	7
NMSV_	40	240	7	96	48	2
NMSV_	40	240	7	96	48	4
NMTAP	40	336	7
NMTAP	41	48	1
NMTAP	41	48	5
NMSTR	41	96	1
NMSI_	41	96	1	96	48	4
NMSTR	41	96	5
NMSI_	41	96	5	96	48	0
NMTAP	41	192	1
NMTAP	41	192	5
NMTTP	41	288	3	B	0	M1
NMTTP	41	288	4	B	0	M1
NMTTP	41	288	4	E	0	M1
NMTTP	42	0	6	E	0	M1
NMTTP	42	48	5	B	0	M1
NMTTP	42	96	4	B	0	M1
NMTTP	42	192	2	E	0	M1
NMTTP	42	240	2	B	0	M1
NMTTP	42	288	3	B	0	M1
NMTTP	43	0	7	E	0	M1
NMTTP	43	48	6	E	0	M1
NMTTP	43	96	5	E	0	M1
NMTTP	43	144	4	E	0	M1
NMTTP	43	192	3	E	0	M1
NMTTP	43	240	2	E	0	M1
NMTTP	43	288	1	E	0	M1
NMTTP	44	0	6	B	0	M1
NMTTP	44	48	5	B	0	M1
NMTTP	44	96	4	B	0	M1
NMTTP	44	192	0	B	0	M1
NMTTP	44	240	1	B	0	M1
NMTTP	44	288	2	B	0	M1
NMTTP	45	0	7	E	0	M1
NMTTP	45	0	7	D	0	M1
NMTTP	45	48	6	E	0	M1
NMTTP	45	48	6	D	0	M1
NMTTP	45	96	5	E	0	M1
NMTTP	45	96	5	D	0	M1
NMTTP	45	144	4	E	0	M1
NMTTP	45	144	4	D	0	M1
NMTTP	45	192	3	E	0	M1
NMTTP	45	192	3	D	0	M1
NMTTP	45	240	2	E	0	M1
NMTTP	45	240	2	D	0	M1
NMTTP	45	288	1	E	0	M1
NMTTP	45	288	1	D	0	M1
NMSTR	46	0	5
NMSXR	46	0	5	96	192	2
NMTAP	46	96	0
NMTAP	46	192	0
NMTAP	46	288	0
NMSTR	47	0	5
NMSXR	47	0	5	96	192	2
NMTAP	47	96	7
NMTAP	47	192	7
NMTAP	47	288	7
NMSTR	48	0	6
NMSI_	48	0	6	96	48	4
NMTAP	48	96	6
NMSTR	48	96	7
NMSI_	48	96	7	96	48	3
NMSTR	48	192	6
NMSI_	48	192	6	96	48	4
NMTAP	48	192	7
NMTAP	48	288	6
NMSTR	48	288	7
NMSI_	48	288	7	96	48	2
NMSTR	49	0	6
NMSI_	49	0	6	96	48	3
NMTAP	49	0	7
NMTAP	49	96	6
NMSTR	49	96	7
BRSI_	49	96	7	96	48	2
NMTAP	49	192	5
NMTAP	49	192	7
BRTAP	49	288	1
BRTAP	49	288	4
EXTAP	50	0	2
EXTAP	50	0	3
NMTAP	50	96	0
NMTAP	50	96	6
NMTAP	50	192	4
NMTAP	50	192	5
NMTAP	50	240	4
NMTAP	50	240	5
NMTAP	50	336	1
NMTAP	50	336	4
EXTAP	51	0	2
EXTAP	51	24	3
EXTAP	51	48	1
EXTAP	51	72	3
EXTAP	51	96	0
EXTAP	51	144	5
EXTAP	51	168	4
EXTAP	51	192	6
EXTAP	51	216	4
EXTAP	51	240	7
NMTAP	51	288	2
NMTAP	51	336	2
NMTAP	52	0	1
NMTAP	52	0	4
NMTAP	52	96	3
NMTAP	52	96	6
NMTAP	52	192	2
NMTAP	52	192	3
NMTAP	52	240	2
NMTAP	52	240	3
NMTAP	52	336	1
NMTAP	52	336	4
NMHLD	53	0	1	144
NMTAP	53	0	4
NMTAP	53	72	3
NMTAP	53	144	3
NMTTP	53	240	5	B	0	M1
NMTTP	53	240	5	E	0	M1
NMTTP	53	288	7	B	0	M1
NMTTP	53	288	7	E	0	M1
EXTAP	54	0	4
EXTAP	54	0	6
NMTAP	54	96	1
NMTAP	54	96	7
NMTAP	54	192	2
NMTAP	54	192	3
NMTAP	54	240	2
NMTAP	54	240	3
NMTAP	54	336	3
NMTAP	54	336	6
EXTAP	55	0	5
EXTAP	55	24	4
EXTAP	55	48	6
EXTAP	55	72	4
EXTAP	55	96	7
EXTAP	55	144	2
EXTAP	55	168	3
EXTAP	55	192	1
EXTAP	55	216	3
EXTAP	55	240	0
NMTAP	55	288	5
NMTAP	55	336	5
NMTAP	56	0	3
NMTAP	56	0	6
NMTAP	56	96	1
NMTAP	56	96	4
NMTAP	56	192	2
NMTAP	56	192	6
NMSTR	56	240	2
NMSI_	56	240	2	96	48	0
NMSTR	56	240	6
NMSI_	56	240	6	96	48	4
EXTAP	56	336	2
EXTAP	56	336	6
NMTAP	57	48	7
NMSTR	57	96	7
NMSF_	57	96	7	96	48	3
EXSTR	57	288	1
NMSCL	57	288	1	96	48	6
EXSTR	57	288	5
NMSUR	57	288	5	96	48	2
EXSTR	58	96	0
NMSI_	58	96	0	96	48	4
EXSTR	58	96	7
NMSI_	58	96	7	96	48	3
NMTAP	58	192	0
NMTAP	58	192	7
EXTAP	58	288	1
EXTAP	58	288	6
NMSTR	59	0	5
NMSI_	59	0	5	96	48	7
NMTAP	59	48	5
NMSTR	59	96	3
NMSI_	59	96	3	96	48	1
NMTAP	59	144	3
NMSTR	59	192	4
NMSXL	59	192	4	96	48	6
NMSXR	59	192	4	96	48	2
EXTAP	60	0	3
EXTAP	60	0	5
NMSTR	60	96	2
NMSI_	60	96	2	96	48	7
NMTAP	60	96	4
NMTAP	60	192	6
NMSTR	60	240	6
NMSUL	60	240	6	96	48	2
NMTAP	60	336	6
NMTAP	60	336	7
NMTAP	61	48	0
NMTAP	61	96	0
NMTAP	61	192	3
NMTAP	61	192	5
NMTAP	61	240	6
NMSTR	61	288	7
NMSCL	61	288	7	96	48	4
NMTAP	62	0	1
NMSTR	62	0	7
NMSCR	62	0	7	96	48	2
NMTAP	62	96	5
NMTAP	62	96	7
NMTAP	62	192	1
NMSTR	62	240	0
NMSI_	62	240	0	96	48	4
NMSTR	62	240	1
NMSI_	62	240	1	96	48	5
NMTAP	62	336	0
NMTAP	62	336	1
NMTAP	63	48	3
NMTAP	63	48	6
NMTAP	63	144	1
NMTAP	63	144	4
NMTAP	63	192	2
NMTAP	63	240	3
NMTAP	63	240	5
NMSTR	63	288	3
NMSCL	63	288	3	96	48	1
NMTAP	63	288	5
NMTAP	64	0	3
NMSTR	64	0	4
NMSCR	64	0	4	96	48	6
NMSTR	64	96	3
NMSI_	64	96	3	96	48	0
NMTAP	64	96	4
NMTAP	64	192	4
NMSTR	64	240	4
NMSF_	64	240	4	96	48	0
NMTAP	65	48	2
NMTAP	65	48	6
NMTAP	65	96	2
NMTAP	65	96	6
NMTAP	65	192	4
NMTAP	65	192	5
NMTAP	65	264	2
NMSTR	65	288	3
NMSI_	65	288	3	96	48	7
NMTAP	65	336	0
NMSTR	66	0	0
NMSCR	66	0	0	96	48	3
NMTAP	66	96	6
NMTAP	66	192	4
NMTAP	66	192	5
NMTAP	66	240	4
NMTAP	66	240	5
NMTAP	66	336	2
NMTAP	66	336	7
EXTAP	67	0	1
EXTAP	67	24	0
EXTAP	67	48	2
EXTAP	67	72	0
EXTAP	67	96	3
EXTAP	67	144	6
EXTAP	67	168	7
EXTAP	67	192	5
EXTAP	67	216	7
EXTAP	67	240	4
NMSTR	67	288	0
NMSV_	67	288	0	96	48	3
NMTAP	67	336	0
NMSTR	68	0	4
NMSUR	68	0	4	96	48	0
NMTAP	68	192	2
NMTAP	68	240	2
NMTAP	68	240	3
NMTAP	68	336	1
NMTAP	68	336	4
NMTTP	69	0	2	B	0	M1
NMTTP	69	0	2	E	0	M1
NMTTP	69	0	2	A	0	M1
NMTTP	69	72	0	E	0	M1
NMTTP	69	72	7	B	0	M1
NMTTP	69	72	7	A	0	M1
NMTTP	69	144	5	B	0	M1
NMTTP	69	144	5	E	0	M1
NMTTP	69	144	5	A	0	M1
BRTAP	69	240	0
BRSTR	69	288	0
NMSUR	69	288	0	96	48	4
NMSTR	70	0	4
NMSXL	70	0	4	96	48	6
NMSXR	70	0	4	96	48	2
NMTAP	70	192	3
NMTAP	70	192	5
NMTAP	70	240	3
NMTAP	70	240	5
NMTAP	70	336	2
NMTAP	70	336	7
EXTAP	71	0	1
EXTAP	71	24	0
EXTAP	71	48	2
EXTAP	71	72	0
EXTAP	71	96	3
EXTAP	71	144	6
EXTAP	71	168	7
EXTAP	71	192	5
EXTAP	71	216	7
EXTAP	71	240	4
NMSTR	71	288	1
NMSCL	71	288	1	96	48	6
NMTAP	71	336	2
NMSTR	72	0	3
NMSXL	72	0	3	96	48	5
NMSXR	72	0	3	96	48	1
NMTAP	72	192	2
NMTAP	72	192	4
NMTAP	72	240	2
NMTAP	72	240	4
NMTAP	72	336	1
NMTAP	72	336	6
EXTAP	73	0	0
EXTAP	73	24	7
EXSTR	73	48	0
NMSI_	73	48	0	96	48	5
EXTAP	73	72	7
EXTAP	73	96	0
CNSI_	73	192	5	0	48	2
CNSI_	73	240	2	0	48	7
BXSTR	73	288	6
NMSCL	73	288	6	96	96	1
NMTTP	74	0	0	E	1	M1
EXTAP	74	192	3
EXTAP	74	192	4
EXSTR	74	240	3
NMSXR	74	240	3	96	48	1
EXSTR	74	240	4
NMSXL	74	240	4	96	48	6
EXTAP	75	48	2
EXTAP	75	48	5
NMTAP	75	96	2
NMTAP	75	96	5
NMTAP	75	144	3
NMTAP	75	144	4
NMSTR	75	192	0
BRSI_	75	192	0	96	48	2
NMSTR	75	192	7
BRSI_	75	192	7	96	48	5
BRTAP	75	288	0
BRTAP	75	288	7

T_REC_TAP	283
T_REC_BRK	7
T_REC_XTP	67
T_REC_BXX	2
T_REC_HLD	5
T_REC_XHO	0
T_REC_BHO	0
T_REC_BXH	0
T_REC_STR	76
T_REC_BST	2
T_REC_XST	13
T_REC_XBS	1
T_REC_TTP	65
T_REC_THO	0
T_REC_SLD	97
T_REC_BSL	5
T_REC_ALL	623
T_NUM_TAP	504
T_NUM_BRK	17
T_NUM_HLD	5
T_NUM_SLD	97
T_NUM_ALL	623
T_JUDGE_TAP	516
T_JUDGE_HLD	49
T_JUDGE_SLD	102
T_JUDGE_ALL	667
TTM_EACHPAIRS	138
TTM_SCR_TAP	252000
TTM_SCR_BRK	44200
TTM_SCR_HLD	5000
TTM_SCR_SLD	145500
TTM_SCR_ALL	446700
TTM_SCR_S	431650
TTM_SCR_SS	445000
TTM_RAT_ACV	10038

