VERSION	0.00.00	1.04.00
FES_MODE	0
BPM_DEF	160.000	160.000	160.000	160.000
MET_DEF	4	4
RESOLUTION	384
CLK_DEF	384
COMPATIBLE_CODE	MA2

BPM	0	0	160.000
MET	0	0	4	4

NMHLD	1	0	0	96
NMHLD	1	96	7	96
EXTAP	1	192	0
BXTAP	2	0	1
NMTAP	2	96	2
NMTAP	2	96	3
NMTAP	2	192	4
NMTAP	2	288	3
NMTAP	2	288	5
NMTAP	3	0	6
NMTAP	3	96	4
NMTAP	3	96	5
NMTAP	3	192	3
NMTAP	3	288	2
NMTAP	3	288	4
NMHLD	4	0	1	96
NMTAP	4	96	0
NMHLD	4	192	6	96
NMTAP	4	288	7
NMTAP	5	0	4
NMTAP	5	0	5
EXTAP	5	96	2
EXTAP	5	96	3
NMTAP	5	192	1
EXTAP	5	240	1
EXTAP	5	288	0
EXTAP	5	288	1
BRTAP	6	0	1
NMTAP	6	96	2
NMTAP	6	96	3
NMTAP	6	192	4
NMTAP	6	288	3
NMTAP	6	288	5
NMTAP	7	0	6
NMTAP	7	96	4
NMTAP	7	96	5
NMTAP	7	192	3
NMTAP	7	288	2
NMTAP	7	288	4
NMHLD	8	0	1	96
NMTAP	8	96	0
NMHLD	8	192	6	96
NMTAP	8	288	7
EXTAP	9	0	0
EXTAP	9	48	0
EXTAP	9	96	0
EXTAP	9	96	7
EXTAP	9	192	1
EXTAP	9	192	6
BXTAP	10	0	2
BXTAP	10	0	3
NMTAP	10	192	1
NMSTR	10	288	1
NMSI_	10	288	1	96	96	5
CNSI_	11	96	5	0	96	2
CNSI_	11	192	2	0	96	4
NMTAP	12	0	4
NMTAP	12	0	5
NMTAP	12	192	6
NMSTR	12	288	6
NMSI_	12	288	6	96	96	2
CNSI_	13	96	2	0	96	5
CNSI_	13	192	5	0	96	3
BXTAP	14	0	2
BXTAP	14	0	3
NMTAP	14	192	5
NMTAP	14	288	5
NMHLD	15	0	4	96
NMHLD	15	0	6	96
NMTAP	15	192	3
NMTAP	15	288	3
NMHLD	16	0	2	192
NMTAP	16	0	4
NMHLD	16	192	3	192
NMTAP	17	0	4
NMTAP	17	96	3
NMTAP	17	192	3
NMTAP	17	192	4
NMSTR	18	0	2
NMSXR	18	0	2	96	288	1
NMSTR	18	0	5
NMSXL	18	0	5	96	288	6
NMTAP	19	288	2
NMTAP	19	288	4
NMSTR	20	0	1
NMSI_	20	0	1	96	96	3
NMHLD	20	0	5	336
CNSV_	20	192	3	0	48	4
CNSI_	20	240	4	0	240	6
NMTTP	22	0	6	E	0	M1
NMTTP	22	96	5	B	0	M1
NMTTP	22	192	3	B	0	M1
NMTTP	22	192	3	E	0	M1
NMTTP	23	0	5	E	0	M1
NMTTP	23	96	4	B	0	M1
NMTTP	23	192	2	B	0	M1
NMTTP	23	192	2	E	0	M1
NMTHO	24	0	0	192	C	0	M1
NMTAP	25	0	0
NMTAP	25	0	7
NMHLD	25	96	1	96
NMHLD	25	96	6	96
EXTAP	25	240	0
EXTAP	25	240	7
BXTAP	25	288	0
BXTAP	25	288	7
NMSTR	26	0	0
NMSI_	26	0	0	96	96	4
NMTAP	26	288	6
NMSTR	27	0	6
NMSI_	27	0	6	96	96	2
NMTAP	27	288	1
NMSTR	28	0	0
NMSV_	28	0	0	96	96	5
NMTAP	28	288	6
NMSTR	29	0	7
NMSSR	29	0	7	96	192	3
NMHLD	30	0	2	192
NMHLD	30	96	3	96
NMTAP	30	288	2
NMTAP	30	288	3
NMHLD	31	0	5	192
NMHLD	31	96	4	96
NMTAP	31	288	4
NMTAP	31	288	5
NMTAP	32	0	3
NMTAP	32	0	4
NMTAP	32	96	3
NMTAP	32	96	4
NMTAP	32	192	5
NMTAP	32	240	5
NMTAP	32	288	3
NMHLD	33	0	2	96
NMHLD	33	0	6	96
NMTTP	33	192	2	B	0	M1
NMTTP	33	192	3	B	0	M1
NMTTP	33	192	3	E	0	M1
NMTTP	33	192	6	B	0	M1
NMTTP	33	192	7	B	0	M1
NMTTP	33	192	7	E	0	M1
BRTAP	34	0	0
BRTAP	34	0	1
NMTAP	34	96	2
NMTAP	34	96	3
NMTAP	34	192	4
NMTAP	34	192	5
NMTAP	34	288	6
NMTAP	34	288	7
NMTAP	35	0	0
NMTAP	35	0	5
NMTAP	35	96	2
NMTAP	35	96	3
NMTAP	35	192	1
NMTAP	35	192	7
NMTAP	35	288	4
NMTAP	35	288	5
NMTAP	36	0	6
NMTAP	36	0	7
NMTAP	36	96	0
NMTAP	36	96	1
NMTAP	36	192	2
NMTAP	36	192	3
NMTAP	36	288	4
NMTAP	36	288	5
NMTAP	37	0	3
NMTAP	37	0	6
EXTAP	37	96	0
EXTAP	37	96	7
NMTAP	37	192	1
EXTAP	37	240	1
EXTAP	37	288	0
EXTAP	37	288	1
BRTAP	38	0	2
BRTAP	38	0	7
NMTAP	38	96	4
NMTAP	38	96	5
NMTAP	38	192	2
NMTAP	38	192	3
NMTAP	38	288	1
NMTAP	38	288	4
NMTAP	39	0	6
NMTAP	39	0	7
NMTAP	39	96	3
NMTAP	39	96	4
NMTAP	39	192	0
NMTAP	39	192	1
NMTAP	39	288	3
NMTAP	39	288	4
NMSTR	40	0	6
NMSI_	40	0	6	96	96	2
NMTAP	40	0	7
NMSTR	40	192	1
NMSI_	40	192	1	96	96	5
NMTAP	41	0	7
EXTAP	41	48	7
EXTAP	41	96	7
NMTAP	41	192	0
NMTAP	41	192	6
BRTAP	41	288	1
BRTAP	41	288	5
NMSTR	42	0	2
NMSXL	42	0	2	96	288	5
CNSCR	43	0	5	0	192	1
NMSTR	44	0	2
NMSI_	44	0	2	96	192	0
NMSTR	44	0	3
NMSI_	44	0	3	96	192	7
CNSI_	44	288	0	0	96	4
CNSI_	44	288	7	0	96	5
NMTAP	45	192	4
NMTAP	45	192	5
NMTAP	45	288	4
NMTAP	45	288	5
NMHLD	46	0	4	96
NMHLD	46	0	5	96
NMHLD	46	192	3	96
NMHLD	46	192	4	96
NMHLD	47	0	2	96
NMHLD	47	0	3	96
NMHLD	47	192	3	96
NMHLD	47	192	4	96
NMTTP	48	0	4	B	0	M1
NMTTP	48	0	5	B	0	M1
NMTTP	48	0	5	E	0	M1
NMTTP	48	192	2	B	0	M1
NMTTP	48	192	3	B	0	M1
NMTTP	48	192	3	E	0	M1
NMTAP	49	0	0
NMTAP	49	0	7
NMSTR	49	96	0
NMSF_	49	96	0	96	96	4
NMTAP	49	96	7
BRTAP	50	0	2
NMTAP	50	96	1
NMTAP	50	96	3
NMTAP	50	192	7
NMTAP	50	240	7
NMTAP	50	336	0
NMHLD	50	336	6	192
NMTAP	51	48	1
NMTAP	51	144	2
NMTAP	51	240	4
NMTAP	51	240	5
NMTAP	51	288	4
NMTAP	51	288	5
NMSTR	52	0	3
NMSI_	52	0	3	96	96	0
NMTAP	52	0	6
NMSTR	52	192	7
NMSI_	52	192	7	96	96	4
NMHLD	53	0	2	96
EXTAP	53	96	3
EXTAP	53	144	3
EXTAP	53	240	0
EXTAP	53	240	1
EXTAP	53	288	0
EXTAP	53	288	1
BRTAP	54	0	2
NMTAP	54	96	1
NMTAP	54	96	3
NMTAP	54	192	0
NMTAP	54	240	0
NMHLD	54	336	1	192
NMTAP	54	336	7
NMTAP	55	48	6
NMTAP	55	144	5
NMTAP	55	240	2
NMTAP	55	240	3
NMTAP	55	288	2
NMTAP	55	288	3
NMTAP	56	0	4
NMTAP	56	0	5
NMTAP	56	96	6
NMTAP	56	96	7
NMTAP	56	192	0
NMSTR	56	240	0
NMSCL	56	240	0	96	144	5
NMSCR	56	240	0	96	144	3
EXTAP	57	288	3
EXTAP	57	288	4
NMTAP	58	0	2
NMTAP	58	0	5
BRTAP	58	96	7
NMHLD	58	192	4	96
NMHLD	58	192	6	96
NMTTP	59	0	5	B	0	M1
NMTTP	59	0	5	E	0	M1
NMTTP	59	0	6	B	0	M1
NMTTP	59	96	0	C	0	M1
NMTTP	59	96	4	E	0	M1
NMTTP	59	192	2	B	1	M1
NMTTP	59	192	2	E	0	M1
NMTTP	59	192	3	E	0	M1
NMTAP	60	0	0
NMTAP	60	0	1
NMTAP	60	96	6
NMTAP	60	96	7
NMTAP	60	192	4
NMTAP	60	192	5
NMTAP	60	288	2
NMTAP	60	288	7
NMTAP	61	0	0
NMTAP	61	0	5
EXTAP	61	96	2
EXTAP	61	96	3
NMTAP	61	192	1
EXTAP	61	240	1
EXTAP	61	288	0
EXTAP	61	288	1
BRTAP	62	0	2
BRTAP	62	0	7
NMTAP	62	96	4
NMTAP	62	96	5
NMTAP	62	192	6
NMTAP	62	192	7
NMTAP	62	288	2
NMTAP	62	288	3
NMHLD	63	0	1	96
NMTAP	63	0	4
NMHLD	63	96	3	96
NMHLD	63	192	4	96
NMTAP	63	288	5
NMTAP	64	0	0
NMTAP	64	0	6
NMTAP	64	96	1
NMTAP	64	96	7
NMTAP	64	192	3
NMTAP	64	192	5
NMTAP	64	288	2
NMTAP	64	288	4
NMTAP	65	0	1
EXTAP	65	48	1
EXTAP	65	96	0
EXTAP	65	96	1
BRTAP	65	192	2
BRTAP	65	192	6
NMHLD	66	0	2	288
NMTAP	66	0	4
NMTAP	66	96	3
NMTAP	66	192	1
NMTAP	66	288	3
NMTAP	67	0	5
NMTAP	67	48	5
NMTAP	67	96	4
NMTAP	67	144	4
NMTAP	67	192	6
NMTAP	67	288	1
NMTAP	67	288	7
NMTAP	68	0	3
NMHLD	68	0	5	288
NMTAP	68	96	4
NMTAP	68	192	6
NMTAP	68	288	4
NMTAP	69	0	3
NMTAP	69	0	6
NMTAP	69	96	1
NMTAP	69	96	4
EXTAP	69	192	1
EXTAP	69	240	0
EXTAP	69	240	1
EXTAP	69	288	0
EXTAP	69	288	1
NMTAP	70	0	2
NMHLD	70	0	7	288
NMTAP	70	96	2
NMTAP	70	192	4
NMTAP	70	288	2
NMHLD	71	0	0	288
NMTAP	71	0	5
NMTAP	71	96	5
NMTAP	71	192	3
NMTAP	71	288	5
NMSTR	72	0	6
NMSI_	72	0	6	96	96	3
NMSTR	72	192	1
NMSI_	72	192	1	96	96	4
NMSTR	73	0	7
NMSF_	73	0	7	96	96	3
BRTAP	73	288	1
BRTAP	73	288	5
NMHLD	74	0	2	96
NMHLD	74	0	6	96
EXTAP	74	192	3
EXTAP	74	192	5
EXTAP	74	240	3
EXTAP	74	240	5
EXTAP	74	336	2
EXTAP	74	336	4
NMTAP	75	48	0
NMTAP	75	48	7
NMTAP	75	96	0
NMTAP	75	96	7
NMTAP	75	144	0
NMTAP	75	144	7
NMTAP	75	192	0
NMTAP	75	192	7
BRTAP	75	288	2
BRTAP	75	288	5

T_REC_TAP	203
T_REC_BRK	18
T_REC_XTP	48
T_REC_BXX	7
T_REC_HLD	41
T_REC_XHO	0
T_REC_BHO	0
T_REC_BXH	0
T_REC_STR	21
T_REC_BST	0
T_REC_XST	0
T_REC_XBS	0
T_REC_TTP	28
T_REC_THO	1
T_REC_SLD	22
T_REC_BSL	0
T_REC_ALL	389
T_NUM_TAP	300
T_NUM_BRK	25
T_NUM_HLD	42
T_NUM_SLD	22
T_NUM_ALL	389
T_JUDGE_TAP	325
T_JUDGE_HLD	119
T_JUDGE_SLD	22
T_JUDGE_ALL	466
TTM_EACHPAIRS	119
TTM_SCR_TAP	150000
TTM_SCR_BRK	65000
TTM_SCR_HLD	42000
TTM_SCR_SLD	33000
TTM_SCR_ALL	290000
TTM_SCR_S	278900
TTM_SCR_SS	287500
TTM_RAT_ACV	10086

