VERSION	0.00.00	1.04.00
FES_MODE	0
BPM_DEF	135.000	135.000	135.000	135.000
MET_DEF	4	4
RESOLUTION	384
CLK_DEF	384
COMPATIBLE_CODE	MA2

BPM	0	0	135.000
MET	0	0	4	4

NMTAP	2	0	2
NMHLD	2	0	3	96
NMTAP	2	48	1
NMHLD	2	96	2	96
NMTAP	2	144	0
NMHLD	2	192	3	96
NMTAP	2	240	0
NMSTR	2	288	2
NMSXR	2	288	2	96	192	5
NMTAP	3	0	5
NMTAP	3	96	5
NMTAP	3	192	6
BRTAP	3	240	7
BRTAP	3	288	7
NMHLD	4	0	4	96
NMTAP	4	0	5
NMTAP	4	48	6
NMHLD	4	96	5	96
NMTAP	4	144	7
NMHLD	4	192	3	96
NMTAP	4	240	7
NMSTR	4	288	4
NMSCL	4	288	4	96	96	1
NMTAP	5	0	1
NMTAP	5	96	0
CNSUR	5	96	1	0	96	5
NMTAP	5	192	0
NMSTR	5	288	6
NMSI_	5	288	6	96	48	3
NMSTR	5	288	7
NMSI_	5	288	7	96	48	2
NMTAP	6	0	6
NMTAP	6	0	7
NMSTR	6	96	6
NMSCL	6	96	6	96	48	3
NMTAP	6	144	6
NMSTR	6	192	7
NMSV_	6	192	7	96	48	2
NMTAP	6	240	7
NMSTR	6	288	6
NMSXL	6	288	6	96	192	2
NMTAP	7	0	4
NMTAP	7	96	4
NMTAP	7	192	4
BRTAP	7	240	0
BRTAP	7	288	0
NMTAP	8	0	2
NMHLD	8	0	3	96
NMTAP	8	48	1
NMHLD	8	96	2	96
NMTAP	8	144	0
NMHLD	8	192	3	96
NMTAP	8	240	0
NMSTR	8	288	2
NMSCL	8	288	2	96	96	5
NMTAP	9	0	4
CNSUL	9	96	5	0	96	4
EXTAP	9	240	2
EXTAP	9	240	3
EXTAP	9	288	2
EXTAP	9	288	3
EXSTR	10	0	0
NMSI_	10	0	0	96	48	5
NMTAP	10	96	6
NMTAP	10	144	6
NMSTR	10	192	1
NMSUR	10	192	1	96	48	5
NMTAP	10	240	1
NMTAP	10	288	7
NMSTR	11	0	2
NMSCR	11	0	2	96	48	5
NMTAP	11	48	2
NMTAP	11	96	0
NMSTR	11	192	3
NMSI_	11	192	3	96	48	5
NMTAP	11	240	3
NMTAP	11	288	0
NMTAP	11	336	0
EXSTR	12	0	7
NMSI_	12	0	7	96	48	2
NMTAP	12	96	1
NMTAP	12	144	1
NMSTR	12	192	6
NMSCL	12	192	6	96	24	5
NMTAP	12	240	6
NMTAP	12	288	0
CNSV_	12	312	5	0	24	2
NMSTR	13	0	5
NMSCL	13	0	5	96	48	2
NMTAP	13	48	5
NMTAP	13	96	7
NMSTR	13	192	4
NMSI_	13	192	4	96	48	2
NMTAP	13	240	4
NMTAP	13	288	7
NMTAP	13	336	7
EXSTR	14	0	0
NMSI_	14	0	0	96	48	5
NMTAP	14	96	6
NMTAP	14	144	6
NMSTR	14	192	1
NMSUR	14	192	1	96	48	5
NMTAP	14	240	1
NMTAP	14	288	7
NMSTR	15	0	2
NMSCR	15	0	2	96	48	5
NMTAP	15	48	2
NMTAP	15	96	0
NMSTR	15	192	3
NMSI_	15	192	3	96	48	5
NMTAP	15	240	3
NMTAP	15	288	0
NMTAP	15	336	0
EXSTR	16	0	7
NMSI_	16	0	7	96	48	2
NMTAP	16	96	1
NMTAP	16	144	1
NMSTR	16	192	6
NMSUL	16	192	6	96	48	2
NMTAP	16	240	6
NMTAP	16	288	0
NMSTR	17	0	5
NMSV_	17	0	5	96	48	0
NMTAP	17	48	5
NMTAP	17	96	0
BRTAP	17	192	1
BRTAP	17	192	7
NMTAP	17	288	3
NMTAP	17	288	5
NMHLD	18	0	6	96
NMTAP	18	96	4
NMTAP	18	144	3
NMTAP	18	192	2
NMTAP	18	240	2
NMTAP	18	288	4
NMTAP	18	336	3
NMTAP	19	0	6
NMTAP	19	48	6
NMTAP	19	96	4
NMTAP	19	144	5
NMTAP	19	192	3
NMTAP	19	240	2
NMTAP	19	288	4
NMTAP	19	336	5
NMTAP	20	0	3
NMTAP	20	48	2
NMSTR	20	96	1
NMSI_	20	96	1	96	48	6
NMSXL	20	96	1	96	48	3
NMTAP	20	336	2
NMTAP	21	0	3
NMTAP	21	48	4
NMTAP	21	96	5
NMTAP	21	144	6
NMTAP	21	192	3
NMTAP	21	192	7
NMHLD	22	0	1	96
NMTAP	22	96	3
NMTAP	22	144	4
NMTAP	22	192	5
NMTAP	22	240	5
NMTAP	22	288	3
NMTAP	22	336	4
NMTAP	23	0	2
NMTAP	23	48	2
NMTAP	23	96	3
NMTAP	23	144	4
NMSTR	23	192	5
NMSI_	23	192	5	96	336	2
EXSTR	24	192	1
NMSXL	24	192	1	96	48	3
NMSTR	24	288	6
NMSXR	24	288	6	96	48	4
NMSTR	25	0	0
NMSXL	25	0	0	96	48	2
NMSTR	25	96	7
NMSXR	25	96	7	96	48	5
NMTAP	25	192	0
NMTAP	25	240	0
NMTAP	25	288	0
NMTAP	25	288	7
NMTAP	26	0	6
NMTAP	26	48	6
NMHLD	26	96	0	96
NMTAP	26	144	7
NMTAP	26	192	7
NMTAP	26	240	1
NMHLD	26	288	7	96
NMTAP	26	336	2
NMTAP	27	0	2
NMTAP	27	48	6
NMHLD	27	96	3	96
NMTAP	27	144	5
NMTAP	27	192	5
NMTAP	27	240	2
NMHLD	27	288	4	96
NMTAP	27	336	0
NMTAP	28	0	0
NMTAP	28	48	3
NMSTR	28	96	1
NMSI_	28	96	1	96	48	6
NMSXL	28	96	1	96	48	3
NMTAP	28	336	5
NMTAP	29	0	4
NMTAP	29	48	3
NMTAP	29	96	2
NMTAP	29	144	1
NMTAP	29	192	0
NMTAP	29	192	4
NMTAP	29	288	2
NMTAP	29	288	6
NMSTR	30	0	7
NMSSR	30	0	7	96	96	3
NMSTR	30	96	3
NMSSR	30	96	3	96	96	7
NMTAP	30	192	2
EXTAP	30	288	1
EXTAP	30	336	1
NMTAP	31	0	0
NMTAP	31	0	1
NMTAP	31	96	2
NMTAP	31	96	3
NMTAP	31	192	4
NMTAP	31	192	5
NMTAP	31	288	6
NMSTR	31	288	7
NMSI_	31	288	7	96	48	5
NMSV_	31	288	7	96	48	4
NMSTR	32	0	7
NMSI_	32	0	7	96	48	1
NMSV_	32	0	7	96	48	2
NMSTR	32	96	7
NMSI_	32	96	7	96	48	5
NMSV_	32	96	7	96	48	4
NMSTR	32	192	7
NMSI_	32	192	7	96	48	2
NMSCR	32	192	7	96	48	2
NMSTR	32	288	7
BRSI_	32	288	7	96	48	4
CNSI_	33	48	4	0	48	1
CNSI_	33	96	1	0	48	6
CNSI_	33	144	6	0	48	3
BXTAP	33	288	2
EXTAP	33	300	1
EXTAP	33	312	0
EXTAP	33	324	7
EXTAP	33	336	6
EXTAP	33	348	5
EXTAP	33	360	4
EXTAP	33	372	3
EXTAP	34	0	2
NMTAP	34	96	2
NMHLD	34	96	3	96
NMTAP	34	144	1
NMHLD	34	192	2	96
NMTAP	34	240	0
NMSTR	34	288	3
NMSXL	34	288	3	96	192	0
NMTAP	35	0	1
NMTAP	35	96	2
NMTAP	35	192	3
BRTAP	35	240	7
BRTAP	35	288	7
NMHLD	36	0	4	96
NMTAP	36	0	5
NMTAP	36	48	6
NMHLD	36	96	5	96
NMTAP	36	144	7
NMHLD	36	192	3	96
NMTAP	36	240	7
NMSTR	36	288	4
NMSCL	36	288	4	96	96	1
NMTAP	37	0	0
NMTAP	37	96	0
CNSUR	37	96	1	0	96	5
NMTAP	37	192	0
NMSTR	37	288	6
NMSI_	37	288	6	96	48	3
NMSTR	37	288	7
NMSI_	37	288	7	96	48	2
NMTAP	38	0	6
NMTAP	38	0	7
NMSTR	38	96	6
NMSI_	38	96	6	96	48	4
NMTAP	38	144	6
NMSTR	38	192	7
NMSI_	38	192	7	96	48	3
NMTAP	38	240	7
NMSTR	38	288	6
NMSXL	38	288	6	96	192	3
NMTAP	39	0	3
NMTAP	39	96	2
NMTAP	39	192	1
BRTAP	39	240	0
BRTAP	39	288	0
NMTAP	40	0	2
NMHLD	40	0	3	96
NMTAP	40	48	1
NMHLD	40	96	2	96
NMTAP	40	144	0
NMHLD	40	192	3	96
NMTAP	40	240	0
NMSTR	40	288	2
NMSCL	40	288	2	96	96	3
NMTAP	41	0	4
CNSXL	41	96	3	0	144	1
EXTAP	41	240	6
EXHLD	41	288	6	1440
NMTTP	42	0	0	A	0	M1
NMTTP	42	12	0	B	0	M1
NMTTP	42	24	0	C	0	M1
NMTTP	42	36	4	B	0	M1
NMTTP	43	0	0	A	0	M1
NMTTP	43	12	0	B	0	M1
NMTTP	43	24	0	C	0	M1
NMTTP	43	36	4	B	0	M1
NMTTP	44	0	7	A	0	M1
NMTTP	44	12	7	E	0	M1
NMTTP	44	24	6	E	0	M1
NMTTP	44	36	5	A	0	M1
NMTTP	44	96	0	E	0	M1
NMTTP	44	108	7	B	0	M1
NMTTP	44	120	5	B	0	M1
NMTTP	44	132	5	E	0	M1
NMTTP	44	192	1	E	0	M1
NMTTP	44	204	1	B	0	M1
NMTTP	44	216	3	B	0	M1
NMTTP	44	228	4	E	0	M1
NMTTP	44	288	1	A	0	M1
NMTTP	44	300	2	E	0	M1
NMTTP	44	312	3	E	0	M1
NMTTP	44	324	3	A	0	M1
NMTTP	45	0	0	A	0	M1
NMTTP	45	12	0	B	0	M1
NMTTP	45	24	0	C	0	M1
NMTTP	45	36	4	B	0	M1
NMTTP	45	96	7	A	0	M1
NMTTP	45	108	7	E	0	M1
NMTTP	45	120	6	E	0	M1
NMTTP	45	132	5	A	0	M1
NMTTP	45	192	1	A	0	M1
NMTTP	45	204	2	E	0	M1
NMTTP	45	216	3	E	0	M1
NMTTP	45	228	3	A	0	M1
NMTTP	45	288	2	B	0	M1
NMTTP	45	288	2	A	0	M1
NMTTP	45	288	3	D	0	M1
NMTTP	45	288	6	B	0	M1
NMTTP	45	288	6	A	0	M1
NMTTP	45	288	7	D	0	M1
EXSTR	46	0	7
NMSI_	46	0	7	96	48	2
NMTAP	46	96	0
NMTAP	46	144	0
NMSTR	46	192	1
NMSUR	46	192	1	96	48	5
NMTAP	46	240	1
NMTAP	46	288	7
NMSTR	47	0	6
NMSLL	47	0	6	96	48	2
NMTAP	47	48	6
NMTAP	47	96	0
NMSTR	47	192	1
NMSCR	47	192	1	96	48	5
NMTAP	47	240	1
NMTAP	47	288	6
NMTAP	47	336	6
EXSTR	48	0	7
NMSI_	48	0	7	96	48	2
NMTAP	48	96	0
NMTAP	48	144	0
NMSTR	48	192	1
NMSI_	48	192	1	96	48	4
NMTAP	48	240	1
NMTAP	48	288	7
NMTAP	49	0	5
NMTAP	49	48	3
NMSTR	49	96	2
BRSCR	49	96	2	96	24	3
NMTAP	49	144	2
CNSV_	49	216	3	0	48	0
CNSCL	49	264	0	0	24	7
NMTTP	50	0	5	A	0	M1
NMTTP	50	72	5	B	0	M1
NMTTP	50	96	4	B	0	M1
NMTTP	50	144	3	B	0	M1
NMTTP	50	192	2	B	0	M1
NMTTP	50	240	2	A	0	M1
BXSTR	50	288	1
NMSXR	50	288	1	96	144	3
NMSXR	50	288	1	96	144	5
EXTAP	51	192	4
EXTAP	51	192	6
BRTAP	51	240	7
BRTAP	51	288	7
NMHLD	52	0	4	96
NMTAP	52	0	5
NMTAP	52	48	6
NMHLD	52	96	5	96
NMTAP	52	144	7
NMHLD	52	192	3	96
NMTAP	52	240	7
NMSTR	52	288	4
NMSCL	52	288	4	96	96	0
NMTAP	53	0	0
CNSUR	53	96	0	0	96	5
NMTAP	53	96	7
NMTAP	53	192	7
NMSTR	53	288	6
NMSI_	53	288	6	96	48	3
NMSTR	53	288	7
NMSI_	53	288	7	96	48	2
NMTAP	54	0	6
NMTAP	54	0	7
NMSTR	54	96	6
NMSI_	54	96	6	96	48	2
NMTAP	54	144	6
NMSTR	54	192	7
NMSI_	54	192	7	96	48	4
NMTAP	54	240	7
NMSTR	54	288	6
NMSXL	54	288	6	96	144	1
NMSXL	54	288	6	96	144	3
EXTAP	55	192	0
EXTAP	55	192	2
BRTAP	55	240	7
BRTAP	55	288	7
NMTAP	56	0	2
NMHLD	56	0	3	96
NMTAP	56	48	1
NMHLD	56	96	2	96
NMTAP	56	144	0
NMHLD	56	192	3	96
NMTAP	56	240	0
NMSTR	56	288	2
NMSCL	56	288	2	96	48	0
CNSUL	57	48	0	0	96	7
CNSCL	57	144	7	0	48	4
EXTAP	57	240	2
EXTAP	57	240	3
EXTAP	57	288	2
EXTAP	57	288	3
NMSTR	58	0	0
NMSCR	58	0	0	96	48	3
NMSTR	58	0	7
NMSCL	58	0	7	96	48	4
NMTAP	58	48	1
NMTAP	58	48	6
BRSTR	58	96	0
NMSI_	58	96	0	96	48	4
BRSTR	58	96	7
NMSI_	58	96	7	96	48	3
BRTAP	58	192	0
BRTAP	58	192	7
BRSTR	58	288	2
NMSXR	58	288	2	96	144	5
NMSXR	58	288	2	96	144	6
BRTAP	58	288	5
EXTAP	59	192	4
EXTAP	59	192	6
BRTAP	59	240	7
BRTAP	59	288	7
NMHLD	60	0	4	96
NMTAP	60	0	5
NMTAP	60	48	6
NMHLD	60	96	5	96
NMTAP	60	144	7
NMHLD	60	192	3	96
NMTAP	60	240	7
NMSTR	60	288	4
NMSCL	60	288	4	96	96	1
EXTAP	61	0	1
EXTAP	61	48	0
BXTAP	61	96	0
CNSUR	61	96	1	0	96	7
BXTAP	61	144	0
BXTAP	61	192	0
NMSTR	61	288	4
NMSI_	61	288	4	96	48	2
NMSTR	61	288	7
NMSI_	61	288	7	96	48	1
EXTAP	62	0	4
EXTAP	62	0	7
NMSTR	62	96	5
NMSI_	62	96	5	96	48	1
NMSTR	62	96	6
NMSI_	62	96	6	96	48	2
EXTAP	62	192	5
EXTAP	62	192	6
NMSTR	62	288	6
NMSXL	62	288	6	96	120	5
CNSUL	63	120	5	0	120	3
EXTAP	63	192	1
BRTAP	63	240	0
BRTAP	63	288	0
NMTAP	64	0	2
NMHLD	64	0	3	96
NMTAP	64	48	1
NMHLD	64	96	2	96
NMTAP	64	144	0
NMHLD	64	192	3	96
NMTAP	64	240	0
NMSTR	64	288	2
NMSCL	64	288	2	96	96	5
NMSUL	64	288	2	96	96	5
NMTAP	65	192	4
NMTAP	65	192	5
NMTAP	65	240	4
NMTAP	65	240	5
NMTAP	65	288	3
NMTAP	65	288	4
NMTAP	65	336	2
NMTAP	65	336	3
NMSTR	66	0	2
NMSUR	66	0	2	96	48	7
NMSTR	66	0	3
NMSCR	66	0	3	96	48	6
EXTAP	66	96	2
EXTAP	66	96	3
NMTAP	66	192	0
NMTAP	66	192	1
NMTAP	66	240	0
NMTAP	66	240	1
NMTAP	66	288	1
NMTAP	66	312	0
NMHLD	66	336	2	240
NMHLD	66	360	7	216
NMTTP	67	288	0	C	0	M1
EXSTR	68	0	0
NMSI_	68	0	0	96	48	4
NMTAP	68	96	6
NMTAP	68	144	6
NMSTR	68	192	2
NMSUL	68	192	2	96	48	6
NMTAP	68	240	2
NMTAP	68	288	4
NMSTR	69	0	1
NMSCL	69	0	1	96	48	6
NMTAP	69	48	1
NMTAP	69	96	3
NMSTR	69	192	0
NMSI_	69	192	0	96	48	6
NMTAP	69	240	0
NMTAP	69	288	3
NMTAP	69	336	3
EXSTR	70	0	4
NMSI_	70	0	4	96	48	0
NMTAP	70	96	3
NMTAP	70	144	3
NMSTR	70	192	5
NMSCR	70	192	5	96	24	6
NMTAP	70	240	5
NMTAP	70	288	3
CNSV_	70	312	6	0	24	1
NMSTR	71	0	6
NMSCR	71	0	6	96	48	1
NMTAP	71	48	6
NMTAP	71	96	4
NMSTR	71	192	7
NMSI_	71	192	7	96	48	1
NMTAP	71	240	7
NMTAP	71	288	4
NMTAP	71	336	4
EXSTR	72	0	3
NMSI_	72	0	3	96	48	7
NMTAP	72	96	4
NMTAP	72	144	4
NMSTR	72	192	2
NMSUL	72	192	2	96	48	6
NMTAP	72	240	2
NMTAP	72	288	4
NMSTR	73	0	1
NMSCL	73	0	1	96	48	6
NMTAP	73	48	1
NMTAP	73	96	3
NMSTR	73	192	0
NMSI_	73	192	0	96	48	6
NMTAP	73	240	0
NMTAP	73	288	3
NMTAP	73	336	3
EXSTR	74	0	4
NMSI_	74	0	4	96	48	0
NMTAP	74	96	3
NMTAP	74	144	3
NMSTR	74	192	5
NMSUR	74	192	5	96	48	1
NMTAP	74	240	5
NMTAP	74	288	3
NMSTR	75	0	6
NMSV_	75	0	6	96	48	3
NMTAP	75	48	6
NMTAP	75	96	4
NMTAP	75	144	4
NMSTR	75	192	7
NMSF_	75	192	7	96	48	3
NMTTP	75	288	7	A	0	M1

T_REC_TAP	243
T_REC_BRK	21
T_REC_XTP	34
T_REC_BXX	4
T_REC_HLD	37
T_REC_XHO	1
T_REC_BHO	0
T_REC_BXH	0
T_REC_STR	75
T_REC_BST	3
T_REC_XST	11
T_REC_XBS	1
T_REC_TTP	50
T_REC_THO	0
T_REC_SLD	98
T_REC_BSL	2
T_REC_ALL	580
T_NUM_TAP	413
T_NUM_BRK	31
T_NUM_HLD	38
T_NUM_SLD	98
T_NUM_ALL	580
T_JUDGE_TAP	442
T_JUDGE_HLD	110
T_JUDGE_SLD	100
T_JUDGE_ALL	652
TTM_EACHPAIRS	50
TTM_SCR_TAP	206500
TTM_SCR_BRK	80600
TTM_SCR_HLD	38000
TTM_SCR_SLD	147000
TTM_SCR_ALL	472100
TTM_SCR_S	454950
TTM_SCR_SS	469000
TTM_RAT_ACV	10066

