VERSION	0.00.00	1.04.00
FES_MODE	0
BPM_DEF	135.000	135.000	135.000	135.000
MET_DEF	4	4
RESOLUTION	384
CLK_DEF	384
COMPATIBLE_CODE	MA2

BPM	0	0	135.000
MET	0	0	4	4

NMTAP	2	0	1
NMTAP	2	0	3
NMTAP	2	96	1
NMTAP	2	96	3
NMTAP	2	192	3
NMTAP	2	192	5
NMTAP	2	288	3
NMTAP	2	288	5
NMTAP	3	0	6
NMHLD	3	48	6	96
NMTAP	3	144	7
NMTAP	3	192	7
NMTAP	3	240	0
NMTAP	3	240	5
NMTAP	3	288	0
NMTAP	3	288	5
NMTAP	4	0	1
NMTAP	4	0	3
NMTAP	4	96	1
NMTAP	4	96	3
NMTAP	4	192	3
NMTAP	4	192	5
NMTAP	4	288	3
NMSTR	4	288	5
NMSUL	4	288	5	96	192	2
NMTAP	5	288	0
NMTAP	5	288	1
NMTAP	6	0	2
NMTAP	6	0	7
NMTAP	6	96	6
NMTAP	6	144	6
NMTAP	6	192	4
NMTAP	6	192	6
NMHLD	6	288	5	96
NMHLD	7	0	7	96
NMHLD	7	96	0	96
NMTAP	7	192	2
NMTAP	7	240	0
NMTAP	7	240	1
NMTAP	7	288	0
NMTAP	7	288	1
NMTAP	8	0	1
NMTAP	8	0	3
NMTAP	8	96	4
NMTAP	8	96	6
NMTAP	8	192	1
NMTAP	8	192	3
NMTAP	8	288	4
NMTAP	8	288	6
NMTAP	9	0	6
NMTAP	9	0	7
NMTAP	9	96	0
NMTAP	9	96	1
NMTAP	9	192	2
NMTAP	9	192	3
NMTAP	9	240	2
NMTAP	9	240	3
NMTAP	9	288	1
NMTAP	9	288	4
EXTAP	10	0	7
NMTAP	10	144	5
NMTAP	10	192	5
NMTAP	10	288	4
NMTAP	10	288	6
NMTAP	11	0	2
NMTAP	11	96	1
NMTAP	11	96	3
NMTAP	11	192	5
NMTAP	11	288	4
NMTAP	11	288	6
EXTAP	12	0	7
NMTAP	12	144	5
NMTAP	12	192	5
NMTAP	12	288	2
NMTAP	12	288	4
NMTAP	13	0	2
NMTAP	13	96	1
NMTAP	13	96	3
NMTAP	13	192	5
NMTAP	13	288	4
NMTAP	13	288	6
EXTAP	14	0	7
NMTAP	14	144	5
NMTAP	14	192	5
NMTAP	14	288	4
NMTAP	14	288	6
NMTAP	15	0	2
NMTAP	15	96	1
NMTAP	15	96	3
NMTAP	15	192	5
NMTAP	15	288	4
NMTAP	15	288	6
EXTAP	16	0	7
NMTAP	16	144	5
NMTAP	16	192	5
NMTAP	16	288	4
NMTAP	16	288	6
NMTAP	17	0	1
NMTAP	17	96	0
NMTAP	17	96	1
BRTAP	17	192	2
BRTAP	17	192	7
NMHLD	18	0	5	192
NMTAP	18	96	4
NMHLD	18	192	3	192
NMTAP	18	288	4
NMHLD	19	0	6	192
NMTAP	19	96	4
NMHLD	19	192	2	192
NMTAP	19	288	4
NMHLD	20	0	5	192
NMTAP	20	96	4
NMTTP	20	192	4	E	0	M1
NMTAP	20	336	2
NMHLD	21	0	2	96
NMTAP	21	96	3
NMTAP	21	192	1
NMTAP	21	192	4
NMHLD	22	0	2	192
NMTAP	22	96	3
NMHLD	22	192	4	192
NMTAP	22	288	3
NMHLD	23	0	1	192
NMTAP	23	96	3
NMHLD	23	192	5	192
NMTAP	23	288	3
NMHLD	24	0	2	192
NMTAP	24	96	3
NMHLD	24	192	4	192
NMTAP	24	288	3
NMHLD	25	0	1	96
NMTAP	25	96	3
BRTAP	25	192	0
BRTAP	25	192	4
NMSTR	26	0	5
NMSCL	26	0	5	96	96	2
NMTAP	26	192	0
NMTAP	26	288	0
NMSTR	27	0	2
NMSCR	27	0	2	96	96	5
NMTAP	27	192	7
NMTAP	27	288	7
NMHLD	28	0	4	96
NMHLD	28	0	5	96
NMTTP	28	192	5	E	0	M1
NMTAP	28	336	2
NMHLD	29	0	2	96
NMTAP	29	96	3
NMTAP	29	192	1
NMTAP	29	192	4
NMHLD	30	0	4	96
NMHLD	30	0	6	96
NMHLD	30	192	1	96
NMHLD	30	192	3	96
NMTAP	31	0	1
NMTAP	31	0	3
NMTAP	31	96	3
NMTAP	31	96	5
NMTAP	31	192	5
NMTAP	31	192	7
NMTAP	31	288	5
NMTAP	31	288	7
EXTAP	32	0	6
EXTAP	32	0	7
EXTAP	32	96	4
EXTAP	32	96	5
EXTAP	32	192	2
EXTAP	32	192	3
EXSTR	32	288	0
NMSSL	32	288	0	96	192	4
EXTAP	32	288	1
BRTAP	33	288	7
NMTAP	34	0	1
NMTAP	34	0	3
NMTAP	34	96	2
NMTAP	34	96	4
NMTAP	34	192	3
NMTAP	34	192	5
NMTAP	34	240	3
NMTAP	34	240	5
NMTAP	34	288	3
NMTAP	34	288	5
NMTAP	35	0	6
NMHLD	35	48	6	96
NMTAP	35	144	7
NMTAP	35	192	7
NMTAP	35	240	0
NMTAP	35	240	5
NMTAP	35	288	0
NMTAP	35	288	5
NMTAP	36	0	1
NMTAP	36	0	3
NMTAP	36	96	2
NMTAP	36	96	4
NMTAP	36	192	3
NMTAP	36	192	5
NMTAP	36	240	3
NMTAP	36	240	5
NMTAP	36	288	3
NMSTR	36	288	5
NMSUL	36	288	5	96	192	2
NMTAP	37	288	0
NMTAP	37	288	1
NMTAP	38	0	2
NMTAP	38	0	7
NMTAP	38	96	6
NMTAP	38	144	6
NMTAP	38	192	4
NMTAP	38	240	4
NMHLD	38	288	5	96
NMHLD	39	0	7	96
NMHLD	39	96	0	96
NMTAP	39	192	2
NMTAP	39	240	0
NMTAP	39	240	1
NMTAP	39	288	0
NMTAP	39	288	1
NMTAP	40	0	1
NMTAP	40	0	3
NMTAP	40	96	4
NMTAP	40	96	6
NMTAP	40	192	3
NMTAP	40	192	5
NMTAP	40	240	3
NMTAP	40	240	5
NMTAP	40	288	3
NMTAP	40	288	5
NMTAP	41	0	6
NMTAP	41	0	7
NMTAP	41	96	0
NMTAP	41	96	1
NMTAP	41	192	0
NMTAP	41	192	7
NMTAP	41	240	0
NMTAP	41	240	7
NMTAP	41	288	1
NMTAP	41	288	6
NMTTP	42	0	0	C	0	M1
NMTTP	42	0	3	B	0	M1
NMTTP	42	0	4	B	0	M1
NMTTP	43	0	2	B	0	M1
NMTTP	43	0	2	E	0	M1
NMTTP	43	0	2	A	0	M1
NMTTP	43	0	5	B	0	M1
NMTTP	43	0	5	A	0	M1
NMTTP	43	0	6	E	0	M1
NMTTP	44	0	5	A	0	M1
NMTTP	44	0	6	A	0	M1
NMTTP	44	0	6	D	0	M1
NMTTP	44	96	4	B	0	M1
NMTTP	44	96	5	B	0	M1
NMTTP	44	96	6	B	0	M1
NMTTP	44	192	1	B	0	M1
NMTTP	44	192	2	B	0	M1
NMTTP	44	192	3	B	0	M1
NMTTP	44	288	1	A	0	M1
NMTTP	44	288	2	A	0	M1
NMTTP	44	288	2	D	0	M1
NMTTP	45	0	3	B	0	M1
NMTTP	45	0	4	B	0	M1
NMTTP	45	0	4	E	0	M1
NMTTP	45	96	1	B	0	M1
NMTTP	45	96	1	A	0	M1
NMTTP	45	96	2	E	0	M1
NMTTP	45	96	6	B	0	M1
NMTTP	45	96	6	E	0	M1
NMTTP	45	96	6	A	0	M1
NMTTP	45	192	0	E	0	M1
NMTTP	45	192	0	A	0	M1
NMTTP	45	192	7	A	0	M1
NMTTP	45	288	0	C	0	M1
NMTTP	45	288	3	B	0	M1
NMTTP	45	288	4	B	0	M1
EXTAP	46	0	0
EXTAP	46	0	7
NMTAP	46	144	6
NMTAP	46	192	6
NMTAP	46	240	6
NMTAP	46	240	7
NMTAP	46	288	6
NMTAP	46	288	7
NMTAP	47	0	1
NMTAP	47	48	0
NMTAP	47	48	1
NMTAP	47	96	0
NMTAP	47	96	1
NMTAP	47	192	5
NMTAP	47	240	4
NMTAP	47	240	5
NMTAP	47	288	4
NMTAP	47	288	5
EXTAP	48	0	7
NMTAP	48	144	6
NMTAP	48	192	6
NMTAP	48	240	6
NMTAP	48	240	7
NMTAP	48	288	6
NMTAP	48	288	7
NMTAP	49	0	1
NMTAP	49	48	0
NMTAP	49	48	1
NMTAP	49	96	0
NMSTR	49	96	1
NMSV_	49	96	1	96	96	3
CNSCR	49	288	3	0	48	5
NMHLD	50	0	6	192
NMTAP	50	192	4
NMTAP	50	240	4
EXTAP	50	288	3
EXTAP	50	288	7
NMTAP	51	0	6
NMHLD	51	48	6	96
NMTAP	51	144	7
NMTAP	51	192	7
NMTAP	51	240	0
NMTAP	51	240	5
NMTAP	51	288	0
NMTAP	51	288	5
NMTAP	52	0	1
NMTAP	52	0	3
NMTAP	52	96	4
NMTAP	52	96	6
NMTAP	52	192	3
NMTAP	52	192	5
NMTAP	52	240	3
NMTAP	52	240	5
NMTAP	52	288	3
NMSTR	52	288	5
NMSUL	52	288	5	96	192	2
NMTAP	53	288	0
NMTAP	53	288	1
NMTAP	54	0	2
NMTAP	54	0	7
NMTAP	54	96	5
NMTAP	54	144	5
NMTAP	54	192	4
NMTAP	54	288	3
NMTAP	54	288	6
NMTAP	55	0	2
NMTAP	55	48	2
NMTAP	55	96	3
NMTAP	55	144	3
NMTAP	55	192	1
NMTAP	55	240	0
NMTAP	55	240	1
NMTAP	55	288	0
NMTAP	55	288	1
NMTAP	56	0	1
NMTAP	56	0	3
NMTAP	56	96	4
NMTAP	56	96	6
NMTAP	56	192	2
NMTAP	56	192	4
NMTAP	56	240	2
NMTAP	56	240	4
NMTAP	56	288	2
NMTAP	56	288	4
NMTAP	57	0	4
NMTAP	57	0	6
NMTAP	57	96	0
NMTAP	57	96	7
NMSTR	57	192	1
NMSI_	57	192	1	96	48	3
NMSTR	57	192	6
NMSI_	57	192	6	96	48	4
EXTAP	58	0	0
EXTAP	58	0	7
EXTAP	58	48	0
EXTAP	58	48	7
BXTAP	58	96	1
BXTAP	58	96	6
BXTAP	58	192	2
BXTAP	58	192	4
NMTAP	58	288	3
NMTAP	58	288	5
NMTAP	59	0	6
NMHLD	59	48	6	96
NMTAP	59	144	7
NMTAP	59	192	7
NMTAP	59	240	0
NMTAP	59	240	5
NMTAP	59	288	0
NMTAP	59	288	5
NMTAP	60	0	1
NMTAP	60	48	1
NMTAP	60	96	3
NMTAP	60	144	3
NMTAP	60	192	2
NMTAP	60	192	4
NMTAP	60	240	2
NMTAP	60	240	4
NMHLD	60	288	2	96
NMTAP	60	288	4
NMHLD	61	0	0	96
BRHLD	61	96	7	96
NMTAP	61	192	5
NMTAP	61	288	4
NMTAP	61	288	5
NMSTR	62	0	6
NMSI_	62	0	6	96	48	3
NMSTR	62	0	7
NMSI_	62	0	7	96	48	2
NMSTR	62	192	6
NMSI_	62	192	6	96	48	3
NMSTR	62	192	7
NMSI_	62	192	7	96	48	2
NMTAP	63	0	6
NMTAP	63	0	7
NMTAP	63	96	0
NMTAP	63	96	7
NMTAP	63	192	1
NMTAP	63	240	0
NMTAP	63	240	1
NMTAP	63	288	0
NMTAP	63	288	1
NMTAP	64	0	0
NMTAP	64	0	2
NMTAP	64	96	5
NMTAP	64	96	7
NMTAP	64	192	3
NMTAP	64	192	4
NMTAP	64	240	3
NMTAP	64	240	4
NMTAP	64	288	3
NMSTR	64	288	4
NMSXL	64	288	4	96	192	2
NMTAP	65	192	1
EXTAP	65	240	0
EXTAP	65	240	1
EXTAP	65	288	0
EXTAP	65	288	1
NMTAP	66	0	1
NMTAP	66	0	3
NMTAP	66	96	4
NMTAP	66	96	6
NMTAP	66	192	0
NMTAP	66	192	7
NMTAP	66	240	0
NMTAP	66	240	7
NMTAP	66	288	1
NMSTR	66	288	6
NMSXL	66	288	6	96	192	2
NMHLD	67	192	0	96
NMTTP	67	288	0	C	0	M1
EXTAP	68	0	7
NMTAP	68	144	5
NMTAP	68	192	5
NMTAP	68	240	4
NMTAP	68	240	6
NMTAP	68	288	4
NMTAP	68	288	6
NMTAP	69	0	1
NMTAP	69	48	0
NMTAP	69	48	2
NMTAP	69	96	0
NMTAP	69	96	2
NMTAP	69	192	4
NMTAP	69	240	3
NMTAP	69	240	5
NMTAP	69	288	3
NMTAP	69	288	5
EXTAP	70	0	7
NMTAP	70	144	5
NMTAP	70	192	4
NMTAP	70	240	3
NMHLD	70	288	2	96
NMTAP	71	0	3
NMTAP	71	48	2
NMTAP	71	48	4
NMTAP	71	96	2
NMTAP	71	96	4
NMTAP	71	192	5
NMTAP	71	240	4
NMTAP	71	240	6
NMTAP	71	288	4
NMTAP	71	288	6
EXTAP	72	0	7
NMTAP	72	144	5
NMTAP	72	192	5
NMTAP	72	240	4
NMTAP	72	240	6
NMTAP	72	288	4
NMTAP	72	288	6
NMTAP	73	0	1
NMTAP	73	48	0
NMTAP	73	48	2
NMTAP	73	96	0
NMTAP	73	96	2
NMTAP	73	192	4
NMTAP	73	240	3
NMTAP	73	240	5
NMTAP	73	288	3
NMTAP	73	288	5
EXTAP	74	0	7
NMTAP	74	144	5
NMTAP	74	192	5
NMTAP	74	240	4
NMTAP	74	240	6
NMTAP	74	288	4
NMTAP	74	288	6
NMTAP	75	0	1
NMTAP	75	48	1
NMTAP	75	96	1
NMTAP	75	96	3
NMTAP	75	192	2
NMTAP	75	192	5
NMTTP	75	288	0	C	0	M1
NMTTP	75	288	1	B	0	M1
NMTTP	75	288	6	B	0	M1

T_REC_TAP	363
T_REC_BRK	5
T_REC_XTP	28
T_REC_BXX	4
T_REC_HLD	35
T_REC_XHO	0
T_REC_BHO	1
T_REC_BXH	0
T_REC_STR	14
T_REC_BST	0
T_REC_XST	1
T_REC_XBS	0
T_REC_TTP	42
T_REC_THO	0
T_REC_SLD	15
T_REC_BSL	0
T_REC_ALL	508
T_NUM_TAP	448
T_NUM_BRK	10
T_NUM_HLD	35
T_NUM_SLD	15
T_NUM_ALL	508
T_JUDGE_TAP	457
T_JUDGE_HLD	96
T_JUDGE_SLD	15
T_JUDGE_ALL	568
TTM_EACHPAIRS	157
TTM_SCR_TAP	224000
TTM_SCR_BRK	26000
TTM_SCR_HLD	35000
TTM_SCR_SLD	22500
TTM_SCR_ALL	307500
TTM_SCR_S	297350
TTM_SCR_SS	306500
TTM_RAT_ACV	10032

