VERSION	0.00.00	1.04.00
FES_MODE	0
BPM_DEF	187.000	187.000	187.000	187.000
MET_DEF	4	4
RESOLUTION	384
CLK_DEF	384
COMPATIBLE_CODE	MA2

BPM	0	0	187.000
MET	0	0	4	4

NMSTR	1	0	0
BRSSL	1	0	0	96	96	4
BRTAP	1	288	1
BRTAP	1	288	5
NMTAP	2	0	6
NMTAP	2	48	6
NMTAP	2	96	4
NMTAP	2	144	4
NMSTR	2	192	5
NMSI_	2	192	5	96	48	0
NMTAP	2	288	0
NMTAP	2	336	1
NMSTR	3	0	2
NMSI_	3	0	2	96	48	7
NMTAP	3	96	7
NMTAP	3	144	6
NMTAP	3	192	5
NMTAP	3	288	0
NMTAP	3	288	6
NMTAP	4	0	2
NMTAP	4	48	2
NMTAP	4	96	0
NMTAP	4	144	0
NMSTR	4	192	3
NMSI_	4	192	3	96	48	6
NMTAP	4	288	6
NMTAP	4	336	5
NMSTR	5	0	4
NMSI_	5	0	4	96	48	1
NMTAP	5	96	1
NMTAP	5	144	2
NMTAP	5	192	3
NMTAP	5	288	2
NMTAP	5	288	7
NMTAP	6	0	6
NMTAP	6	48	6
NMTAP	6	96	4
NMTAP	6	144	4
NMSTR	6	192	5
NMSI_	6	192	5	96	48	0
NMTAP	6	288	0
NMTAP	6	336	1
NMSTR	7	0	2
NMSI_	7	0	2	96	48	7
NMTAP	7	96	7
NMTAP	7	144	6
NMTAP	7	192	5
NMTAP	7	288	0
NMTAP	7	288	6
NMTAP	8	0	2
NMTAP	8	48	2
NMTAP	8	96	0
NMTAP	8	144	0
NMTAP	8	192	1
NMTAP	8	240	1
NMTAP	8	288	2
NMTAP	8	288	7
NMTAP	9	0	4
NMTAP	9	0	5
NMTAP	9	48	3
NMTAP	9	48	6
NMTAP	9	96	2
NMSTR	9	96	7
NMSI_	9	96	7	96	48	4
BRTAP	9	192	0
NMHLD	10	0	1	192
NMTAP	10	0	5
NMTAP	10	96	4
NMTAP	10	192	3
NMTAP	10	240	3
NMTAP	10	288	2
NMTAP	11	0	1
NMTAP	11	0	3
NMTAP	11	96	2
NMTAP	11	96	4
NMTAP	11	192	4
NMTAP	11	192	5
NMTAP	11	288	3
NMHLD	11	288	6	288
NMTAP	12	0	2
NMTAP	12	96	3
NMTAP	12	192	4
NMTAP	12	240	4
NMTAP	12	288	5
NMTAP	13	0	3
NMTAP	13	0	5
NMTAP	13	96	2
NMTAP	13	96	4
NMTAP	13	192	1
NMTAP	13	240	1
NMTAP	13	288	3
NMTAP	14	0	2
NMHLD	14	0	3	288
NMTAP	14	96	1
NMTAP	14	192	0
NMHLD	14	288	0	384
NMTAP	15	0	1
NMTAP	15	96	2
NMSTR	15	192	3
NMSI_	15	192	3	96	144	5
CNSI_	16	48	5	0	48	2
CNSI_	16	96	2	0	48	6
CNSI_	16	144	6	0	96	1
CNSI_	16	240	1	0	144	7
NMTAP	17	96	1
NMTAP	17	192	2
NMTAP	17	192	7
NMTAP	18	0	1
NMTAP	18	0	3
NMTAP	18	96	1
NMTAP	18	96	3
NMTAP	18	192	1
NMTAP	18	240	0
NMTAP	18	288	0
NMTAP	18	288	7
NMTAP	19	0	6
NMTAP	19	0	7
NMTAP	19	96	4
NMTAP	19	96	5
NMHLD	19	192	3	96
NMHLD	19	192	6	96
NMTAP	20	0	4
NMTAP	20	0	6
NMTAP	20	96	4
NMTAP	20	96	6
NMTAP	20	192	6
NMTAP	20	240	7
NMTAP	20	288	0
NMTAP	20	288	7
NMTAP	21	0	0
NMTAP	21	0	1
NMTAP	21	96	2
NMTAP	21	96	3
NMHLD	21	192	1	96
NMHLD	21	192	4	96
NMTAP	22	0	1
NMTAP	22	0	3
NMTAP	22	96	1
NMTAP	22	96	3
NMTAP	22	192	2
NMTAP	22	240	3
NMTAP	22	288	3
NMTAP	22	288	4
NMTAP	23	0	4
NMTAP	23	0	6
NMTAP	23	96	4
NMHLD	23	96	6	96
NMSTR	23	192	5
NMSCL	23	192	5	96	96	2
NMTAP	24	0	7
NMTAP	24	96	0
NMTAP	24	96	1
NMTAP	24	192	2
NMTAP	24	240	2
NMTAP	24	288	2
NMTAP	24	288	3
NMTAP	25	0	0
NMTAP	25	0	7
NMTAP	25	48	0
NMTAP	25	48	7
NMTAP	25	96	0
NMTAP	25	96	7
NMTAP	25	192	2
NMTAP	25	192	5
NMSTR	25	288	7
NMSI_	25	288	7	96	48	3
NMTAP	25	336	3
NMTAP	26	0	7
NMTAP	26	144	1
NMTAP	26	144	5
NMTAP	26	192	1
NMTAP	26	192	5
NMTAP	26	288	0
NMTAP	26	288	4
NMTAP	26	336	0
NMTAP	26	336	4
NMSTR	27	48	3
NMSI_	27	48	3	96	48	5
NMSTR	27	48	7
NMSI_	27	48	7	96	48	1
NMSTR	27	288	0
NMSI_	27	288	0	96	48	4
NMTAP	27	336	4
NMTAP	28	0	0
NMTAP	28	144	2
NMTAP	28	144	6
NMTAP	28	192	2
NMTAP	28	192	6
NMTAP	28	288	3
NMTAP	28	288	7
NMTAP	28	336	3
NMTAP	28	336	7
NMSTR	29	48	0
NMSI_	29	48	0	96	48	6
NMSTR	29	48	4
NMSI_	29	48	4	96	48	2
NMSTR	29	288	6
NMSI_	29	288	6	96	48	2
NMTAP	29	336	2
NMTAP	30	0	6
NMTAP	30	144	1
NMTAP	30	144	5
NMTAP	30	192	1
NMTAP	30	192	5
NMTAP	30	288	0
NMTAP	30	288	4
NMSTR	30	336	0
NMSI_	30	336	0	96	48	6
NMSTR	30	336	4
NMSI_	30	336	4	96	48	2
CNSI_	31	96	2	0	96	5
CNSI_	31	96	6	0	96	1
NMHLD	31	288	6	96
NMTAP	32	0	4
NMTAP	32	48	4
NMTAP	32	96	7
NMTAP	32	144	7
NMTAP	32	192	0
NMTAP	32	192	1
NMTAP	32	288	2
NMTAP	32	288	3
NMTAP	32	336	2
NMTAP	32	336	3
NMTAP	33	48	1
NMSTR	33	48	5
NMSCR	33	48	5	96	96	1
NMTAP	33	144	3
NMSTR	34	0	2
NMSCR	34	0	2	96	96	5
NMSTR	34	96	5
NMSCR	34	96	5	96	96	0
NMSTR	34	192	0
NMSLR	34	192	0	96	96	4
NMSTR	34	288	4
NMSLR	34	288	4	96	96	0
NMTAP	35	0	0
NMTAP	35	192	1
NMTAP	35	192	5
NMSTR	36	0	6
NMSCR	36	0	6	96	96	1
NMSTR	36	96	1
NMSI_	36	96	1	96	96	5
NMSTR	36	192	5
NMSCL	36	192	5	96	96	2
NMSTR	36	288	2
NMSXL	36	288	2	96	192	6
NMTAP	37	0	1
NMTAP	37	192	0
NMTAP	38	0	3
NMSTR	38	0	5
NMSCR	38	0	5	96	96	0
NMSTR	38	192	2
NMSCL	38	192	2	96	96	7
NMSTR	39	0	4
NMSSL	39	0	4	96	96	0
NMTAP	39	192	1
NMTAP	39	288	2
NMTAP	40	0	2
NMTAP	40	0	3
NMTAP	40	48	2
NMTAP	40	48	3
NMTAP	40	96	1
NMTAP	40	96	4
NMTAP	40	144	1
NMTAP	40	144	4
NMTAP	40	192	0
NMTAP	40	192	5
NMTAP	40	240	0
NMTAP	40	240	5
NMTAP	40	288	6
NMSTR	40	288	7
BRSCL	40	288	7	96	144	0
NMSTR	41	96	7
NMSI_	41	96	7	96	48	3
BXTAP	41	192	7
NMTAP	41	288	1
NMTAP	41	288	5
EXTAP	42	0	0
EXSTR	42	0	2
NMSI_	42	0	2	96	48	4
NMTAP	42	48	2
NMSTR	42	96	1
NMSI_	42	96	1	96	48	5
NMTAP	42	144	1
NMSTR	42	192	7
NMSI_	42	192	7	96	48	3
NMTAP	42	240	7
NMSTR	42	288	6
NMSI_	42	288	6	96	48	4
NMTAP	42	336	6
NMSTR	43	0	2
NMSCL	43	0	2	96	48	0
NMTAP	43	96	5
NMTAP	43	192	6
NMTAP	43	192	7
NMHLD	43	240	6	96
NMTAP	43	240	7
NMTAP	43	336	4
NMTAP	44	0	4
NMTAP	44	96	2
NMTAP	44	96	3
NMTAP	44	144	2
NMTAP	44	144	3
NMTAP	44	240	0
NMTAP	44	240	1
NMTAP	44	288	7
NMTAP	44	336	6
NMSTR	45	0	4
NMSI_	45	0	4	96	48	1
NMSTR	45	0	5
NMSI_	45	0	5	96	48	0
EXTAP	45	96	4
EXTAP	45	96	5
BRTAP	45	192	2
BRTAP	45	192	7
NMTAP	45	288	1
NMTAP	45	288	6
EXTAP	46	0	0
EXSTR	46	0	5
NMSI_	46	0	5	96	48	3
NMTAP	46	48	5
NMSTR	46	96	6
NMSI_	46	96	6	96	48	2
NMTAP	46	144	6
NMSTR	46	192	0
NMSI_	46	192	0	96	48	4
NMTAP	46	240	0
NMSTR	46	288	1
NMSI_	46	288	1	96	48	3
NMTAP	46	336	1
NMSTR	47	0	5
NMSCR	47	0	5	96	48	7
NMTAP	47	96	2
NMTAP	47	192	0
NMTAP	47	192	1
NMTAP	47	240	0
NMHLD	47	240	1	96
NMTAP	47	336	3
NMTAP	48	0	3
NMTAP	48	96	4
NMTAP	48	96	5
NMTAP	48	144	4
NMTAP	48	144	5
NMTAP	48	240	6
NMTAP	48	240	7
NMTAP	48	288	0
NMTAP	48	336	1
NMSTR	49	0	2
NMSI_	49	0	2	96	48	4
NMSTR	49	0	6
NMSI_	49	0	6	96	48	4
NMTAP	49	96	2
NMTAP	49	96	6
BRTAP	49	192	0
BRTAP	49	192	7
NMTAP	49	288	1
NMTAP	49	288	5
EXSTR	50	0	2
NMSI_	50	0	2	96	48	0
EXTAP	50	0	4
NMTAP	50	48	2
NMSTR	50	96	3
NMSI_	50	96	3	96	48	7
NMTAP	50	144	3
NMSTR	50	192	1
NMSI_	50	192	1	96	48	5
NMTAP	50	240	1
NMSTR	50	288	0
NMSI_	50	288	0	96	48	6
NMTAP	50	336	0
NMTAP	51	0	3
NMSTR	51	96	7
NMSCL	51	96	7	96	48	4
NMSCR	51	96	7	96	48	2
NMTAP	51	192	7
NMTAP	51	336	1
NMHLD	52	0	1	48
NMTAP	52	48	0
NMHLD	52	96	0	48
NMTAP	52	144	7
NMHLD	52	192	7	48
NMTAP	52	240	6
NMHLD	52	288	6	48
NMTAP	52	336	5
NMSTR	53	0	5
NMSI_	53	0	5	96	48	1
NMTAP	53	192	2
NMTAP	53	192	4
NMTAP	53	288	3
EXTAP	54	0	3
EXSTR	54	0	5
NMSI_	54	0	5	96	48	7
NMTAP	54	48	5
NMSTR	54	96	4
NMSI_	54	96	4	96	48	0
NMTAP	54	144	4
NMSTR	54	192	6
NMSI_	54	192	6	96	48	2
NMTAP	54	240	6
NMSTR	54	288	7
NMSI_	54	288	7	96	48	1
NMTAP	54	336	7
NMTAP	55	0	4
NMSTR	55	96	0
NMSCL	55	96	0	96	48	5
NMSCR	55	96	0	96	48	3
NMTAP	55	192	0
NMTAP	55	336	6
NMHLD	56	0	6	48
NMTAP	56	48	7
NMHLD	56	96	7	48
NMTAP	56	144	0
NMHLD	56	192	0	48
NMTAP	56	240	1
NMHLD	56	288	1	48
NMTAP	56	336	2
NMSTR	57	0	2
NMSI_	57	0	2	96	48	6
BRTAP	57	192	0
BRTAP	57	192	4
NMTAP	57	336	5
NMHLD	58	0	5	192
NMTAP	58	96	7
NMHLD	58	192	4	96
NMTAP	58	288	7
NMTAP	58	336	7
NMTAP	59	48	4
NMTAP	59	48	6
NMTAP	59	96	4
NMTAP	59	96	6
NMTAP	59	192	4
NMHLD	59	192	5	96
NMTAP	59	288	4
NMTAP	59	336	3
NMTAP	60	0	2
NMTAP	60	96	1
NMHLD	60	144	1	96
NMTAP	60	240	3
NMTAP	60	288	3
NMHLD	60	336	0	96
NMTAP	61	48	2
NMTAP	61	144	1
NMTAP	61	144	3
NMTAP	61	192	1
NMTAP	61	192	3
NMTAP	61	288	4
NMTAP	61	336	5
NMHLD	62	0	6	240
NMTAP	62	96	4
NMTAP	62	144	4
NMSTR	62	240	5
NMSXR	62	240	5	96	192	1
NMTAP	62	336	7
NMTAP	63	48	6
NMTAP	63	144	5
NMTAP	63	192	5
NMTAP	63	288	2
NMTAP	63	288	4
NMTAP	63	336	3
NMTAP	64	0	4
NMTAP	64	0	5
NMSTR	64	96	6
NMSI_	64	96	6	96	48	3
NMSTR	64	96	7
NMSI_	64	96	7	96	48	2
NMTAP	64	192	6
NMTAP	64	192	7
NMTAP	64	288	1
NMTAP	64	288	4
NMTAP	65	0	2
NMTAP	65	24	5
NMTAP	65	48	2
NMTAP	65	72	5
NMSTR	65	96	3
BRSI_	65	96	3	96	48	0
NMTAP	65	120	4
NMTAP	65	144	3
NMTAP	65	168	4
BXTAP	65	192	3
NMSTR	66	0	6
NMSLL	66	0	6	96	192	2
NMTAP	66	192	2
EXHLD	67	0	0	64
NMHLD	67	64	1	64
NMHLD	67	128	2	64
EXHLD	67	192	5	64
NMHLD	67	256	4	64
NMHLD	67	320	3	64
EXSTR	68	0	2
NMSCL	68	0	2	96	192	6
NMSTR	68	192	6
NMSCR	68	192	6	96	192	2
NMTAP	69	0	5
NMTAP	69	192	3
NMTAP	69	192	4
NMSTR	70	0	2
NMSI_	70	0	2	96	48	4
NMTAP	70	0	4
NMTAP	70	144	5
NMTAP	70	192	5
NMTAP	70	288	6
NMTAP	71	0	3
NMSTR	71	0	5
NMSI_	71	0	5	96	48	3
NMTAP	71	48	3
NMTAP	71	144	2
NMTAP	71	192	2
NMTAP	71	288	1
EXTAP	72	0	0
EXTAP	72	0	1
NMTAP	72	64	2
NMTAP	72	64	3
NMTAP	72	128	4
NMTAP	72	128	5
EXTAP	72	192	6
EXTAP	72	192	7
NMTAP	72	256	4
NMTAP	72	256	5
NMTAP	72	320	2
NMTAP	72	320	3
EXTAP	73	0	1
EXTAP	73	0	7
NMTAP	73	64	3
NMTAP	73	64	4
NMTAP	73	128	0
NMTAP	73	128	6
NMTAP	73	192	3
NMTAP	73	192	4
BXTAP	73	288	0
BXTAP	73	288	7
NMSTR	74	0	0
NMSCR	74	0	0	96	2784	7
NMTAP	74	0	7
NMTAP	82	0	3
NMSTR	82	0	7
NMSI_	82	0	7	96	1248	4
NMTAP	82	96	3
NMTAP	82	192	3
NMTAP	82	288	3
NMTAP	83	0	2
NMTAP	83	96	2
NMTAP	83	192	2
NMTAP	83	288	2
NMTAP	84	0	1
NMTAP	84	96	1
NMTAP	84	192	1
NMTAP	84	288	1
NMTAP	85	0	0
NMTAP	85	96	0
NMTAP	85	192	0
NMTAP	85	288	0
NMSTR	86	0	0
NMSI_	86	0	0	96	864	3
NMTAP	86	0	4
NMTAP	86	96	4
NMTAP	86	192	4
NMTAP	86	288	4
NMTAP	87	0	5
NMTAP	87	96	5
NMTAP	87	192	5
NMTAP	87	288	5
NMTAP	88	0	6
NMTAP	88	96	6
NMTAP	88	192	6
NMTAP	88	288	6
NMTAP	89	0	7
BRTAP	89	288	2
BRTAP	89	288	5
EXSTR	90	0	1
NMSI_	90	0	1	96	48	7
EXTAP	90	0	4
NMTAP	90	48	1
NMSTR	90	96	2
NMSI_	90	96	2	96	48	6
NMTAP	90	144	2
NMSTR	90	192	3
NMSI_	90	192	3	96	48	7
NMTAP	90	240	3
NMSTR	90	288	5
NMSI_	90	288	5	96	48	1
NMTAP	90	336	5
NMSTR	91	0	2
NMSCL	91	0	2	96	96	6
NMTAP	91	96	6
NMTAP	91	192	5
NMHLD	91	240	5	96
NMTAP	91	336	4
NMTAP	92	0	4
NMTAP	92	96	2
NMTAP	92	96	3
NMTAP	92	144	2
NMTAP	92	144	3
NMTAP	92	240	0
NMTAP	92	240	1
NMTAP	92	288	7
NMTAP	92	336	6
NMSTR	93	0	4
NMSI_	93	0	4	96	48	0
NMSTR	93	0	5
NMSI_	93	0	5	96	48	1
EXTAP	93	96	4
EXTAP	93	96	5
NMTAP	93	192	2
NMTAP	93	192	7
NMTAP	93	288	3
NMTAP	93	288	5
EXTAP	94	0	4
EXSTR	94	0	6
NMSI_	94	0	6	96	48	0
NMTAP	94	48	6
NMSTR	94	96	5
NMSI_	94	96	5	96	48	1
NMTAP	94	144	5
NMSTR	94	192	4
NMSI_	94	192	4	96	48	0
NMTAP	94	240	4
NMSTR	94	288	2
NMSI_	94	288	2	96	48	6
NMTAP	94	336	2
NMSTR	95	0	5
NMSCR	95	0	5	96	96	1
NMTAP	95	96	1
NMTAP	95	192	2
NMHLD	95	240	2	96
NMTAP	95	336	3
NMTAP	96	0	3
NMTAP	96	96	4
NMTAP	96	96	5
NMTAP	96	144	4
NMTAP	96	144	5
NMTAP	96	240	6
NMTAP	96	240	7
NMTAP	96	288	0
NMTAP	96	336	1
NMSTR	97	0	2
NMSI_	97	0	2	96	48	6
NMSTR	97	0	3
NMSI_	97	0	3	96	48	7
EXTAP	97	96	2
EXTAP	97	96	3
NMTAP	97	192	0
NMTAP	97	192	4
NMTAP	97	288	1
NMTAP	97	288	5
NMSTR	98	0	2
NMSI_	98	0	2	96	48	6
NMTAP	98	0	7
NMTAP	98	48	2
NMSTR	98	96	0
NMSI_	98	96	0	96	48	4
NMTAP	98	144	0
NMSTR	98	192	7
NMSI_	98	192	7	96	48	3
NMTAP	98	240	7
NMSTR	98	288	5
NMSI_	98	288	5	96	48	1
NMTAP	98	336	5
NMTAP	99	0	2
NMSTR	99	96	7
NMSCL	99	96	7	96	48	4
NMSCR	99	96	7	96	48	2
NMTAP	99	192	7
NMTAP	99	336	2
NMHLD	100	0	2	48
NMTAP	100	48	0
NMHLD	100	96	0	48
NMTAP	100	144	7
NMHLD	100	192	7	48
NMTAP	100	240	5
NMHLD	100	288	5	48
NMTAP	100	336	2
NMSTR	101	0	2
NMSCR	101	0	2	96	48	5
EXTAP	101	192	6
EXTAP	101	192	7
NMTAP	101	288	0
NMTAP	101	288	6
NMTAP	102	0	0
NMSTR	102	0	5
NMSI_	102	0	5	96	48	1
NMTAP	102	48	5
NMSTR	102	96	7
NMSI_	102	96	7	96	48	3
NMTAP	102	144	7
NMSTR	102	192	0
NMSI_	102	192	0	96	48	4
NMTAP	102	240	0
NMSTR	102	288	2
NMSI_	102	288	2	96	48	6
NMTAP	102	336	2
NMTAP	103	0	5
NMSTR	103	96	7
NMSCL	103	96	7	96	48	4
NMSCR	103	96	7	96	48	2
NMTAP	103	192	7
NMTAP	103	288	1
NMTAP	103	288	5
NMTAP	104	0	3
NMSTR	104	0	6
NMSI_	104	0	6	96	48	2
NMTAP	104	48	6
NMSTR	104	96	4
NMSI_	104	96	4	96	48	0
NMTAP	104	144	4
NMSTR	104	192	3
NMSI_	104	192	3	96	48	7
NMTAP	104	240	3
NMSTR	104	288	1
NMSI_	104	288	1	96	48	5
NMTAP	104	336	1
NMSTR	105	0	6
NMSV_	105	0	6	96	48	3
NMTAP	105	96	3
BRTAP	105	192	7
NMTAP	105	336	5
NMHLD	106	0	5	192
NMTAP	106	96	7
NMHLD	106	192	4	96
NMTAP	106	288	7
NMTAP	106	336	7
NMTAP	107	48	4
NMTAP	107	48	6
NMTAP	107	96	4
NMTAP	107	96	6
NMTAP	107	192	4
NMTAP	107	192	5
NMTAP	107	288	3
NMTAP	107	336	2
NMSTR	108	0	1
NMSI_	108	0	1	96	48	3
NMTAP	108	96	3
NMTAP	108	192	0
NMTAP	108	288	2
NMHLD	108	336	2	96
NMTAP	109	48	3
NMTAP	109	96	4
NMTAP	109	144	1
NMTAP	109	144	5
NMTAP	109	240	3
NMTAP	109	288	4
NMTAP	109	336	5
NMHLD	110	0	6	192
NMTAP	110	96	4
NMHLD	110	192	7	96
NMTAP	110	288	5
NMSTR	110	336	5
NMSXL	110	336	5	96	192	3
NMTAP	111	48	3
NMTAP	111	144	2
NMTAP	111	192	2
NMTAP	111	288	0
NMTAP	111	336	1
EXSTR	112	0	2
NMSI_	112	0	2	96	48	7
EXSTR	112	0	6
NMSI_	112	0	6	96	48	3
NMTAP	112	96	2
NMTAP	112	96	6
EXSTR	112	192	3
NMSCR	112	192	3	96	48	6
EXSTR	112	192	7
NMSCR	112	192	7	96	48	2
NMTAP	112	288	3
NMTAP	112	288	7
EXTAP	113	0	2
EXTAP	113	24	6
NMTAP	113	48	2
NMTAP	113	72	6
EXTAP	113	96	1
EXTAP	113	120	5
NMTAP	113	144	1
NMTAP	113	168	5
BRSTR	113	192	0
BRSF_	113	192	0	96	48	4
BRTAP	113	288	0

T_REC_TAP	465
T_REC_BRK	13
T_REC_XTP	24
T_REC_BXX	4
T_REC_HLD	41
T_REC_XHO	2
T_REC_BHO	0
T_REC_BXH	0
T_REC_STR	96
T_REC_BST	1
T_REC_XST	11
T_REC_XBS	0
T_REC_TTP	0
T_REC_THO	0
T_REC_SLD	108
T_REC_BSL	4
T_REC_ALL	769
T_NUM_TAP	596
T_NUM_BRK	22
T_NUM_HLD	43
T_NUM_SLD	108
T_NUM_ALL	769
T_JUDGE_TAP	614
T_JUDGE_HLD	99
T_JUDGE_SLD	112
T_JUDGE_ALL	825
TTM_EACHPAIRS	150
TTM_SCR_TAP	298000
TTM_SCR_BRK	57200
TTM_SCR_HLD	43000
TTM_SCR_SLD	162000
TTM_SCR_ALL	560200
TTM_SCR_S	541300
TTM_SCR_SS	558000
TTM_RAT_ACV	10039

