VERSION	0.00.00	1.04.00
FES_MODE	0
BPM_DEF	187.000	187.000	187.000	187.000
MET_DEF	4	4
RESOLUTION	384
CLK_DEF	384
COMPATIBLE_CODE	MA2

BPM	0	0	187.000
MET	0	0	4	4

NMTAP	2	0	1
NMTAP	2	96	1
NMTAP	2	192	2
NMTAP	2	192	3
NMTAP	2	288	2
NMTAP	2	288	3
NMTAP	3	0	4
NMTAP	3	96	4
NMTAP	3	192	3
NMTAP	3	192	5
NMTAP	4	0	6
NMTAP	4	96	6
NMTAP	4	192	4
NMTAP	4	192	5
NMTAP	4	288	4
NMTAP	4	288	5
NMTAP	5	0	3
NMTAP	5	96	3
NMTAP	5	192	2
NMTAP	5	192	4
NMTAP	6	0	1
NMTAP	6	96	1
NMTAP	6	192	2
NMTAP	6	192	3
NMTAP	6	288	2
NMTAP	6	288	3
NMTAP	7	0	4
NMTAP	7	96	4
NMTAP	7	192	3
NMTAP	7	192	5
EXTAP	8	0	6
EXTAP	8	0	7
EXTAP	8	192	0
EXTAP	8	192	1
EXTAP	9	0	2
EXTAP	9	0	3
NMTAP	9	96	2
NMTAP	9	96	3
BRTAP	9	192	0
BRTAP	9	192	5
NMHLD	10	0	1	576
NMTAP	10	192	3
NMTAP	10	288	3
NMTAP	11	0	2
NMTAP	11	96	2
NMTAP	11	192	4
NMHLD	12	0	6	576
NMTAP	12	192	4
NMTAP	12	288	4
NMTAP	13	0	5
NMTAP	13	96	5
NMTAP	13	192	3
NMSTR	14	0	1
NMSI_	14	0	1	96	48	7
NMSTR	14	192	2
NMSI_	14	192	2	96	96	6
NMTAP	15	192	5
NMTAP	15	192	7
NMTAP	16	0	4
NMTAP	16	96	3
NMTAP	16	192	2
NMTAP	16	288	1
NMSTR	17	0	0
NMSI_	17	0	0	96	96	4
NMSTR	17	0	6
NMSI_	17	0	6	96	96	2
NMTAP	18	0	4
NMTAP	18	0	6
NMTAP	18	96	6
NMTAP	18	192	5
NMTAP	18	192	6
NMTAP	18	288	6
NMTAP	19	0	6
NMTAP	19	0	7
NMSTR	19	96	6
NMSI_	19	96	6	96	48	4
NMTAP	19	96	7
NMTAP	20	0	1
NMTAP	20	0	3
NMTAP	20	96	1
NMTAP	20	192	1
NMTAP	20	192	2
NMTAP	20	288	1
NMTAP	21	0	0
NMTAP	21	0	1
NMTAP	21	96	0
NMSTR	21	96	1
NMSI_	21	96	1	96	48	3
NMTAP	22	0	4
NMTAP	22	0	6
NMTAP	22	96	6
NMTAP	22	192	5
NMTAP	22	192	6
NMTAP	22	288	6
NMSTR	23	0	6
NMSI_	23	0	6	96	48	4
NMTAP	23	0	7
NMSTR	23	192	1
NMSI_	23	192	1	96	48	3
NMTAP	24	0	4
NMTAP	24	0	5
NMTAP	24	96	4
NMTAP	24	96	5
NMTAP	24	192	2
NMTAP	24	192	3
NMTAP	24	288	2
NMTAP	24	288	3
NMHLD	25	0	0	96
NMHLD	25	0	1	96
EXTAP	25	192	2
EXTAP	25	192	7
EXHLD	26	0	0	576
EXTAP	26	0	6
NMTTP	26	192	5	B	0	M1
NMTTP	26	288	7	B	0	M1
NMTTP	27	0	2	B	0	M1
NMTTP	27	96	0	B	0	M1
NMTTP	27	192	4	E	0	M1
EXTAP	28	0	1
EXHLD	28	0	7	576
NMTTP	28	192	2	B	0	M1
NMTTP	28	288	0	B	0	M1
NMTTP	29	0	5	B	0	M1
NMTTP	29	96	7	B	0	M1
NMTTP	29	192	4	E	0	M1
EXHLD	30	0	0	576
EXTAP	30	0	6
NMTTP	30	192	5	B	0	M1
NMTTP	30	288	7	B	0	M1
NMTTP	31	0	2	B	0	M1
NMTTP	31	96	0	B	0	M1
NMTTP	31	192	4	E	0	M1
NMHLD	32	0	6	96
NMTAP	32	96	4
NMHLD	32	192	2	96
NMSTR	32	288	4
NMSXL	32	288	4	96	192	0
NMHLD	34	0	7	96
NMHLD	34	96	6	96
NMHLD	34	192	5	96
NMHLD	34	288	4	96
NMHLD	35	0	3	192
NMTAP	35	192	7
NMTAP	35	288	7
NMHLD	36	0	0	96
NMHLD	36	96	1	96
NMHLD	36	192	2	96
NMHLD	36	288	3	96
NMHLD	37	0	4	192
NMTTP	37	192	0	C	0	M1
NMHLD	38	0	7	96
NMHLD	38	96	6	96
NMHLD	38	192	5	96
NMHLD	38	288	4	96
NMHLD	39	0	3	96
NMHLD	39	96	2	96
NMTAP	39	192	1
NMTAP	40	0	0
NMTAP	40	0	1
NMTAP	40	96	0
NMTAP	40	96	1
NMTAP	40	192	4
NMTAP	40	192	5
NMTAP	40	288	4
NMTAP	40	288	5
NMTAP	41	0	6
NMTAP	41	0	7
NMTAP	41	96	6
NMTAP	41	96	7
NMTTP	41	192	0	C	1	M1
NMTTP	41	192	3	B	0	M1
NMTTP	41	192	4	B	0	M1
NMTTP	41	192	5	B	0	M1
NMTTP	41	192	6	B	0	M1
EXTAP	42	0	0
EXTAP	42	0	1
NMTAP	42	96	6
NMTAP	42	96	7
NMTAP	42	192	5
NMTAP	42	240	5
NMTAP	42	288	4
NMTAP	43	0	2
NMTAP	43	0	3
NMSTR	43	96	1
NMSI_	43	96	1	96	48	4
NMHLD	44	0	5	96
NMTAP	44	96	3
NMHLD	44	192	1	96
NMTAP	44	288	3
NMTAP	45	0	4
NMTAP	45	0	5
NMTAP	45	96	2
NMTAP	45	96	3
BXTAP	45	192	0
BXTAP	45	192	5
EXTAP	46	0	6
EXTAP	46	0	7
NMTAP	46	96	0
NMTAP	46	96	1
NMTAP	46	192	2
NMTAP	46	240	2
NMTAP	46	288	3
NMTAP	47	0	4
NMTAP	47	0	5
NMSTR	47	96	6
NMSCR	47	96	6	96	48	1
NMHLD	48	0	2	96
NMTAP	48	96	4
NMHLD	48	192	6	96
NMTAP	48	288	4
NMTAP	49	0	2
NMTAP	49	0	3
NMTAP	49	96	4
NMTAP	49	96	5
BXTAP	49	192	2
BXTAP	49	192	7
EXTAP	50	0	0
EXTAP	50	0	1
NMTAP	50	96	6
NMTAP	50	96	7
NMTAP	50	192	5
NMTAP	50	240	5
NMTAP	50	288	4
NMTAP	51	0	2
NMTAP	51	0	3
NMSTR	51	96	0
NMSI_	51	96	0	96	48	4
NMTAP	52	0	5
NMTAP	52	48	5
NMTAP	52	96	3
NMTAP	52	192	1
NMTAP	52	240	1
NMTAP	52	288	3
NMTAP	53	0	4
NMTAP	53	0	5
NMTAP	53	96	2
NMTAP	53	96	3
BXTAP	53	192	0
BXTAP	53	192	5
EXTAP	54	0	6
EXTAP	54	0	7
NMTAP	54	96	0
NMTAP	54	96	1
NMTAP	54	192	2
NMTAP	54	240	2
NMTAP	54	288	3
NMTAP	55	0	4
NMTAP	55	0	5
NMSTR	55	96	7
NMSCL	55	96	7	96	48	4
NMTAP	56	0	2
NMTAP	56	48	2
NMTAP	56	96	0
NMTAP	56	192	6
NMTAP	56	240	6
NMTAP	56	288	0
NMTAP	57	0	1
NMTAP	57	0	3
NMTAP	57	96	4
NMTAP	57	96	6
BXTAP	57	192	0
BXTAP	57	192	7
NMTAP	58	0	6
NMTAP	58	96	4
NMTAP	58	96	5
NMTAP	58	192	3
NMTAP	58	288	4
NMTAP	58	288	5
NMHLD	59	0	6	192
NMTAP	59	96	7
NMTAP	59	192	0
NMTAP	60	0	1
NMTAP	60	96	2
NMTAP	60	96	3
NMTAP	60	192	4
NMTAP	60	288	2
NMTAP	60	288	3
NMHLD	61	0	1	192
NMTAP	61	96	0
NMTAP	61	192	7
NMTAP	62	0	6
NMTAP	62	96	4
NMTAP	62	96	5
NMTAP	62	192	3
NMTAP	62	288	4
NMTAP	62	288	5
NMHLD	63	0	6	192
NMTAP	63	96	7
NMTAP	63	192	0
NMTAP	64	0	1
NMTAP	64	96	0
NMTAP	64	96	1
NMTAP	64	192	6
NMSTR	64	288	6
NMSI_	64	288	6	96	48	3
NMSTR	64	288	7
NMSI_	64	288	7	96	48	2
BRTAP	65	192	0
BRTAP	65	192	5
NMSTR	66	0	3
NMSXL	66	0	3	96	96	4
NMHLD	66	0	6	576
CNSUL	66	192	4	0	384	7
NMHLD	68	0	1	576
NMSTR	68	0	4
NMSXR	68	0	4	96	96	3
CNSUR	68	192	3	0	384	0
NMTAP	70	0	4
NMHLD	70	0	5	384
NMTAP	70	192	6
NMHLD	71	0	3	384
NMTAP	71	192	2
NMTTP	72	0	4	B	0	M1
NMTTP	72	0	5	B	0	M1
NMTTP	72	0	5	E	0	M1
NMTTP	72	192	0	B	0	M1
NMTTP	72	192	1	B	0	M1
NMTTP	72	192	1	E	0	M1
NMTTP	73	0	6	B	0	M1
NMTTP	73	0	7	B	0	M1
NMTTP	73	0	7	E	0	M1
NMTTP	73	192	2	B	0	M1
NMTTP	73	192	3	B	0	M1
NMTTP	73	192	3	E	0	M1
NMHLD	74	0	7	768
NMTAP	75	192	5
NMHLD	76	0	5	768
NMTAP	77	192	3
NMHLD	78	0	3	384
NMHLD	79	0	1	384
NMSTR	80	0	0
NMSUL	80	0	0	96	480	5
NMTAP	82	0	2
NMHLD	82	0	6	288
NMTAP	82	96	2
NMTAP	82	192	2
NMTAP	82	288	2
NMTAP	83	0	2
NMHLD	83	0	5	288
NMTAP	83	96	2
NMTAP	83	192	2
NMTAP	83	288	2
NMTAP	84	0	2
NMHLD	84	0	4	288
NMTAP	84	96	2
NMTAP	84	192	2
NMTAP	84	288	2
NMTAP	85	0	2
NMHLD	85	0	3	288
NMTAP	85	96	2
NMTAP	85	192	2
NMTAP	85	288	2
NMHLD	86	0	2	288
NMTAP	86	0	3
NMTAP	86	96	3
NMTAP	86	192	3
NMTAP	86	288	3
NMHLD	87	0	1	288
NMTAP	87	0	4
NMTAP	87	96	4
NMTAP	87	192	4
NMTAP	87	288	4
NMHLD	88	0	0	288
NMTAP	88	0	5
NMTAP	88	96	5
NMTAP	88	192	5
NMTAP	88	288	5
EXTAP	90	0	0
EXTAP	90	0	1
NMTAP	90	96	6
NMTAP	90	96	7
NMTAP	90	192	5
NMTAP	90	240	5
NMTAP	90	288	4
NMTAP	91	0	2
NMTAP	91	0	3
NMSTR	91	96	0
NMSI_	91	96	0	96	48	5
NMSTR	91	96	1
NMSI_	91	96	1	96	48	5
NMTAP	92	0	5
NMTAP	92	48	5
NMTAP	92	96	3
NMTAP	92	192	1
NMTAP	92	240	1
NMTAP	92	288	3
NMTAP	93	0	4
NMTAP	93	0	5
NMTAP	93	96	2
NMTAP	93	96	3
BXTAP	93	192	0
BXTAP	93	192	5
EXTAP	94	0	6
EXTAP	94	0	7
NMTAP	94	96	0
NMTAP	94	96	1
NMTAP	94	192	2
NMTAP	94	240	2
NMTAP	94	288	3
NMTAP	95	0	4
NMTAP	95	0	5
NMSTR	95	96	6
NMSI_	95	96	6	96	48	2
NMSTR	95	96	7
NMSI_	95	96	7	96	48	2
NMTAP	96	0	2
NMTAP	96	48	2
NMTAP	96	96	4
NMTAP	96	192	6
NMTAP	96	240	6
NMTAP	96	288	4
NMTAP	97	0	2
NMTAP	97	0	3
NMTAP	97	96	4
NMTAP	97	96	5
BXTAP	97	192	2
BXTAP	97	192	7
EXTAP	98	0	0
EXTAP	98	0	1
NMTAP	98	96	6
NMTAP	98	96	7
NMTAP	98	192	5
NMTAP	98	240	5
NMTAP	98	288	4
NMTAP	99	0	2
NMTAP	99	0	3
NMSTR	99	96	0
NMSCR	99	96	0	96	48	3
NMSTR	99	96	6
NMSCL	99	96	6	96	48	3
NMTAP	100	0	2
NMTAP	100	48	2
NMTAP	100	96	0
NMTAP	100	192	5
NMTAP	100	240	5
NMTAP	100	288	7
NMTAP	101	0	4
NMTAP	101	0	5
NMTAP	101	96	2
NMTAP	101	96	3
BXTAP	101	192	0
BXTAP	101	192	5
EXTAP	102	0	6
EXTAP	102	0	7
NMTAP	102	96	0
NMTAP	102	96	1
NMTAP	102	192	2
NMTAP	102	240	2
NMTAP	102	288	3
NMTAP	103	0	4
NMTAP	103	0	5
NMTAP	103	96	2
NMTAP	103	96	3
BXTAP	103	192	0
BXTAP	103	192	5
EXTAP	104	0	0
EXTAP	104	0	1
NMTAP	104	96	6
NMTAP	104	96	7
NMTAP	104	192	5
NMTAP	104	240	5
NMTAP	104	288	4
BRTAP	105	0	1
BRTAP	105	0	3
BRTAP	105	96	4
BRTAP	105	96	6
BRTAP	105	192	0
BRTAP	105	192	7
NMTAP	106	0	6
NMTAP	106	96	4
NMTAP	106	96	5
NMTAP	106	192	3
NMTAP	106	288	4
NMTAP	106	288	5
NMSTR	107	0	6
NMSI_	107	0	6	96	48	4
NMSTR	107	96	7
NMSI_	107	96	7	96	48	3
NMTAP	108	0	1
NMTAP	108	96	2
NMTAP	108	96	3
NMTAP	108	192	4
NMTAP	108	288	2
NMTAP	108	288	3
NMSTR	109	0	1
NMSI_	109	0	1	96	48	3
NMSTR	109	96	0
NMSI_	109	96	0	96	48	4
NMTAP	110	0	6
NMTAP	110	96	4
NMTAP	110	96	5
NMTAP	110	192	3
NMTAP	110	288	4
NMTAP	110	288	5
NMSTR	111	0	6
NMSI_	111	0	6	96	48	4
NMSTR	111	96	7
NMSI_	111	96	7	96	48	3
NMTAP	112	0	1
NMTAP	112	96	0
NMTAP	112	96	1
NMTAP	112	192	6
NMSTR	112	288	6
NMSI_	112	288	6	96	48	3
NMSTR	112	288	7
NMSI_	112	288	7	96	48	2
BXTAP	113	192	0
BXTAP	113	192	6

T_REC_TAP	305
T_REC_BRK	10
T_REC_XTP	29
T_REC_BXX	18
T_REC_HLD	44
T_REC_XHO	3
T_REC_BHO	0
T_REC_BXH	0
T_REC_STR	32
T_REC_BST	0
T_REC_XST	0
T_REC_XBS	0
T_REC_TTP	33
T_REC_THO	0
T_REC_SLD	32
T_REC_BSL	0
T_REC_ALL	506
T_NUM_TAP	399
T_NUM_BRK	28
T_NUM_HLD	47
T_NUM_SLD	32
T_NUM_ALL	506
T_JUDGE_TAP	427
T_JUDGE_HLD	254
T_JUDGE_SLD	32
T_JUDGE_ALL	713
TTM_EACHPAIRS	125
TTM_SCR_TAP	199500
TTM_SCR_BRK	72800
TTM_SCR_HLD	47000
TTM_SCR_SLD	48000
TTM_SCR_ALL	367300
TTM_SCR_S	353600
TTM_SCR_SS	364500
TTM_RAT_ACV	10076

