VERSION	0.00.00	1.04.00
FES_MODE	0
BPM_DEF	185.000	185.000	185.000	185.000
MET_DEF	4	4
RESOLUTION	384
CLK_DEF	384
COMPATIBLE_CODE	MA2

BPM	0	0	185.000
MET	0	0	4	4

BXHLD	1	0	6	96
BXHLD	1	96	4	96
BXTAP	1	192	2
BXTAP	1	240	2
BXTAP	1	288	0
BXTAP	1	336	0
BXTAP	2	0	1
BXTAP	2	0	7
BXTAP	2	48	1
BXTAP	2	48	7
BXTAP	2	144	3
BXTAP	2	144	5
BXTAP	2	192	2
BXTAP	2	192	4
EXTAP	2	288	0
EXSTR	2	288	7
NMSI_	2	288	7	96	48	3
EXTAP	2	336	1
EXTAP	2	336	6
BXHLD	3	0	0	768
BXTAP	3	0	7
BXHLD	5	0	2	768
BXHLD	7	0	4	768
NMTTP	8	144	2	B	0	M1
NMTTP	8	144	3	B	0	M1
NMTTP	8	144	4	B	0	M1
NMTTP	8	144	4	E	0	M1
NMTTP	8	144	5	B	0	M1
BXHLD	9	0	6	576
EXHLD	10	0	0	192
NMTAP	10	264	0
NMTAP	10	288	7
NMTAP	10	336	1
NMTAP	10	336	6
EXHLD	11	0	2	672
NMTAP	11	0	5
NMTAP	11	96	5
NMTAP	11	192	4
NMTAP	11	288	4
NMTAP	12	0	3
NMTAP	12	96	3
NMTAP	12	192	4
NMTAP	12	288	4
NMTAP	13	0	3
EXHLD	13	0	5	480
NMTAP	13	96	3
NMTAP	13	192	4
NMTAP	13	288	4
NMHLD	14	0	3	96
NMHLD	14	192	2	96
NMHLD	14	192	4	96
NMTAP	15	0	3
EXSTR	15	0	4
NMSI_	15	0	4	96	192	7
NMTAP	15	96	3
NMTAP	15	192	3
NMTAP	15	288	3
EXSTR	16	0	3
NMSI_	16	0	3	96	192	0
NMTAP	16	0	4
NMTAP	16	96	4
NMTAP	16	192	4
NMTAP	16	288	4
EXHLD	17	0	0	96
NMHLD	17	0	4	96
EXHLD	17	192	0	96
NMHLD	17	192	4	96
NMTTP	18	0	5	A	0	M1
NMTTP	18	0	6	B	0	M1
NMTTP	18	0	6	E	0	M1
NMTTP	18	0	6	A	1	M1
NMTTP	18	0	7	B	0	M1
NMTTP	18	96	2	B	0	M1
NMTTP	18	96	3	B	0	M1
NMTTP	18	96	3	A	0	M1
NMTTP	18	96	4	B	0	M1
NMTTP	18	96	4	E	1	M1
NMTTP	18	96	4	A	0	M1
NMTTP	18	192	1	B	0	M1
NMTTP	18	192	1	E	0	M1
NMTTP	18	192	1	A	1	M1
NMTTP	18	192	1	D	0	M1
NMTTP	18	192	2	E	0	M1
NMTTP	18	192	2	D	0	M1
BXTAP	18	288	7
BXTAP	18	312	0
BXTAP	18	336	7
BXTAP	18	360	0
BXTAP	19	0	7
NMTAP	19	48	6
NMTAP	19	96	1
EXTAP	19	96	3
NMTAP	19	144	2
EXTAP	19	192	4
NMTAP	19	192	6
NMTAP	19	240	5
NMTAP	19	288	1
EXTAP	19	288	3
NMTAP	19	336	2
EXTAP	20	0	4
NMTAP	20	0	7
NMTAP	20	48	6
NMTAP	20	96	0
EXTAP	20	96	3
NMTAP	20	144	1
EXHLD	20	192	2	96
NMTAP	20	192	4
NMTAP	20	288	7
NMTAP	20	336	7
NMTAP	21	0	4
EXTAP	21	0	6
NMTAP	21	48	5
EXTAP	21	96	1
NMTAP	21	96	3
NMTAP	21	144	2
NMTAP	21	192	4
EXTAP	21	192	7
NMTAP	21	240	6
EXTAP	21	288	0
NMTAP	21	288	3
NMTAP	21	336	1
NMHLD	22	0	4	48
NMHLD	22	0	6	48
NMHLD	22	96	2	48
NMHLD	22	96	3	48
NMTAP	22	192	1
NMTAP	22	192	5
BXTAP	22	288	0
BXTAP	22	312	7
BXTAP	22	336	0
BXTAP	22	360	7
BXTAP	23	0	0
NMTAP	23	48	6
NMTAP	23	96	4
NMTAP	23	96	5
NMTAP	23	144	3
NMTAP	23	144	4
NMTAP	23	192	2
NMTAP	23	192	3
NMTAP	23	240	1
NMTAP	23	264	0
NMTAP	23	288	2
NMTAP	23	336	3
NMTAP	23	336	7
NMTAP	24	0	4
NMTAP	24	0	6
NMTAP	24	48	5
NMTAP	24	96	1
NMTAP	24	96	3
NMTAP	24	144	2
NMTAP	24	192	3
NMTAP	24	192	5
NMTAP	24	240	6
NMTAP	24	288	1
NMTAP	24	288	7
NMTAP	24	336	1
NMTAP	24	336	7
NMTAP	25	0	2
NMHLD	25	0	6	48
NMTAP	25	48	4
NMHLD	25	96	1	48
NMTAP	25	96	5
NMTAP	25	144	3
NMTAP	25	192	2
NMTAP	25	192	4
NMTAP	25	240	5
NMTAP	25	264	3
NMTAP	25	288	5
NMTAP	25	312	3
NMTAP	25	336	5
NMTAP	25	360	3
BRTAP	26	0	4
BRTAP	26	48	3
BRTAP	26	48	5
BRTAP	26	96	2
BRTAP	26	96	6
BRTAP	26	144	1
BRTAP	26	144	7
BRSTR	26	192	0
BRSI_	26	192	0	96	48	3
BRSI_	26	192	0	96	48	5
BXTAP	26	288	0
EXTAP	27	0	3
EXTAP	27	0	5
NMHLD	27	96	2	96
NMTAP	27	96	6
NMTAP	27	192	3
NMTAP	27	288	1
NMTAP	27	288	4
NMTAP	28	0	2
NMTAP	28	0	3
NMHLD	28	96	6	96
NMTAP	28	192	4
NMTAP	28	240	5
NMTAP	28	288	3
NMTAP	28	288	6
NMTAP	29	0	2
NMTAP	29	0	4
NMTAP	29	96	1
NMHLD	29	96	5	96
NMTAP	29	192	4
NMTAP	29	288	3
NMTAP	29	288	6
NMTAP	30	0	4
NMTAP	30	0	5
NMHLD	30	96	1	96
NMTAP	30	192	3
NMTAP	30	240	2
NMTAP	30	288	1
NMTAP	30	288	4
NMTAP	31	0	2
NMHLD	31	0	5	96
NMTAP	31	96	4
NMHLD	31	192	3	96
NMTAP	31	192	6
NMTAP	31	288	4
NMTAP	32	0	4
NMHLD	32	0	6	96
NMTAP	32	96	5
NMTAP	32	192	7
NMTAP	32	240	0
NMTAP	32	288	1
NMTAP	32	288	6
NMHLD	33	0	2	96
NMTAP	33	0	5
NMTAP	33	96	3
NMTAP	33	192	1
NMHLD	33	192	4	96
NMTAP	33	288	3
NMHLD	34	0	1	96
NMTAP	34	0	3
NMTAP	34	96	2
NMTAP	34	192	4
NMTAP	34	240	4
NMTAP	34	288	3
NMTAP	34	336	5
EXTAP	35	0	2
EXHLD	35	0	6	144
NMTAP	35	144	4
NMTAP	35	192	4
NMSTR	35	240	5
NMSCR	35	240	5	96	144	1
NMTAP	35	336	2
NMTAP	36	48	2
CNSCL	36	96	1	0	240	5
NMTAP	36	144	3
NMTAP	36	240	2
NMHLD	36	336	1	192
NMTAP	37	144	3
NMTAP	37	192	3
NMSTR	37	240	2
NMSLL	37	240	2	96	144	6
NMTAP	37	336	5
NMTAP	38	48	5
CNSLR	38	96	6	0	240	2
NMTAP	38	144	3
NMTAP	38	240	4
NMHLD	38	336	5	672
NMTTP	39	96	5	B	0	M1
NMTTP	39	96	6	B	0	M1
NMTTP	39	288	2	B	0	M1
NMTTP	39	288	3	B	0	M1
NMTTP	40	96	5	B	0	M1
NMTTP	40	96	6	B	0	M1
NMTAP	40	240	3
NMTAP	40	288	3
NMHLD	40	336	2	96
NMTAP	40	336	4
NMHLD	41	48	0	96
NMTAP	41	144	7
NMTAP	41	240	2
NMTAP	41	240	6
NMTAP	41	336	3
NMTAP	41	336	5
NMHLD	42	0	3	96
NMSTR	42	0	5
NMSI_	42	0	5	96	48	7
NMTAP	42	96	5
EXTAP	42	192	0
EXTAP	42	192	7
NMTAP	42	240	0
NMTAP	42	264	7
NMTAP	42	288	0
NMTAP	42	336	1
NMTAP	42	336	6
NMSTR	43	0	2
NMSI_	43	0	2	96	96	4
NMHLD	43	0	5	1248
CNSXR	43	192	4	0	384	3
NMSTR	45	0	3
NMSI_	45	0	3	96	96	6
CNSXR	45	192	6	0	360	4
NMTAP	47	0	4
BXTAP	47	0	5
BXTAP	47	96	4
NMTAP	47	96	5
BXTAP	47	192	5
NMTAP	47	192	6
NMTAP	47	288	5
BXTAP	47	288	6
NMTAP	48	0	6
BXTAP	48	0	7
BXTAP	48	96	6
NMTAP	48	96	7
NMTAP	48	192	0
BXTAP	48	192	7
BXTAP	48	288	0
NMTAP	48	288	7
NMHLD	49	0	0	48
BXHLD	49	0	1	48
BXHLD	49	96	0	48
NMHLD	49	96	1	48
BXHLD	49	192	1	48
NMHLD	49	192	2	48
NMHLD	49	288	1	48
BXHLD	49	288	2	48
NMHLD	50	0	2	48
BXHLD	50	0	3	48
BXHLD	50	96	2	48
NMHLD	50	96	3	48
BXHLD	50	192	3	48
NMHLD	50	192	4	48
NMTAP	50	288	4
BXTAP	50	288	5
BXTAP	50	336	4
NMTAP	50	336	5
NMTAP	51	0	4
BXTAP	51	0	5
NMTAP	51	48	2
NMTAP	51	72	3
NMTAP	51	96	2
NMTAP	51	120	3
NMTAP	51	144	1
NMTAP	51	192	0
NMTAP	51	192	7
NMTAP	51	240	6
NMTAP	51	264	7
NMTAP	51	288	6
NMTAP	51	312	7
NMTAP	51	336	5
NMTAP	52	0	4
NMTAP	52	0	5
NMTAP	52	48	4
NMTAP	52	48	5
NMSTR	52	96	3
NMSI_	52	96	3	96	48	1
NMSTR	52	96	6
NMSLR	52	96	6	96	96	4
NMTAP	52	192	3
NMTAP	52	192	6
CNSV_	52	240	1	0	48	4
NMTAP	53	0	5
NMTAP	53	24	4
NMTAP	53	48	5
NMTAP	53	72	4
NMSTR	53	96	6
NMSCR	53	96	6	96	96	1
NMTAP	53	120	3
NMTAP	53	144	6
NMTAP	53	168	3
NMTAP	53	192	6
CNSV_	53	288	1	0	48	3
NMTAP	54	0	2
NMTAP	54	24	4
NMTAP	54	48	2
NMTAP	54	72	4
NMSTR	54	96	3
NMSI_	54	96	3	96	48	0
NMSI_	54	96	3	96	48	6
NMTAP	54	192	3
EXTAP	54	288	1
EXTAP	54	288	5
NMTAP	55	0	2
NMTAP	55	0	3
NMTAP	55	48	3
NMTAP	55	48	4
NMSTR	55	96	4
NMSI_	55	96	4	96	96	6
NMSXR	55	96	4	96	96	4
NMTAP	55	96	5
EXTAP	55	192	4
NMTAP	56	0	0
NMTAP	56	24	7
NMTAP	56	48	0
NMTAP	56	72	7
NMTAP	56	96	1
NMTAP	56	96	6
NMTTP	56	192	0	B	0	M1
NMTTP	56	192	0	C	1	M1
NMTTP	56	192	0	E	0	M1
NMTTP	56	192	0	D	0	M1
NMTTP	56	192	1	B	0	M1
NMTTP	56	192	1	E	0	M1
NMTTP	56	192	1	D	0	M1
NMTTP	56	192	2	B	0	M1
NMTTP	56	192	2	E	0	M1
NMTTP	56	192	2	D	0	M1
NMTTP	56	192	3	B	0	M1
NMTTP	56	192	3	E	0	M1
NMTTP	56	192	3	D	0	M1
NMTTP	56	192	4	B	0	M1
NMTTP	56	192	4	E	0	M1
NMTTP	56	192	4	D	0	M1
NMTTP	56	192	5	B	0	M1
NMTTP	56	192	5	E	0	M1
NMTTP	56	192	5	D	0	M1
NMTTP	56	192	6	B	0	M1
NMTTP	56	192	6	E	0	M1
NMTTP	56	192	6	D	0	M1
NMTTP	56	192	7	B	0	M1
NMTTP	56	192	7	E	0	M1
NMTTP	56	192	7	D	0	M1
NMTTP	57	0	2	A	0	M1
NMTTP	57	48	3	A	0	M1
NMTTP	57	96	4	A	0	M1
NMTTP	57	144	5	A	0	M1
NMTAP	57	192	3
NMTAP	57	216	4
NMTAP	57	240	3
NMTAP	57	264	4
NMSTR	57	288	3
NMSI_	57	288	3	96	48	0
NMSTR	58	0	7
NMSI_	58	0	7	96	48	3
NMSI_	58	0	7	96	48	5
CNSI_	58	144	3	0	48	1
NMTAP	58	192	7
NMTAP	58	240	7
NMTAP	58	288	0
NMTAP	58	288	6
NMHLD	58	336	1	96
NMTAP	58	336	5
NMHLD	59	48	4	72
NMHLD	59	120	2	72
NMHLD	59	192	5	72
NMHLD	59	264	3	72
NMHLD	59	336	6	72
NMHLD	60	24	4	72
NMHLD	60	96	5	72
NMHLD	60	168	3	72
NMHLD	60	240	4	72
NMTAP	60	312	3
NMSTR	61	0	3
NMSCL	61	0	3	96	288	5
NMTAP	61	0	5
NMTAP	61	192	4
NMTAP	61	288	4
NMHLD	62	0	4	96
NMTTP	62	96	6	E	0	M1
NMTTP	62	144	7	E	0	M1
NMTTP	62	192	0	E	0	M1
NMTTP	62	240	1	E	0	M1
NMTTP	62	288	0	C	1	M1
NMTTP	62	288	2	E	0	M1
NMTAP	63	0	0
NMTAP	63	0	6
NMTAP	63	48	0
NMSTR	63	48	6
NMSI_	63	48	6	96	48	2
NMSTR	63	144	1
NMSI_	63	144	1	96	48	5
NMTAP	63	144	6
NMSTR	63	240	1
NMSCL	63	240	1	96	96	7
NMSTR	63	240	4
NMSXL	63	240	4	96	192	3
CNSI_	64	48	7	0	96	3
NMTAP	64	240	2
NMTAP	64	240	4
NMTAP	64	288	2
NMTAP	64	288	4
NMTAP	65	0	1
NMTAP	65	0	5
NMSTR	65	48	1
NMSI_	65	48	1	96	48	5
NMTAP	65	48	5
NMTAP	65	144	1
NMSTR	65	144	6
NMSI_	65	144	6	96	48	2
NMSTR	65	240	3
NMSXR	65	240	3	96	192	4
NMSTR	65	240	6
NMSCR	65	240	6	96	96	0
CNSI_	66	48	0	0	96	4
NMTAP	66	240	3
NMTAP	66	240	5
NMTAP	66	288	3
NMTAP	66	288	5
BRTAP	67	0	2
BRTAP	67	0	6
BRTAP	67	48	2
BRSTR	67	48	6
BRSI_	67	48	6	96	48	2
BRSTR	67	144	1
BRSI_	67	144	1	96	48	5
BRTAP	67	144	6
BRSTR	67	240	1
BRSCL	67	240	1	96	96	7
BRSTR	67	240	4
BRSXL	67	240	4	96	192	3
CNSI_	68	48	7	0	96	3
NMTAP	68	240	1
NMTAP	68	240	5
NMTAP	68	288	1
NMTAP	68	288	5
NMTAP	69	0	6
NMTAP	69	0	7
NMTAP	69	48	6
NMSTR	69	48	7
NMSI_	69	48	7	96	48	1
NMSI_	69	48	7	96	48	2
NMSTR	69	144	7
NMSI_	69	144	7	96	48	4
NMSI_	69	144	7	96	48	5
NMSTR	69	240	7
NMSXL	69	240	7	96	192	3
NMSXR	69	240	7	96	192	3
NMTAP	69	336	7
NMTAP	70	240	2
NMTAP	70	240	4
NMSTR	70	288	5
NMSI_	70	288	5	96	48	7
NMSTR	70	336	0
NMSI_	70	336	0	96	48	4
BRTAP	71	0	5
NMSTR	71	48	0
NMSCL	71	48	0	96	48	5
EXSTR	71	144	0
NMSCR	71	144	0	96	48	3
EXTAP	71	144	3
NMTAP	71	240	0
EXTAP	71	240	4
NMSTR	71	336	4
NMSI_	71	336	4	96	48	0
NMSTR	71	336	5
NMSI_	71	336	5	96	48	1
NMTAP	72	48	4
NMTAP	72	48	5
EXTAP	72	144	2
EXTAP	72	144	7
NMTAP	72	240	3
NMTAP	72	240	5
NMSTR	72	288	2
NMSI_	72	288	2	96	48	0
NMSTR	72	336	7
NMSI_	72	336	7	96	48	3
NMTAP	73	0	2
NMSTR	73	48	7
NMSCR	73	48	7	96	48	2
EXTAP	73	144	4
EXSTR	73	144	7
NMSCL	73	144	7	96	48	4
EXTAP	73	240	3
NMTAP	73	240	7
NMSTR	73	336	2
NMSI_	73	336	2	96	48	6
NMSTR	73	336	3
NMSI_	73	336	3	96	48	7
NMTAP	74	48	2
NMTAP	74	48	3
EXTAP	74	144	0
EXTAP	74	144	5
EXTAP	74	240	0
EXTAP	74	240	6
NMSTR	74	288	1
NMSI_	74	288	1	96	48	3
NMSTR	74	336	4
NMSI_	74	336	4	96	48	0
NMTAP	75	0	1
NMSTR	75	48	4
NMSCL	75	48	4	96	48	1
EXSTR	75	144	4
NMSCR	75	144	4	96	48	7
EXTAP	75	144	7
EXTAP	75	240	0
NMTAP	75	240	4
NMSTR	75	336	0
NMSI_	75	336	0	96	48	4
NMSTR	75	336	1
NMSI_	75	336	1	96	48	5
NMTAP	76	48	0
NMTAP	76	48	1
NMTAP	76	144	3
NMTAP	76	144	6
NMTAP	76	240	4
NMTAP	76	240	5
NMTAP	76	288	3
NMTAP	76	288	4
NMTAP	76	336	2
NMTAP	76	336	3
BRHLD	77	0	1	96
BRHLD	77	0	2	96
BRHLD	77	192	5	96
BRHLD	77	192	6	96
BXTAP	78	0	1
BXTAP	78	0	7
BXTAP	78	48	2
BXTAP	78	48	6
BXTAP	78	96	1
BXTAP	78	96	7
BXTAP	78	144	3
BXTAP	78	144	5
BRTAP	78	192	0
BRTAP	78	192	6
BRTAP	78	240	1
BRTAP	78	240	5
BRSTR	78	288	0
NMSI_	78	288	0	96	48	4
BRTAP	78	288	6
BRTAP	78	336	2
BRTAP	78	336	4
BRTAP	79	0	0
BRHLD	79	0	7	768
NMTTP	79	1	0	C	1	M1
BXHLD	81	0	5	768
BXHLD	83	0	3	1152
BXHLD	85	0	4	384
NMTAP	86	192	0
NMTAP	86	192	7
NMTAP	86	264	0
NMTAP	86	288	7
NMTAP	86	336	1
NMTAP	86	336	6
NMSTR	87	0	2
NMSCL	87	0	2	96	288	5
NMTAP	87	0	5
NMTAP	87	96	4
NMTAP	87	192	4
NMTAP	87	288	4
NMTAP	88	0	3
CNSCR	88	0	5	0	288	2
NMTAP	88	96	3
NMTAP	88	192	3
NMTAP	88	288	4
EXTAP	89	0	2
EXSTR	89	0	5
NMSCR	89	0	5	96	288	2
NMTAP	89	96	3
NMTAP	89	192	3
NMTAP	89	288	3
CNSCL	90	0	2	0	288	5
NMTAP	90	0	4
NMTAP	90	96	4
NMTAP	90	192	4
NMTAP	90	288	3
BXSTR	91	0	3
NMSI_	91	0	3	96	96	0
NMTAP	91	96	5
NMSTR	91	192	4
NMSI_	91	192	4	96	96	7
NMTAP	91	288	2
BXSTR	92	0	3
NMSCL	92	0	3	96	96	0
NMTAP	92	96	7
NMSTR	92	192	7
BRSI_	92	192	7	96	48	3
BXHLD	93	0	0	96
NMHLD	93	0	4	96
BXHLD	93	192	0	96
NMHLD	93	192	4	96
NMTTP	94	0	0	D	0	M1
NMTTP	94	0	6	A	0	M1
NMTTP	94	0	6	D	0	M1
NMTTP	94	0	7	E	0	M1
NMTTP	94	0	7	A	0	M1
NMTTP	94	0	7	D	1	M1
NMTTP	94	96	3	A	0	M1
NMTTP	94	96	3	D	0	M1
NMTTP	94	96	4	E	0	M1
NMTTP	94	96	4	A	0	M1
NMTTP	94	96	4	D	1	M1
NMTTP	94	96	5	D	0	M1
NMTTP	94	192	0	A	0	M1
NMTTP	94	192	0	D	1	M1
NMTTP	94	192	1	E	0	M1
NMTTP	94	192	1	A	0	M1
NMTTP	94	192	1	D	0	M1
NMTTP	94	192	6	A	0	M1
NMTTP	94	192	7	E	0	M1
NMTTP	94	192	7	A	0	M1
NMTTP	94	192	7	D	0	M1
EXSTR	94	288	2
BRSI_	94	288	2	96	48	0
EXTAP	94	288	5
NMTAP	95	0	2
NMSTR	95	0	4
BRSI_	95	0	4	96	48	6
NMTAP	95	96	4
NMSTR	95	96	7
NMSI_	95	96	7	96	48	3
NMSTR	95	192	0
NMSI_	95	192	0	96	48	2
NMTAP	95	192	7
NMTAP	95	288	0
NMSTR	95	288	5
BRSI_	95	288	5	96	48	7
NMSTR	96	0	3
BRSI_	96	0	3	96	48	1
NMTAP	96	0	5
NMSTR	96	96	0
NMSI_	96	96	0	96	48	4
NMTAP	96	96	3
NMTAP	96	192	0
NMSTR	96	192	7
NMSI_	96	192	7	96	48	5
NMSTR	96	288	2
BRSI_	96	288	2	96	48	0
NMTAP	96	288	7
NMTAP	97	0	2
NMSTR	97	0	4
BRSI_	97	0	4	96	48	6
NMTAP	97	96	4
NMSTR	97	96	7
NMSI_	97	96	7	96	48	3
NMSTR	97	192	0
NMSI_	97	192	0	96	48	2
NMTAP	97	192	7
NMTAP	97	288	0
NMSTR	97	288	5
BRSI_	97	288	5	96	48	7
NMSTR	98	0	3
BRSI_	98	0	3	96	48	1
NMTAP	98	0	5
NMSTR	98	96	0
NMSV_	98	96	0	96	48	3
NMSV_	98	96	0	96	48	5
NMTAP	98	96	3
NMTAP	98	192	0
BRTAP	98	288	2
BRTAP	98	312	6
BRTAP	98	336	2
BRTAP	98	360	6
BRSTR	99	0	2
BRSI_	99	0	2	96	48	0
NMTAP	99	96	2
NMSTR	99	96	7
NMSI_	99	96	7	96	48	3
NMSTR	99	192	6
NMSI_	99	192	6	96	48	4
NMTAP	99	192	7
NMSTR	99	288	2
BRSI_	99	288	2	96	48	0
NMTAP	99	288	6
NMTAP	100	0	2
NMSTR	100	0	3
BRSI_	100	0	3	96	48	7
NMTAP	100	96	3
NMSTR	100	96	6
NMSI_	100	96	6	96	48	4
NMSTR	100	192	0
NMSI_	100	192	0	96	48	2
NMTAP	100	192	6
NMTAP	100	288	0
NMSTR	100	288	3
BRSI_	100	288	3	96	48	7
NMTAP	101	0	3
NMSTR	101	0	4
BRSI_	101	0	4	96	48	6
NMSTR	101	96	0
NMSI_	101	96	0	96	48	2
NMTAP	101	96	4
NMTAP	101	192	0
NMSTR	101	192	7
NMSI_	101	192	7	96	48	3
NMTAP	101	288	3
NMTAP	101	288	7
EXTAP	102	0	2
EXTAP	102	0	4
BRTAP	102	96	0
BRTAP	102	120	7
BRTAP	102	144	0
BRTAP	102	168	7
BRTAP	102	192	1
BRTAP	102	192	6
BRTAP	102	240	3
BRTAP	102	240	4
BRSTR	102	288	1
NMSI_	102	288	1	96	48	6
BRSTR	102	288	5
NMSI_	102	288	5	96	48	2
NMSTR	103	0	1
NMSCR	103	0	1	96	48	4
NMSTR	103	0	5
NMSCR	103	0	5	96	48	0
NMTAP	103	96	1
NMTAP	103	96	5
EXSTR	103	192	3
BRSI_	103	192	3	96	48	7
EXTAP	103	192	7
NMTAP	103	288	3
NMSTR	103	288	6
NMSCL	103	288	6	96	48	3
NMTAP	103	336	5
NMSTR	104	0	2
NMSI_	104	0	2	96	48	0
NMTAP	104	0	6
NMTAP	104	48	1
NMTAP	104	96	2
NMSTR	104	96	7
NMSI_	104	96	7	96	48	3
NMSI_	104	96	7	96	48	5
NMTAP	104	192	7
NMSTR	104	288	2
NMSI_	104	288	2	96	48	4
NMTAP	104	288	4
NMTAP	104	336	1
NMTAP	105	0	2
NMSTR	105	0	6
NMSI_	105	0	6	96	48	2
NMTAP	105	48	7
NMSTR	105	96	0
NMSCR	105	96	0	96	48	3
NMTAP	105	96	6
NMTAP	105	144	1
EXTAP	105	192	0
NMSTR	105	192	5
NMSI_	105	192	5	96	48	7
NMTAP	105	240	6
NMSTR	105	288	4
NMSI_	105	288	4	96	48	0
NMTAP	105	288	5
NMTAP	105	336	3
NMTAP	106	0	4
NMSTR	106	0	5
NMSCL	106	0	5	96	48	2
NMTAP	106	48	6
EXSTR	106	96	0
NMSF_	106	96	0	96	48	4
NMTAP	106	96	5
BRTAP	106	192	0
NMTAP	106	288	6
NMTAP	106	288	7
NMTAP	106	336	0
NMTAP	106	336	5
NMSTR	107	0	1
NMSI_	107	0	1	96	48	3
NMSTR	107	0	4
NMSI_	107	0	4	96	48	0
NMTAP	107	96	1
NMTAP	107	96	4
NMTAP	107	192	2
NMTAP	107	192	7
NMTAP	107	240	4
NMTAP	107	240	5
NMTAP	107	288	2
NMTAP	107	288	3
NMSTR	107	336	1
NMSI_	107	336	1	96	48	7
NMTAP	107	336	4
NMTAP	108	48	6
NMSTR	108	96	5
NMSI_	108	96	5	96	48	2
NMSCL	108	96	5	96	48	2
BRTAP	108	192	5
NMTAP	108	288	0
EXSTR	108	288	1
NMSI_	108	288	1	96	48	4
NMTAP	108	336	2
NMTAP	109	0	1
NMSTR	109	0	7
NMSI_	109	0	7	96	48	3
NMTAP	109	48	6
NMSTR	109	96	2
NMSI_	109	96	2	96	48	7
NMTAP	109	96	7
NMTAP	109	144	1
NMTAP	109	192	2
NMSTR	109	192	5
BRSI_	109	192	5	96	48	1
NMTAP	109	240	6
NMTAP	109	288	1
NMTAP	109	288	5
NMSTR	109	336	3
NMSCL	109	336	3	96	96	5
NMTAP	110	48	4
NMSTR	110	96	4
BRSF_	110	96	4	96	48	0
BRTAP	110	192	4
BRTAP	110	288	2
BRTAP	110	288	6
EXSTR	111	0	0
NMSI_	111	0	0	96	48	5
EXSTR	111	0	1
NMSV_	111	0	1	96	48	4
EXTAP	111	48	0
EXTAP	111	48	1
EXSTR	111	192	3
NMSI_	111	192	3	96	48	1
EXSTR	111	192	4
NMSI_	111	192	4	96	48	6
EXTAP	111	240	3
EXTAP	111	240	4
EXTAP	112	0	0
EXSTR	112	0	7
NMSI_	112	0	7	96	48	4
NMSSR	112	0	7	96	48	3
EXTAP	112	48	0
EXTAP	112	48	7
BRTAP	112	192	2
BRTAP	112	192	5
NMSTR	112	288	0
NMSI_	112	288	0	96	48	4
NMSTR	112	288	1
NMSI_	112	288	1	96	48	3
NMTAP	112	336	2
NMTAP	112	336	7
NMSTR	113	0	0
NMSI_	113	0	0	96	48	6
NMSTR	113	0	1
NMSI_	113	0	1	96	48	5
NMTAP	113	96	0
NMTAP	113	96	1
EXTAP	113	192	3
EXTAP	113	192	4
NMTAP	113	240	2
NMTAP	113	264	3
NMSTR	113	288	1
NMSCR	113	288	1	96	96	6
NMSTR	114	0	6
NMSCL	114	0	6	96	96	1
NMSTR	114	96	1
BRSI_	114	96	1	96	24	3
BRTAP	114	192	7
CNSV_	114	216	3	0	72	4
CNSI_	114	288	4	0	48	6
EXTAP	114	288	7
EXSTR	115	0	6
NMSCL	115	0	6	96	48	3
EXSTR	115	0	7
NMSCR	115	0	7	96	48	2
EXTAP	115	48	6
EXTAP	115	48	7
EXSTR	115	192	3
NMSI_	115	192	3	96	48	1
EXSTR	115	192	4
NMSI_	115	192	4	96	48	6
EXTAP	115	240	3
EXTAP	115	240	4
EXTAP	116	0	0
EXSTR	116	0	7
NMSI_	116	0	7	96	48	4
NMSSR	116	0	7	96	48	3
EXTAP	116	48	0
EXTAP	116	48	7
BRTAP	116	192	2
BRTAP	116	192	5
NMSTR	116	288	6
NMSI_	116	288	6	96	48	4
NMSTR	116	288	7
NMSI_	116	288	7	96	48	3
NMTAP	116	336	0
NMTAP	116	336	5
NMSTR	117	0	6
NMSI_	117	0	6	96	48	2
NMSTR	117	0	7
NMSI_	117	0	7	96	48	1
NMTAP	117	96	6
NMTAP	117	96	7
NMTAP	117	192	0
NMTAP	117	192	7
NMTAP	117	240	1
NMTAP	117	240	6
NMSTR	117	288	3
NMSI_	117	288	3	96	48	1
NMSTR	117	288	4
NMSI_	117	288	4	96	48	6
BRSTR	118	0	3
NMSI_	118	0	3	96	48	7
BRSTR	118	0	4
NMSI_	118	0	4	96	48	0
BRSTR	118	96	3
NMSCL	118	96	3	96	48	0
BRSTR	118	96	4
NMSCR	118	96	4	96	48	7
BRTAP	118	192	3
BRTAP	118	192	4
BRTAP	118	288	2
BRTAP	118	288	5
BRTAP	119	0	0
NMTTP	119	0	3	B	0	M1
NMTTP	119	0	4	B	1	M1
NMTTP	119	0	4	E	0	M1
NMTTP	119	0	4	A	0	M1
NMTTP	119	0	5	B	0	M1
NMTTP	119	0	5	E	0	M1
NMTTP	119	96	2	B	0	M1
NMTTP	119	96	3	B	1	M1
NMTTP	119	96	3	E	0	M1
NMTTP	119	96	3	A	0	M1
NMTTP	119	96	4	B	0	M1
NMTTP	119	96	4	E	0	M1
BRTAP	119	96	7
NMTTP	119	192	1	B	0	M1
NMTTP	119	192	2	B	1	M1
NMTTP	119	192	2	E	0	M1
NMTTP	119	192	2	A	0	M1
NMTTP	119	192	3	B	0	M1
NMTTP	119	192	3	E	0	M1
BRTAP	119	192	6
NMTTP	119	288	0	B	0	M1
NMTTP	119	288	1	B	1	M1
NMTTP	119	288	1	E	0	M1
NMTTP	119	288	1	A	0	M1
NMTTP	119	288	2	B	0	M1
NMTTP	119	288	2	E	0	M1
BRTAP	119	288	5
NMTTP	120	0	0	B	1	M1
NMTTP	120	0	0	E	0	M1
NMTTP	120	0	0	A	0	M1
NMTTP	120	0	1	B	0	M1
NMTTP	120	0	1	E	0	M1
BRTAP	120	0	4
NMTTP	120	0	7	B	0	M1
NMTTP	120	96	0	B	0	M1
NMTTP	120	96	0	E	0	M1
BRTAP	120	96	3
NMTTP	120	96	6	B	0	M1
NMTTP	120	96	7	B	1	M1
NMTTP	120	96	7	E	0	M1
NMTTP	120	96	7	A	0	M1
BRTAP	120	192	2
NMTTP	120	192	5	B	0	M1
NMTTP	120	192	6	B	1	M1
NMTTP	120	192	6	E	0	M1
NMTTP	120	192	6	A	0	M1
NMTTP	120	192	7	B	0	M1
NMTTP	120	192	7	E	0	M1
BRSTR	120	288	1
BRSI_	120	288	1	96	48	5
NMTTP	120	288	4	B	0	M1
NMTTP	120	288	5	B	1	M1
NMTTP	120	288	5	E	0	M1
NMTTP	120	288	5	A	0	M1
NMTTP	120	288	6	B	0	M1
NMTTP	120	288	6	E	0	M1
BRSTR	121	0	0
NMSI_	121	0	0	96	48	4
NMTAP	121	48	0
BRSTR	121	96	7
NMSI_	121	96	7	96	48	3
NMTAP	121	144	7
BRSTR	121	192	6
NMSI_	121	192	6	96	48	2
NMTAP	121	240	6
BRTAP	121	288	0
NMTAP	121	336	0
BRTAP	122	0	0
NMTAP	122	24	7
BXTAP	122	48	0
NMTAP	122	72	7
BRTAP	122	96	0
NMTAP	122	120	7
BXTAP	122	144	0
NMTAP	122	168	7
BRTAP	122	192	0
BXTAP	122	204	1
BXTAP	122	216	2
BXTAP	122	228	3
BXTAP	122	240	4
BXTAP	122	252	5
BXTAP	122	264	6
BXTAP	122	276	7
BXTAP	122	288	0
BXTAP	122	300	1
BXTAP	122	312	2
BXTAP	122	324	3
BXTAP	122	336	4
BXTAP	122	348	5
BXTAP	122	360	6
BXTAP	122	372	7
BXTAP	123	0	0
BXTAP	123	12	1
BXTAP	123	24	2
BXTAP	123	36	3
BXTAP	123	48	4
BXTAP	123	60	5
BXTAP	123	72	6
BXTAP	123	84	7
BXTAP	123	96	0
BXTAP	123	108	1
BXTAP	123	120	2
BXTAP	123	132	3
BXTAP	123	144	4
BXTAP	123	156	5
BXTAP	123	168	6
BXTAP	123	180	7
NMSTR	123	192	0
NMSI_	123	192	0	96	96	6
EXHLD	123	192	4	3072
CNSI_	124	0	6	0	96	1
CNSI_	124	96	1	0	96	5
CNSI_	124	192	5	0	96	2
CNSI_	124	288	2	0	96	4
CNSCL	125	0	4	0	96	3
CNSI_	125	96	3	0	96	5
CNSI_	125	192	5	0	96	2
CNSI_	125	288	2	0	96	6
CNSI_	126	0	6	0	96	1
CNSI_	126	96	1	0	2016	7

T_REC_TAP	384
T_REC_BRK	57
T_REC_XTP	55
T_REC_BXX	76
T_REC_HLD	47
T_REC_XHO	8
T_REC_BHO	5
T_REC_BXH	18
T_REC_STR	100
T_REC_BST	17
T_REC_XST	21
T_REC_XBS	2
T_REC_TTP	133
T_REC_THO	0
T_REC_SLD	127
T_REC_BSL	25
T_REC_ALL	1075
T_NUM_TAP	693
T_NUM_BRK	200
T_NUM_HLD	55
T_NUM_SLD	127
T_NUM_ALL	1075
T_JUDGE_TAP	845
T_JUDGE_HLD	367
T_JUDGE_SLD	152
T_JUDGE_ALL	1364
TTM_EACHPAIRS	245
TTM_SCR_TAP	346500
TTM_SCR_BRK	520000
TTM_SCR_HLD	55000
TTM_SCR_SLD	190500
TTM_SCR_ALL	1112000
TTM_SCR_S	1059250
TTM_SCR_SS	1092000
TTM_RAT_ACV	10183

