VERSION	0.00.00	1.04.00
FES_MODE	0
BPM_DEF	185.000	185.000	185.000	185.000
MET_DEF	4	4
RESOLUTION	384
CLK_DEF	384
COMPATIBLE_CODE	MA2

BPM	0	0	185.000
MET	0	0	4	4

NMTAP	1	0	0
NMTAP	1	0	6
NMTAP	1	96	1
NMTAP	1	96	7
NMTAP	1	192	2
NMTAP	1	240	2
NMTAP	1	288	3
NMTAP	2	0	4
NMTAP	2	0	5
NMTAP	2	48	3
NMTAP	2	48	6
NMTAP	2	144	2
NMTAP	2	144	3
NMTAP	2	192	1
NMTAP	2	192	4
NMSTR	2	288	2
NMSI_	2	288	2	96	48	5
NMSTR	2	288	6
NMSI_	2	288	6	96	48	1
NMTAP	5	0	4
NMTAP	5	0	6
NMTAP	7	0	1
NMTAP	7	0	3
NMTTP	8	144	3	B	0	M1
NMTTP	8	144	4	B	0	M1
NMTTP	8	144	4	E	0	M1
EXTAP	9	0	0
EXTAP	9	0	7
EXTAP	10	0	2
EXTAP	10	0	5
NMTAP	10	192	3
NMTAP	10	264	3
NMTAP	10	288	4
NMTAP	10	336	2
NMTAP	10	336	5
NMTAP	11	0	2
NMTAP	11	0	5
NMTTP	11	96	5	E	0	M1
NMTTP	11	192	6	E	0	M1
NMTTP	11	288	7	E	0	M1
NMTTP	12	0	0	E	0	M1
NMTTP	12	96	1	E	0	M1
NMTTP	12	192	2	E	0	M1
NMTTP	12	288	3	E	0	M1
EXTAP	13	0	3
EXTAP	13	0	4
NMTTP	13	96	5	E	0	M1
NMTTP	13	192	6	E	0	M1
NMTTP	13	288	7	E	0	M1
NMTTP	14	0	0	E	0	M1
NMTTP	14	96	1	E	0	M1
NMTTP	14	192	2	E	0	M1
NMTTP	14	288	3	E	0	M1
EXTAP	15	0	3
EXTAP	15	0	4
NMTTP	15	96	5	E	0	M1
NMTTP	15	192	6	E	0	M1
NMTTP	15	288	7	E	0	M1
EXTAP	16	0	0
EXTAP	16	0	7
NMTTP	16	96	1	E	0	M1
NMTTP	16	192	2	E	0	M1
NMTTP	16	288	3	E	0	M1
NMHLD	17	0	3	96
NMHLD	17	0	6	96
NMHLD	17	192	1	96
NMHLD	17	192	4	96
NMTTP	18	0	6	B	0	M1
NMTTP	18	0	6	E	0	M1
NMTTP	18	0	6	A	1	M1
NMTTP	18	96	3	B	0	M1
NMTTP	18	96	3	E	0	M1
NMTTP	18	96	3	A	1	M1
NMTTP	18	192	1	B	0	M1
NMTTP	18	192	1	A	1	M1
NMTTP	18	192	2	E	0	M1
BRTAP	18	288	7
NMTAP	19	0	4
NMTAP	19	0	6
NMTAP	19	96	4
NMTAP	19	96	6
NMTAP	19	192	0
NMTAP	19	192	1
NMTAP	19	288	0
NMTAP	19	288	1
NMTAP	20	0	2
NMTAP	20	0	4
NMTAP	20	96	2
NMTAP	20	96	4
NMTAP	20	192	4
NMTAP	20	192	5
NMTAP	20	288	4
NMTAP	20	288	5
NMTAP	21	0	1
NMTAP	21	0	3
NMTAP	21	96	1
NMTAP	21	96	3
NMTAP	21	192	6
NMTAP	21	192	7
NMTAP	21	288	6
NMTAP	21	288	7
NMTAP	22	0	3
NMTAP	22	0	5
NMTAP	22	96	3
NMTAP	22	96	5
NMTAP	22	192	2
NMTAP	22	192	3
NMTAP	22	288	3
NMTAP	22	288	4
NMTAP	22	336	5
NMTAP	23	0	4
NMTAP	23	0	6
NMTAP	23	96	4
NMTAP	23	96	6
NMTAP	23	144	7
NMTAP	23	192	0
NMTAP	23	192	1
NMTAP	23	240	0
NMTAP	23	240	1
NMTAP	23	288	0
NMTAP	23	288	1
NMTAP	24	0	2
NMTAP	24	0	4
NMTAP	24	96	2
NMTAP	24	96	4
NMTAP	24	192	4
NMTAP	24	192	5
NMTAP	24	288	3
NMTAP	24	288	4
NMTAP	24	336	2
NMTAP	25	0	1
NMTAP	25	0	3
NMTAP	25	96	1
NMTAP	25	96	3
NMTAP	25	192	6
NMTAP	25	192	7
NMTAP	25	288	6
NMSTR	25	288	7
NMSXL	25	288	7	96	192	3
NMTAP	26	0	5
EXTAP	26	288	2
EXTAP	26	288	4
NMTAP	27	0	3
NMTAP	27	0	5
NMSTR	27	96	3
NMSI_	27	96	3	96	96	0
NMTAP	27	96	5
NMTAP	27	192	4
NMTAP	27	288	4
NMTAP	28	0	0
NMTAP	28	0	5
NMSTR	28	96	0
NMSI_	28	96	0	96	96	3
NMTAP	28	96	5
NMTAP	28	192	4
NMTAP	28	288	4
NMTAP	29	0	3
NMTAP	29	0	5
NMSTR	29	96	3
NMSCL	29	96	3	96	96	0
NMTAP	29	96	5
NMTAP	29	192	4
NMTAP	29	288	4
NMTAP	30	0	0
NMTAP	30	0	5
NMSTR	30	96	0
NMSCR	30	96	0	96	96	3
NMTAP	30	96	5
NMTAP	30	192	4
NMTAP	30	288	4
NMSTR	31	0	3
NMSXR	31	0	3	96	288	0
NMTAP	31	0	5
NMTAP	31	96	5
NMTAP	31	192	4
NMTAP	31	288	4
NMTAP	32	0	5
NMTAP	32	96	5
NMTAP	32	192	2
NMTAP	32	192	4
NMSTR	32	288	2
NMSCL	32	288	2	96	96	7
NMTAP	32	288	4
NMTAP	33	0	5
NMTAP	33	96	5
NMTAP	33	192	4
NMTAP	33	288	4
NMTAP	34	0	5
NMTAP	34	96	5
NMTAP	34	192	3
NMTAP	34	240	3
NMTAP	34	288	3
NMTAP	34	288	4
NMTAP	35	0	2
NMTAP	35	0	4
NMTAP	35	96	2
NMSTR	35	96	4
NMSI_	35	96	4	96	96	0
NMTAP	35	192	3
NMTAP	35	288	3
NMTAP	36	0	0
NMTAP	36	0	2
NMSTR	36	96	0
NMSI_	36	96	0	96	96	5
NMTAP	36	96	2
NMTAP	36	192	3
NMTAP	36	288	3
NMTAP	37	0	2
NMTAP	37	0	4
NMTAP	37	96	2
NMSTR	37	96	4
NMSI_	37	96	4	96	48	0
NMTAP	37	192	3
NMTAP	37	288	3
NMTAP	38	0	0
NMTAP	38	0	2
NMSTR	38	96	0
NMSI_	38	96	0	96	96	5
NMTAP	38	96	2
NMTAP	38	192	3
NMTAP	38	288	3
NMTAP	39	0	2
NMSTR	39	0	4
NMSI_	39	0	4	96	96	7
NMTAP	39	96	2
NMTAP	39	192	3
CNSI_	39	192	7	0	96	1
CNSI_	39	288	1	0	96	5
NMTAP	39	288	3
NMTAP	40	0	2
NMTAP	40	96	2
NMTAP	40	192	3
NMTAP	40	192	6
NMTAP	40	288	3
NMSTR	40	288	6
NMSI_	40	288	6	96	96	1
NMTAP	41	0	2
NMTAP	41	96	2
NMTAP	41	192	3
NMTAP	41	288	3
NMTAP	42	0	2
NMTAP	42	96	2
NMTAP	42	192	2
NMTAP	42	192	5
NMTAP	42	240	3
NMTAP	42	264	4
NMTAP	42	288	3
NMTAP	42	336	2
NMTAP	42	336	5
NMSTR	43	0	2
NMSCL	43	0	2	96	480	4
NMTAP	43	0	5
NMSTR	45	0	2
NMSCL	45	0	2	96	96	1
CNSI_	45	192	1	0	96	7
CNSCL	45	288	7	0	96	6
CNSI_	46	0	6	0	192	4
NMHLD	47	0	2	48
NMHLD	47	0	4	48
NMHLD	47	96	2	48
NMHLD	47	96	4	48
NMHLD	47	192	2	48
NMHLD	47	192	4	48
NMHLD	47	288	2	48
NMHLD	47	288	4	48
NMHLD	48	0	3	48
NMHLD	48	0	5	48
NMHLD	48	96	3	48
NMHLD	48	96	5	48
NMHLD	48	192	3	48
NMHLD	48	192	5	48
NMHLD	48	288	3	48
NMHLD	48	288	5	48
NMHLD	49	0	1	48
NMHLD	49	0	4	48
NMHLD	49	96	1	48
NMHLD	49	96	4	48
NMHLD	49	192	2	48
NMHLD	49	192	3	48
NMHLD	49	288	4	48
NMHLD	49	288	5	48
NMHLD	50	0	3	48
NMHLD	50	0	6	48
NMHLD	50	96	3	48
NMHLD	50	96	6	48
NMHLD	50	192	4	48
NMHLD	50	192	5	48
NMTAP	50	288	4
NMTAP	50	288	5
NMTAP	51	0	5
NMTAP	51	24	4
NMTAP	51	48	5
NMTAP	51	72	4
NMTAP	51	96	5
NMTAP	51	192	2
NMTAP	51	216	3
NMTAP	51	240	2
NMTAP	51	264	3
NMTAP	51	288	2
NMTAP	52	0	5
NMTAP	52	24	4
NMTAP	52	48	5
NMTAP	52	72	4
NMTAP	52	96	6
NMSTR	52	192	1
NMSV_	52	192	1	96	48	4
NMSTR	52	192	7
NMSV_	52	192	7	96	48	4
NMTAP	53	0	2
NMTAP	53	24	3
NMTAP	53	48	2
NMTAP	53	72	3
NMTAP	53	96	2
NMTAP	53	192	5
NMTAP	53	216	4
NMTAP	53	240	5
NMTAP	53	264	4
NMTAP	53	288	5
NMTAP	54	0	2
NMTAP	54	24	3
NMTAP	54	48	2
NMTAP	54	72	3
NMTAP	54	96	1
NMTAP	54	192	4
NMTAP	54	192	5
NMTAP	54	288	6
NMTAP	54	288	7
NMSTR	55	0	0
NMSI_	55	0	0	96	48	4
NMSTR	55	0	1
NMSI_	55	0	1	96	48	3
NMTTP	55	192	5	B	0	M1
NMTTP	55	192	5	E	0	M1
NMTTP	55	192	5	A	0	M1
NMTTP	55	192	6	E	0	M1
NMTTP	55	192	6	A	0	M1
NMTTP	55	192	6	D	0	M1
NMSTR	56	0	6
NMSI_	56	0	6	96	48	4
NMSTR	56	0	7
NMSI_	56	0	7	96	48	3
NMTAP	56	192	2
NMTAP	56	240	2
NMTAP	56	288	1
NMTAP	56	288	3
NMHLD	57	0	2	48
NMHLD	57	0	3	48
NMHLD	57	96	0	48
NMHLD	57	96	1	48
NMHLD	57	192	6	48
NMHLD	57	192	7	48
NMHLD	57	288	4	48
NMHLD	57	288	5	48
BRHLD	58	0	4	48
BRHLD	58	0	5	48
BRHLD	58	96	6	48
BRHLD	58	96	7	48
BRHLD	58	192	0	48
BRHLD	58	192	1	48
BRSTR	58	288	2
NMSI_	58	288	2	96	96	0
BRTAP	58	288	3
CNSI_	59	96	0	0	96	3
CNSI_	59	192	3	0	96	7
EXSTR	60	0	5
NMSUL	60	0	5	96	288	4
CNSCL	61	0	4	0	288	6
NMTAP	62	144	4
NMTAP	62	144	5
NMTAP	62	192	4
NMTAP	62	192	5
NMTAP	62	288	2
NMTAP	62	288	4
NMTAP	63	0	1
NMTAP	63	0	3
NMTAP	63	48	1
NMTAP	63	48	3
NMTAP	63	144	6
NMTAP	63	144	7
NMSTR	63	240	4
NMSLL	63	240	4	96	192	6
NMSTR	63	240	5
NMSI_	63	240	5	96	96	1
CNSI_	64	48	1	0	96	7
EXTAP	64	240	6
EXTAP	64	240	7
EXTAP	64	288	6
EXTAP	64	288	7
NMTAP	65	0	4
NMTAP	65	0	6
NMTAP	65	48	4
NMTAP	65	48	6
NMTAP	65	144	0
NMTAP	65	144	1
NMSTR	65	240	2
NMSI_	65	240	2	96	96	6
NMSTR	65	240	3
NMSLR	65	240	3	96	192	1
CNSI_	66	48	6	0	96	0
EXTAP	66	240	0
EXTAP	66	240	1
EXTAP	66	288	0
EXTAP	66	288	1
NMTAP	67	0	1
NMTAP	67	0	3
NMTAP	67	48	1
NMTAP	67	48	3
NMTAP	67	144	6
NMTAP	67	144	7
NMSTR	67	240	4
NMSI_	67	240	4	96	96	0
NMSTR	67	240	5
NMSLR	67	240	5	96	192	3
CNSI_	68	48	0	0	96	2
EXTAP	68	240	2
EXTAP	68	240	3
EXTAP	68	288	2
EXTAP	68	288	3
NMTAP	69	0	4
NMTAP	69	0	6
NMTAP	69	48	4
NMTAP	69	48	6
NMTAP	69	144	6
NMTAP	69	144	7
NMSTR	69	240	0
NMSI_	69	240	0	96	96	4
NMSTR	69	240	1
NMSLR	69	240	1	96	192	7
CNSI_	70	48	4	0	96	6
EXTAP	70	240	6
EXTAP	70	240	7
EXTAP	70	288	6
EXTAP	70	288	7
NMTAP	71	0	5
NMHLD	71	48	5	96
NMTAP	71	144	4
NMTAP	71	240	3
NMSTR	71	240	6
NMSCR	71	240	6	96	240	3
NMHLD	71	336	4	144
NMTAP	72	192	4
NMTAP	72	288	3
NMTAP	72	288	5
NMTAP	73	0	2
NMHLD	73	48	2	96
NMTAP	73	144	3
NMSTR	73	240	1
NMSCL	73	240	1	96	240	4
NMTAP	73	240	4
NMHLD	73	336	3	144
NMTAP	74	192	3
NMTAP	74	288	2
NMTAP	74	288	4
NMTAP	75	0	1
NMHLD	75	48	1	96
NMTAP	75	144	0
NMSTR	75	240	2
NMSCR	75	240	2	96	240	7
NMTAP	75	240	7
NMHLD	75	336	0	144
NMTAP	76	192	0
NMTAP	76	288	1
NMTAP	76	288	7
BRSTR	77	0	3
NMSI_	77	0	3	96	48	0
BRSTR	77	192	4
NMSI_	77	192	4	96	48	7
BXTAP	78	0	0
BXTAP	78	48	0
BXTAP	78	96	1
BXTAP	78	96	7
BXTAP	78	144	1
BXTAP	78	144	7
BXTAP	78	192	2
BXTAP	78	192	6
BXTAP	78	240	2
BXTAP	78	240	6
BXTAP	78	288	3
BXTAP	78	288	5
BXTAP	78	336	3
BXTAP	78	336	5
BXHLD	79	0	4	1344
BRHLD	81	0	2	1344
BRHLD	83	0	6	1056
BRHLD	85	0	0	288
BRTAP	86	0	0
BRTAP	86	0	6
NMTAP	86	192	7
NMTAP	86	264	7
NMTAP	86	288	0
NMTAP	86	336	1
NMTAP	86	336	6
NMHLD	87	0	1	96
NMTAP	87	0	6
NMHLD	87	96	3	96
NMHLD	87	192	5	96
NMHLD	87	288	7	96
NMHLD	88	0	1	96
NMHLD	88	96	3	96
NMHLD	88	192	5	96
NMHLD	88	288	7	96
BRHLD	89	0	0	96
NMHLD	89	96	2	96
NMHLD	89	192	4	96
NMHLD	89	288	6	96
NMHLD	90	0	0	96
NMHLD	90	96	2	96
NMHLD	90	192	4	96
NMHLD	90	288	6	96
BRHLD	91	0	7	96
NMHLD	91	96	5	96
NMHLD	91	192	3	96
NMHLD	91	288	1	96
BRHLD	92	0	0	96
NMHLD	92	96	2	96
NMHLD	92	192	4	96
NMHLD	92	288	6	96
BRTAP	93	0	0
NMTAP	93	96	3
NMTAP	93	96	4
NMSTR	93	192	6
NMSCL	93	192	6	96	48	3
NMSTR	93	192	7
NMSCR	93	192	7	96	48	2
NMTTP	94	0	5	B	0	M1
NMTTP	94	0	5	A	1	M1
NMTTP	94	0	6	E	0	M1
NMTTP	94	96	3	A	0	M1
NMTTP	94	96	4	E	0	M1
NMTTP	94	96	4	A	0	M1
NMTTP	94	96	4	D	1	M1
NMTTP	94	192	2	B	0	M1
NMTTP	94	192	2	E	0	M1
NMTTP	94	192	2	A	1	M1
BRTAP	94	288	7
NMSTR	95	0	0
NMSI_	95	0	0	96	48	4
NMSTR	95	0	1
NMSI_	95	0	1	96	48	4
EXTAP	95	96	0
EXTAP	95	96	1
NMTAP	95	192	5
NMSTR	95	240	5
NMSCL	95	240	5	96	48	2
NMTAP	95	336	1
NMTAP	96	48	0
NMSTR	96	96	0
NMSI_	96	96	0	96	48	4
NMTAP	96	192	5
NMTAP	96	288	6
NMSTR	97	0	6
NMSI_	97	0	6	96	48	3
NMSTR	97	0	7
NMSI_	97	0	7	96	48	3
EXTAP	97	96	6
EXTAP	97	96	7
NMTAP	97	192	2
NMSTR	97	240	2
NMSCR	97	240	2	96	48	5
NMTAP	97	336	6
NMTAP	98	48	7
NMSTR	98	96	7
NMSI_	98	96	7	96	48	3
NMTAP	98	192	2
NMTAP	98	288	1
NMSTR	99	0	0
NMSI_	99	0	0	96	48	4
NMSTR	99	0	1
NMSI_	99	0	1	96	48	4
EXTAP	99	96	0
EXTAP	99	96	1
NMTAP	99	192	5
NMTAP	99	288	6
NMSTR	99	336	6
NMSI_	99	336	6	96	48	2
NMTAP	100	48	1
NMSTR	100	96	1
NMSCR	100	96	1	96	48	4
NMTAP	100	192	5
NMTAP	100	288	6
NMSTR	101	0	6
NMSI_	101	0	6	96	48	3
NMSTR	101	0	7
NMSI_	101	0	7	96	48	3
EXTAP	101	96	6
EXTAP	101	96	7
NMTAP	101	192	2
NMTAP	101	288	1
NMSTR	101	336	1
NMSI_	101	336	1	96	48	5
NMTAP	102	48	6
NMSTR	102	96	6
NMSI_	102	96	6	96	48	2
NMTAP	102	192	1
BRTAP	102	288	0
NMSTR	103	0	0
NMSI_	103	0	0	96	48	5
NMSTR	103	0	1
NMSI_	103	0	1	96	48	4
EXTAP	103	96	0
EXTAP	103	96	1
NMSTR	103	192	6
NMSCL	103	192	6	96	48	3
NMTAP	103	288	1
NMTAP	103	336	1
NMTAP	104	48	0
NMSTR	104	96	0
NMSXL	104	96	0	96	96	1
NMTAP	104	192	5
NMTAP	104	288	6
NMSTR	105	0	6
NMSI_	105	0	6	96	48	3
NMSTR	105	0	7
NMSI_	105	0	7	96	48	2
EXTAP	105	96	6
EXTAP	105	96	7
NMSTR	105	192	1
NMSCR	105	192	1	96	48	4
NMTAP	105	288	6
NMTAP	105	336	6
NMTAP	106	48	7
NMSTR	106	96	7
NMSI_	106	96	7	96	48	2
NMSI_	106	96	7	96	48	4
NMTAP	106	288	1
NMSTR	107	0	0
NMSI_	107	0	0	96	48	5
NMSTR	107	0	1
NMSI_	107	0	1	96	48	4
EXTAP	107	96	0
EXTAP	107	96	1
NMTAP	107	192	6
NMTAP	107	288	2
NMSTR	107	336	2
NMSCR	107	336	2	96	48	5
NMTAP	108	48	7
NMTAP	108	96	7
NMTAP	108	192	3
NMTAP	108	192	5
NMTAP	108	288	6
NMSTR	109	0	6
NMSI_	109	0	6	96	48	3
NMSTR	109	0	7
NMSI_	109	0	7	96	48	3
EXTAP	109	96	6
EXTAP	109	96	7
NMTAP	109	192	2
NMTAP	109	288	1
NMSTR	109	336	1
NMSI_	109	336	1	96	48	5
NMTAP	110	48	6
NMSTR	110	96	6
NMSI_	110	96	6	96	48	2
NMTAP	110	192	1
BRTAP	110	288	0
NMSTR	111	0	2
NMSI_	111	0	2	96	48	0
NMSTR	111	0	3
NMSI_	111	0	3	96	48	7
EXTAP	111	192	6
EXTAP	111	192	7
EXTAP	111	240	6
EXTAP	111	240	7
NMTAP	111	288	0
NMTAP	111	288	5
NMTAP	112	0	2
NMTAP	112	0	3
NMTAP	112	96	4
NMSTR	112	96	5
NMSI_	112	96	5	96	48	2
BRHLD	112	192	1	96
NMTAP	112	288	0
NMTAP	112	336	0
NMHLD	113	0	1	48
NMHLD	113	0	3	48
NMHLD	113	96	6	48
NMHLD	113	96	7	48
NMSTR	113	192	4
NMSI_	113	192	4	96	48	0
NMSTR	113	192	5
NMSI_	113	192	5	96	48	7
EXTAP	114	0	0
EXTAP	114	0	7
EXTAP	114	48	0
EXTAP	114	48	7
NMSTR	114	96	1
NMSI_	114	96	1	96	48	3
NMTAP	114	96	6
CNSV_	114	240	3	0	48	4
CNSI_	114	288	4	0	96	6
EXHLD	115	0	7	96
NMTAP	115	96	0
EXTAP	115	192	2
EXTAP	115	192	3
EXTAP	115	240	2
EXTAP	115	240	3
NMTAP	115	288	1
NMTAP	115	288	4
NMTAP	116	0	3
NMTAP	116	0	6
NMTAP	116	96	4
NMSTR	116	96	5
NMSI_	116	96	5	96	48	2
BRHLD	116	192	1	96
NMTAP	116	288	3
NMTAP	116	336	3
NMHLD	117	0	4	48
NMHLD	117	0	6	48
NMHLD	117	96	0	48
NMHLD	117	96	1	48
NMSTR	117	192	2
NMSI_	117	192	2	96	48	0
NMSTR	117	192	3
NMSI_	117	192	3	96	48	7
EXTAP	118	0	0
EXTAP	118	0	7
NMSTR	118	96	3
NMSCL	118	96	3	96	96	0
NMSTR	118	96	4
NMSCR	118	96	4	96	96	7
NMSTR	119	0	0
NMSI_	119	0	0	96	48	4
NMTAP	119	48	0
NMSTR	119	96	7
NMSI_	119	96	7	96	48	3
NMTAP	119	144	7
NMSTR	119	192	1
NMSI_	119	192	1	96	48	5
NMTAP	119	240	1
NMSTR	119	288	6
NMSI_	119	288	6	96	48	2
NMTAP	119	336	6
NMSTR	120	0	0
NMSCR	120	0	0	96	48	3
NMTAP	120	48	0
NMSTR	120	96	7
NMSCL	120	96	7	96	48	4
NMTAP	120	144	7
NMSTR	120	192	1
NMSI_	120	192	1	96	48	5
NMTAP	120	240	1
NMTAP	120	288	6
NMTAP	120	336	6
NMTAP	121	0	4
NMTAP	121	48	4
NMTAP	121	96	5
NMTAP	121	144	5
NMTAP	121	192	2
NMTAP	121	240	2
NMTAP	121	288	6
NMTAP	121	336	6
NMTAP	122	0	0
NMTAP	122	24	7
NMTAP	122	48	0
NMTAP	122	72	7
NMSTR	122	96	0
NMSCR	122	96	0	96	192	7
NMTAP	122	120	7
NMTAP	122	144	0
NMTAP	122	168	7
CNSLR	123	0	7	0	96	3
CNSI_	123	96	3	0	96	5
NMHLD	123	192	7	3072

T_REC_TAP	344
T_REC_BRK	8
T_REC_XTP	58
T_REC_BXX	14
T_REC_HLD	78
T_REC_XHO	1
T_REC_BHO	14
T_REC_BXH	1
T_REC_STR	86
T_REC_BST	3
T_REC_XST	1
T_REC_XBS	0
T_REC_TTP	48
T_REC_THO	0
T_REC_SLD	91
T_REC_BSL	0
T_REC_ALL	747
T_NUM_TAP	537
T_NUM_BRK	40
T_NUM_HLD	79
T_NUM_SLD	91
T_NUM_ALL	747
T_JUDGE_TAP	562
T_JUDGE_HLD	277
T_JUDGE_SLD	91
T_JUDGE_ALL	930
TTM_EACHPAIRS	187
TTM_SCR_TAP	268500
TTM_SCR_BRK	104000
TTM_SCR_HLD	79000
TTM_SCR_SLD	136500
TTM_SCR_ALL	588000
TTM_SCR_S	566500
TTM_SCR_SS	584000
TTM_RAT_ACV	10068

