VERSION	0.00.00	1.04.00
FES_MODE	0
BPM_DEF	185.000	185.000	185.000	185.000
MET_DEF	4	4
RESOLUTION	384
CLK_DEF	384
COMPATIBLE_CODE	MA2

BPM	0	0	185.000
MET	0	0	4	4

BXTAP	1	0	1
BXTAP	1	0	7
BXTAP	1	96	0
BXTAP	1	96	6
BXTAP	1	192	1
BXTAP	1	240	1
BXTAP	1	288	7
BXTAP	2	0	6
BXTAP	2	48	6
BXTAP	2	144	0
BXTAP	2	192	0
EXTAP	2	288	0
EXTAP	2	288	7
EXHLD	3	0	0	768
EXTAP	3	0	7
EXHLD	5	0	6	768
EXHLD	7	0	2	768
NMTTP	8	168	3	B	0	M1
NMTTP	8	168	3	E	0	M1
NMTTP	8	168	3	A	0	M1
EXHLD	9	0	4	384
EXHLD	10	0	3	192
NMTAP	10	192	4
NMTAP	10	288	3
NMTAP	10	288	4
EXHLD	11	0	3	768
NMTTP	11	96	3	E	0	M1
NMTTP	11	192	2	E	0	M1
NMTTP	11	288	1	E	0	M1
NMTTP	12	0	0	E	0	M1
NMTTP	12	96	7	E	0	M1
NMTTP	12	192	6	E	0	M1
NMTTP	12	288	5	E	0	M1
EXHLD	13	0	4	768
NMTTP	13	96	4	E	0	M1
NMTTP	13	192	5	E	0	M1
NMTTP	13	288	6	E	0	M1
NMTTP	14	0	7	E	0	M1
NMTTP	14	96	0	E	0	M1
NMTTP	14	192	1	E	0	M1
NMTTP	14	288	2	E	0	M1
EXHLD	15	0	3	192
NMTAP	15	96	5
NMHLD	15	192	4	192
NMTAP	15	288	2
EXHLD	16	0	3	192
NMTAP	16	96	6
NMHLD	16	192	4	96
NMTAP	16	288	1
EXTAP	17	0	2
EXTAP	17	0	3
NMTAP	17	96	2
NMTAP	17	96	3
EXTAP	17	192	4
EXTAP	17	192	5
NMTAP	17	288	4
NMTAP	17	288	5
NMTTP	18	0	2	B	1	M1
NMTTP	18	0	2	E	0	M1
NMTTP	18	0	3	E	0	M1
NMTTP	18	96	5	B	1	M1
NMTTP	18	96	5	E	0	M1
NMTTP	18	96	6	E	0	M1
NMTTP	18	192	0	C	1	M1
NMTAP	19	0	1
NMTAP	19	0	7
NMTAP	19	96	1
NMTAP	19	96	7
NMTAP	19	192	0
NMTAP	19	192	6
NMTAP	19	288	0
NMTAP	19	288	6
NMTAP	20	0	1
NMTAP	20	0	7
NMTAP	20	96	1
NMTAP	20	96	7
NMTAP	20	192	6
NMTAP	20	192	7
NMTAP	20	288	5
NMTAP	20	336	5
NMTAP	21	0	3
NMTAP	21	0	5
NMTAP	21	96	3
NMTAP	21	96	5
NMTAP	21	192	2
NMTAP	21	192	4
NMTAP	21	288	2
NMTAP	21	288	4
NMTAP	22	0	3
NMTAP	22	0	5
NMTAP	22	96	3
NMTAP	22	96	5
NMTAP	22	192	2
NMTAP	22	192	3
NMTAP	22	288	1
NMTAP	22	336	1
NMTAP	23	0	0
NMTAP	23	0	1
NMTAP	23	96	0
NMTAP	23	96	1
NMTAP	23	192	6
NMTAP	23	192	7
NMTAP	23	288	6
NMTAP	23	288	7
NMTAP	24	0	0
NMTAP	24	0	1
NMTAP	24	96	0
NMTAP	24	96	1
NMTAP	24	192	2
NMTAP	24	192	7
NMTAP	24	288	6
NMTAP	24	336	6
NMTAP	25	0	4
NMTAP	25	0	6
NMTAP	25	96	4
NMTAP	25	96	6
NMTAP	25	192	1
NMTAP	25	192	3
NMTAP	25	288	1
NMTAP	25	288	3
NMTAP	26	0	3
NMTAP	26	0	4
NMTAP	26	96	4
NMTAP	26	96	6
NMTAP	26	192	0
NMTAP	26	192	7
BRTAP	26	288	1
BRTAP	26	288	6
NMTAP	27	0	2
NMTAP	27	96	2
NMTAP	27	96	3
NMTAP	27	192	2
NMTAP	27	288	2
NMTAP	27	288	4
NMTAP	28	0	5
NMTAP	28	96	4
NMTAP	28	96	5
NMTAP	28	192	3
NMTAP	28	240	3
NMTAP	28	288	4
NMTAP	29	0	2
NMTAP	29	96	2
NMTAP	29	96	3
NMTAP	29	192	2
NMTAP	29	288	2
NMTAP	29	288	4
NMTAP	30	0	5
NMTAP	30	96	4
NMTAP	30	96	5
NMTAP	30	192	3
NMTAP	30	240	3
NMTAP	30	288	4
NMHLD	31	0	2	384
NMTAP	31	96	3
NMTAP	31	192	4
NMTAP	31	288	3
NMHLD	32	0	5	288
NMTAP	32	96	4
NMTAP	32	192	3
NMTAP	32	288	4
NMTAP	33	0	5
NMTAP	33	96	4
NMTAP	33	96	6
NMTAP	33	192	3
NMTAP	33	288	2
NMTAP	33	288	4
NMTAP	34	0	5
NMTAP	34	96	4
NMTAP	34	96	6
NMTAP	34	192	3
NMTAP	34	240	3
NMTAP	34	288	4
NMTAP	35	0	1
NMTAP	35	96	0
NMTAP	35	96	1
NMTAP	35	192	1
NMTAP	35	288	1
NMTAP	35	288	7
NMTAP	36	0	6
NMTAP	36	96	6
NMTAP	36	96	7
NMTAP	36	192	0
NMTAP	36	240	0
NMTAP	36	288	7
NMTAP	37	0	1
NMTAP	37	96	0
NMTAP	37	96	1
NMTAP	37	192	1
NMTAP	37	288	1
NMTAP	37	288	7
NMTAP	38	0	6
NMTAP	38	96	6
NMTAP	38	96	7
NMTAP	38	192	0
NMTAP	38	240	0
NMTAP	38	288	7
NMHLD	39	0	1	192
NMTAP	39	96	3
NMTAP	39	192	4
NMTAP	39	288	3
NMTAP	39	288	5
NMHLD	40	0	6	192
NMTAP	40	96	4
NMTAP	40	192	3
NMTAP	40	288	2
NMTAP	40	288	4
NMTAP	41	0	1
NMTAP	41	96	0
NMTAP	41	96	1
NMTAP	41	192	6
NMTAP	41	288	6
NMTAP	41	288	7
NMTAP	42	0	1
NMTAP	42	96	0
NMTAP	42	96	1
NMTAP	42	192	0
NMTAP	42	192	7
NMTAP	42	288	7
NMTAP	42	336	0
NMSTR	43	0	1
NMSXR	43	0	1	96	480	4
NMSTR	45	0	6
NMSXL	45	0	6	96	480	3
NMHLD	47	0	2	96
NMHLD	47	96	3	96
NMHLD	47	192	4	96
NMHLD	47	288	5	96
NMHLD	48	0	2	96
NMHLD	48	96	3	96
NMHLD	48	192	4	96
NMHLD	48	288	5	96
NMHLD	49	0	2	96
NMHLD	49	96	3	96
NMHLD	49	192	4	96
NMHLD	49	288	5	96
NMHLD	50	0	1	96
NMHLD	50	96	3	96
NMHLD	50	192	4	96
NMHLD	50	288	6	96
NMSTR	51	0	0
NMSI_	51	0	0	96	48	4
NMTTP	51	192	5	B	0	M1
NMTTP	51	192	5	E	0	M1
NMTTP	51	192	5	A	0	M1
NMTTP	51	288	2	B	0	M1
NMTTP	51	288	2	A	0	M1
NMTTP	51	288	3	E	0	M1
NMTAP	52	0	7
NMSTR	52	96	0
NMSV_	52	96	0	96	96	3
NMSTR	52	96	6
NMSV_	52	96	6	96	96	3
EXSTR	53	0	2
NMSI_	53	0	2	96	48	4
NMSTR	53	192	6
BRSI_	53	192	6	96	48	3
NMTAP	54	0	2
NMSTR	54	96	1
NMSV_	54	96	1	96	96	3
NMSTR	54	96	6
NMSV_	54	96	6	96	96	4
NMTAP	55	0	2
NMTAP	55	96	1
BXTAP	55	192	0
BXTAP	55	192	1
BXTAP	55	240	0
BXTAP	55	240	1
BXTAP	55	288	0
BXTAP	55	288	1
NMTAP	56	0	2
NMTAP	56	0	4
NMTAP	56	96	5
BXTAP	56	192	6
BXTAP	56	192	7
BXTAP	56	240	6
BXTAP	56	240	7
BXTAP	56	288	6
BXTAP	56	288	7
NMHLD	57	0	0	96
NMHLD	57	96	1	96
NMHLD	57	192	2	96
NMHLD	57	288	3	96
NMTAP	58	0	1
NMTAP	58	48	1
NMTAP	58	96	3
NMTAP	58	144	3
NMTAP	58	192	5
NMTAP	58	240	5
NMSTR	58	288	7
NMSCR	58	288	7	96	576	6
NMTTP	59	0	0	C	1	M1
NMHLD	61	0	6	96
NMHLD	61	96	7	96
NMHLD	61	192	0	96
NMHLD	61	288	1	96
NMHLD	62	0	6	96
NMHLD	62	96	7	96
NMHLD	62	192	0	96
NMTAP	62	288	1
NMTAP	63	0	0
NMTAP	63	0	1
NMTAP	63	48	0
NMTAP	63	48	1
NMTAP	63	144	2
NMTAP	63	144	3
NMTAP	63	240	4
NMTAP	63	240	5
NMTTP	63	336	6	B	0	M1
NMTTP	63	336	6	A	0	M1
NMTTP	63	336	7	B	0	M1
NMTTP	63	336	7	E	1	M1
NMTTP	63	336	7	A	0	M1
NMTTP	63	336	7	D	0	M1
EXTAP	64	240	2
EXTAP	64	240	3
EXTAP	64	288	2
EXTAP	64	288	3
NMTAP	65	0	4
NMTAP	65	0	5
NMTAP	65	48	4
NMTAP	65	48	5
NMTAP	65	144	6
NMTAP	65	144	7
NMTAP	65	240	0
NMTAP	65	240	1
NMTTP	65	336	2	B	0	M1
NMTTP	65	336	2	A	0	M1
NMTTP	65	336	3	B	0	M1
NMTTP	65	336	3	E	1	M1
NMTTP	65	336	3	A	0	M1
NMTTP	65	336	3	D	0	M1
EXTAP	66	240	1
EXTAP	66	240	5
EXTAP	66	288	1
EXTAP	66	288	5
NMTAP	67	0	6
NMTAP	67	0	7
NMTAP	67	48	6
NMTAP	67	48	7
NMTAP	67	144	4
NMTAP	67	144	5
NMTAP	67	240	2
NMTAP	67	240	3
NMTTP	67	336	0	B	0	M1
NMTTP	67	336	0	A	0	M1
NMTTP	67	336	1	B	0	M1
NMTTP	67	336	1	E	1	M1
NMTTP	67	336	1	A	0	M1
NMTTP	67	336	1	D	0	M1
EXTAP	68	240	4
EXTAP	68	240	5
EXTAP	68	288	4
EXTAP	68	288	5
NMTAP	69	0	2
NMTAP	69	0	3
NMTAP	69	48	2
NMTAP	69	48	3
NMTAP	69	144	0
NMTAP	69	144	1
NMTAP	69	240	6
NMTAP	69	240	7
NMTTP	69	336	4	B	0	M1
NMTTP	69	336	4	A	0	M1
NMTTP	69	336	5	B	0	M1
NMTTP	69	336	5	E	1	M1
NMTTP	69	336	5	A	0	M1
NMTTP	69	336	5	D	0	M1
EXTAP	70	240	0
EXTAP	70	240	7
EXTAP	70	288	0
EXTAP	70	288	7
NMTAP	71	0	1
NMTAP	71	0	7
NMHLD	71	48	1	96
NMTAP	71	48	7
NMHLD	71	144	3	96
NMHLD	71	240	4	96
NMTAP	71	336	6
NMTAP	72	48	0
NMTAP	72	48	6
NMTAP	72	144	1
NMTAP	72	144	7
NMTAP	72	240	2
NMTAP	72	240	3
NMTAP	72	288	2
NMTAP	72	288	3
NMTAP	73	0	0
NMTAP	73	0	6
NMTAP	73	48	0
NMHLD	73	48	6	96
NMHLD	73	144	4	96
NMHLD	73	240	3	96
NMTAP	73	336	1
NMTAP	74	48	1
NMTAP	74	48	7
NMTAP	74	144	0
NMTAP	74	144	6
NMTAP	74	240	4
NMTAP	74	240	5
NMTAP	74	288	4
NMTAP	74	288	5
NMTAP	75	0	0
NMTAP	75	0	1
NMTAP	75	48	0
NMTAP	75	48	1
NMTAP	75	144	2
NMTAP	75	144	3
NMTAP	75	240	4
NMTAP	75	240	5
NMTAP	75	336	6
NMTAP	75	336	7
NMTAP	76	48	0
NMTAP	76	48	1
NMTAP	76	144	2
NMTAP	76	144	3
NMTAP	76	240	3
NMTAP	76	240	4
NMTAP	76	288	3
NMTAP	76	288	4
EXHLD	77	0	1	96
EXHLD	77	0	3	96
EXHLD	77	192	4	96
EXHLD	77	192	6	96
BXTAP	78	0	0
BXTAP	78	0	7
BXTAP	78	48	0
BXTAP	78	48	7
BXTAP	78	96	0
BXTAP	78	96	7
BXTAP	78	192	1
BXTAP	78	192	6
BXTAP	78	240	1
BXTAP	78	240	6
BXTAP	78	288	1
BXTAP	78	288	6
EXTAP	79	0	0
EXHLD	79	0	7	768
EXHLD	81	0	1	768
EXHLD	83	0	5	768
EXHLD	85	0	3	384
EXHLD	86	0	4	192
NMTAP	86	192	3
NMTAP	86	288	3
NMTAP	86	288	4
EXHLD	87	0	4	768
NMTTP	87	96	5	E	0	M1
NMTTP	87	192	6	E	0	M1
NMTTP	87	288	7	E	0	M1
NMTTP	88	0	0	E	0	M1
NMTTP	88	96	1	E	0	M1
NMTTP	88	192	2	E	0	M1
NMTTP	88	288	3	E	0	M1
EXHLD	89	0	3	768
NMTTP	89	96	4	E	0	M1
NMTTP	89	192	3	E	0	M1
NMTTP	89	288	2	E	0	M1
NMTTP	90	0	1	E	0	M1
NMTTP	90	96	0	E	0	M1
NMTTP	90	192	7	E	0	M1
NMTTP	90	288	6	E	0	M1
EXHLD	91	0	4	192
NMTAP	91	96	2
NMHLD	91	192	3	192
NMTAP	91	288	5
EXHLD	92	0	4	192
NMTAP	92	96	1
NMHLD	92	192	3	96
NMTAP	92	288	6
EXTAP	93	0	4
EXTAP	93	0	5
NMTAP	93	96	6
NMTAP	93	96	7
EXTAP	93	192	0
EXTAP	93	192	1
NMTAP	93	288	2
NMTAP	93	288	3
NMTTP	94	0	6	B	1	M1
NMTTP	94	0	6	E	0	M1
NMTTP	94	0	7	E	0	M1
NMTTP	94	96	1	B	1	M1
NMTTP	94	96	1	E	0	M1
NMTTP	94	96	2	E	0	M1
NMTTP	94	192	0	C	1	M1
NMTAP	95	0	1
NMTAP	95	0	7
NMTAP	95	96	0
NMTAP	95	96	6
NMTAP	95	192	2
NMTAP	95	192	3
NMTAP	95	288	4
NMTAP	95	288	5
NMTAP	96	0	1
NMTAP	96	0	7
NMTAP	96	96	0
NMTAP	96	96	6
NMTAP	96	192	2
NMTAP	96	192	3
NMTAP	96	288	4
NMTAP	96	288	5
NMTAP	97	0	1
NMTAP	97	0	7
NMTAP	97	96	0
NMTAP	97	96	6
NMTAP	97	192	2
NMTAP	97	192	3
NMTAP	97	288	4
NMTAP	97	288	5
NMTAP	98	0	6
NMTAP	98	0	7
NMTAP	98	96	0
NMTAP	98	96	1
NMTAP	98	192	2
NMTAP	98	192	3
NMTAP	98	288	1
NMTAP	98	288	4
NMTAP	99	0	6
NMTAP	99	0	7
NMTAP	99	96	0
NMTAP	99	96	1
NMTAP	99	192	3
NMTAP	99	192	5
NMTAP	99	288	2
NMTAP	99	288	4
NMTAP	100	0	6
NMTAP	100	0	7
NMTAP	100	96	0
NMTAP	100	96	1
NMTAP	100	192	3
NMTAP	100	192	5
NMTAP	100	288	2
NMTAP	100	288	4
NMTAP	101	0	6
NMTAP	101	0	7
NMTAP	101	96	0
NMTAP	101	96	1
NMTAP	101	192	3
NMTAP	101	192	5
NMTAP	101	288	2
NMTAP	101	288	4
NMTAP	102	0	0
NMTAP	102	0	1
NMTAP	102	96	6
NMTAP	102	96	7
NMTAP	102	192	4
NMTAP	102	192	5
BRTAP	102	288	3
BRTAP	102	288	6
NMHLD	103	0	1	48
NMHLD	103	0	7	48
NMHLD	103	96	0	48
NMHLD	103	96	6	48
NMHLD	103	192	2	48
NMHLD	103	192	3	48
NMHLD	103	288	4	48
NMHLD	103	288	5	48
NMHLD	104	0	1	48
NMHLD	104	0	7	48
NMHLD	104	96	0	48
NMHLD	104	96	6	48
NMHLD	104	192	2	48
NMHLD	104	192	3	48
NMHLD	104	288	4	48
NMHLD	104	288	5	48
NMHLD	105	0	1	48
NMHLD	105	0	7	48
NMHLD	105	96	0	48
NMHLD	105	96	6	48
NMHLD	105	192	2	48
NMHLD	105	192	3	48
NMHLD	105	288	4	48
NMHLD	105	288	5	48
NMHLD	106	0	6	48
NMHLD	106	0	7	48
NMHLD	106	96	0	48
NMHLD	106	96	1	48
NMHLD	106	192	2	48
NMHLD	106	192	3	48
NMHLD	106	288	1	48
NMHLD	106	288	4	48
NMHLD	107	0	6	48
NMHLD	107	0	7	48
NMHLD	107	96	0	48
NMHLD	107	96	1	48
NMHLD	107	192	3	48
NMHLD	107	192	5	48
NMHLD	107	288	2	48
NMHLD	107	288	4	48
NMHLD	108	0	6	48
NMHLD	108	0	7	48
NMHLD	108	96	0	48
NMHLD	108	96	1	48
NMHLD	108	192	3	48
NMHLD	108	192	5	48
NMHLD	108	288	2	48
NMHLD	108	288	4	48
NMHLD	109	0	6	48
NMHLD	109	0	7	48
NMHLD	109	96	0	48
NMHLD	109	96	1	48
NMHLD	109	192	3	48
NMHLD	109	192	5	48
NMHLD	109	288	2	48
NMHLD	109	288	4	48
NMHLD	110	0	0	48
NMHLD	110	0	1	48
NMHLD	110	96	6	48
NMHLD	110	96	7	48
NMHLD	110	192	4	48
NMHLD	110	192	5	48
BRTAP	110	288	0
BRTAP	110	288	7
EXTAP	111	0	0
EXHLD	111	0	1	96
NMTAP	111	96	4
EXHLD	111	192	6	96
EXTAP	111	192	7
NMTAP	111	288	3
NMHLD	112	0	1	96
NMHLD	112	96	3	96
NMTAP	112	192	4
NMTAP	112	288	4
NMTAP	112	288	5
NMTAP	113	0	0
NMHLD	113	0	6	96
NMTAP	113	96	4
NMHLD	113	192	1	96
NMTAP	113	192	7
NMTAP	113	288	3
NMHLD	114	0	6	96
NMHLD	114	96	4	96
NMHLD	114	192	3	96
NMTAP	114	288	1
NMSTR	115	0	0
NMSI_	115	0	0	96	48	4
NMSTR	115	0	1
NMSI_	115	0	1	96	48	4
NMSTR	115	192	6
NMSI_	115	192	6	96	48	3
NMSTR	115	192	7
NMSI_	115	192	7	96	48	3
NMTAP	116	0	0
NMTAP	116	0	1
NMTAP	116	96	2
NMTAP	116	96	3
NMTAP	116	192	4
NMTAP	116	192	5
NMTAP	116	288	6
NMTAP	116	288	7
NMSTR	117	0	0
NMSI_	117	0	0	96	48	5
NMSTR	117	0	1
NMSI_	117	0	1	96	48	4
NMSTR	117	192	6
NMSI_	117	192	6	96	48	3
NMSTR	117	192	7
NMSI_	117	192	7	96	48	2
NMTAP	118	0	1
NMTAP	118	0	4
NMTAP	118	96	3
NMTAP	118	96	6
NMTAP	118	192	2
NMTAP	118	192	5
BRTAP	118	288	0
BRTAP	118	288	7
EXTAP	119	0	1
NMTAP	119	48	1
EXTAP	119	96	3
NMTAP	119	144	3
EXTAP	119	192	2
NMTAP	119	240	2
EXTAP	119	288	5
NMTAP	119	336	5
EXTAP	120	0	4
NMTAP	120	48	4
EXTAP	120	96	6
NMTAP	120	144	6
EXTAP	120	192	0
NMTAP	120	240	0
EXTAP	120	288	7
NMTAP	120	336	7
EXTAP	121	0	0
EXTAP	121	48	7
EXTAP	121	96	0
EXTAP	121	144	7
EXTAP	121	192	1
EXTAP	121	240	6
EXTAP	121	288	1
EXTAP	121	336	6
EXTAP	122	0	0
EXTAP	122	24	7
EXTAP	122	48	0
EXTAP	122	72	7
EXTAP	122	96	0
EXTAP	122	120	7
EXTAP	122	144	0
EXTAP	122	168	7
EXHLD	122	192	0	384
NMSTR	123	192	7
NMSLL	123	192	7	96	1488	3
CNSLL	127	240	3	0	1488	7

T_REC_TAP	353
T_REC_BRK	8
T_REC_XTP	54
T_REC_BXX	35
T_REC_HLD	110
T_REC_XHO	25
T_REC_BHO	0
T_REC_BXH	0
T_REC_STR	18
T_REC_BST	0
T_REC_XST	1
T_REC_XBS	0
T_REC_TTP	76
T_REC_THO	0
T_REC_SLD	18
T_REC_BSL	1
T_REC_ALL	699
T_NUM_TAP	502
T_NUM_BRK	44
T_NUM_HLD	135
T_NUM_SLD	18
T_NUM_ALL	699
T_JUDGE_TAP	545
T_JUDGE_HLD	396
T_JUDGE_SLD	19
T_JUDGE_ALL	960
TTM_EACHPAIRS	208
TTM_SCR_TAP	251000
TTM_SCR_BRK	114400
TTM_SCR_HLD	135000
TTM_SCR_SLD	27000
TTM_SCR_ALL	527400
TTM_SCR_S	507350
TTM_SCR_SS	523000
TTM_RAT_ACV	10084

