VERSION	0.00.00	1.04.00
FES_MODE	0
BPM_DEF	185.000	185.000	185.000	185.000
MET_DEF	4	4
RESOLUTION	384
CLK_DEF	384
COMPATIBLE_CODE	MA2

BPM	0	0	185.000
MET	0	0	4	4

EXHLD	3	0	2	768
EXHLD	5	0	3	768
EXHLD	7	0	4	768
EXTAP	9	0	5
EXTAP	10	0	4
EXTAP	10	0	5
NMHLD	11	0	6	192
NMHLD	11	192	5	192
NMHLD	12	0	4	192
NMTAP	12	192	3
NMHLD	13	0	1	192
NMHLD	13	192	2	192
NMHLD	14	0	3	192
NMTAP	14	192	4
NMHLD	15	0	5	192
NMHLD	15	192	6	192
NMHLD	16	0	7	192
NMTAP	16	192	0
EXTAP	17	0	0
EXTAP	17	0	7
EXTAP	17	192	0
EXTAP	17	192	7
EXTAP	18	0	1
EXTAP	18	0	6
EXTAP	18	96	1
EXTAP	18	96	6
EXTAP	18	192	1
EXTAP	18	192	6
BRTAP	19	0	6
NMTAP	19	96	6
NMTAP	19	192	6
NMTAP	19	192	7
NMTAP	20	0	1
NMTAP	20	96	1
NMTAP	20	192	0
NMTAP	20	192	1
NMTAP	21	0	2
NMTAP	21	96	2
NMTAP	21	192	2
NMTAP	21	192	3
NMTAP	22	0	4
NMTAP	22	0	5
NMTAP	22	96	4
NMTAP	22	96	5
NMTAP	22	192	4
NMTAP	22	192	5
NMTAP	23	0	2
NMTAP	23	96	2
NMTAP	23	192	2
NMTAP	23	192	3
NMTAP	24	0	1
NMTAP	24	96	1
NMTAP	24	192	0
NMTAP	24	192	1
NMTAP	25	0	6
NMTAP	25	96	6
NMTAP	25	192	6
NMTAP	25	192	7
EXTAP	26	0	4
EXTAP	26	0	5
EXTAP	26	96	4
EXTAP	26	96	5
BXTAP	26	192	4
BXTAP	26	192	5
NMHLD	27	0	2	192
NMTAP	27	192	3
NMTAP	28	0	4
NMTAP	28	192	3
NMTAP	28	192	5
NMHLD	29	0	5	192
NMTAP	29	192	4
NMTAP	30	0	3
NMTAP	30	192	2
NMTAP	30	192	4
NMHLD	31	0	2	192
NMTAP	31	192	3
NMHLD	32	0	5	192
NMTAP	32	192	4
NMHLD	33	0	3	192
NMTAP	33	192	4
NMTAP	34	0	3
NMTAP	34	96	3
NMTAP	34	192	3
NMTAP	34	192	4
NMTAP	35	0	5
NMTAP	35	96	5
NMTAP	35	192	5
NMTAP	36	0	6
NMTAP	36	0	7
NMTAP	36	192	6
NMTAP	36	192	7
NMTAP	37	0	0
NMTAP	37	96	0
NMTAP	37	192	0
NMTAP	38	0	1
NMTAP	38	0	7
NMTAP	38	192	1
NMTAP	38	192	7
NMHLD	39	0	1	192
NMTAP	39	192	0
NMHLD	40	0	6	192
NMTAP	40	192	7
NMHLD	41	0	0	192
NMTAP	41	192	7
NMTAP	42	0	0
NMTAP	42	0	7
NMTAP	42	96	0
NMTAP	42	96	7
NMTAP	42	192	0
NMTAP	42	192	7
NMSTR	43	0	6
NMSUL	43	0	6	96	288	2
NMSTR	45	0	1
NMSUR	45	0	1	96	288	5
EXTAP	47	0	6
EXTAP	47	0	7
EXTAP	47	192	6
EXTAP	47	192	7
NMTAP	48	0	0
NMTAP	48	0	7
NMTAP	48	192	0
NMTAP	48	192	7
NMTAP	49	0	0
NMTAP	49	0	1
NMTAP	49	192	0
NMTAP	49	192	1
NMTAP	50	0	0
NMTAP	50	0	7
NMTAP	50	192	1
NMTAP	50	192	6
NMTAP	51	0	6
NMTAP	51	96	6
NMTAP	51	192	6
NMTAP	51	192	7
NMTAP	52	0	1
NMTAP	52	96	1
NMTAP	52	192	0
NMTAP	52	192	1
NMTAP	53	0	2
NMTAP	53	96	2
NMTAP	53	192	3
NMTAP	53	288	3
NMTAP	54	0	4
NMTAP	54	96	4
NMTAP	54	192	3
NMTAP	54	192	5
NMTAP	55	0	2
NMTAP	55	96	2
NMTAP	55	192	2
NMTAP	55	192	3
NMTAP	56	0	5
NMTAP	56	96	5
NMTAP	56	192	4
NMTAP	56	192	5
NMTAP	57	0	6
NMTAP	57	96	6
NMTAP	57	192	7
NMTAP	57	288	7
NMTAP	58	0	0
NMTAP	58	96	0
NMTAP	58	192	1
NMTAP	58	192	7
NMTAP	59	0	1
NMTAP	59	96	1
NMTAP	59	192	2
NMTAP	59	288	2
NMTAP	60	0	3
NMTAP	60	96	3
NMTAP	60	192	3
NMTAP	60	192	4
NMTAP	61	0	6
NMTAP	61	96	6
NMTAP	61	192	5
NMTAP	61	288	5
NMTAP	62	0	4
NMTAP	62	96	3
NMTAP	62	192	2
NMTAP	62	192	4
NMSTR	63	0	1
NMSI_	63	0	1	96	192	5
NMSTR	64	0	6
NMSI_	64	0	6	96	192	2
NMSTR	65	0	0
NMSI_	65	0	0	96	192	4
NMTAP	66	0	5
NMTAP	66	96	5
NMTAP	66	192	4
NMTAP	66	192	5
NMSTR	67	0	6
NMSI_	67	0	6	96	192	2
NMSTR	68	0	1
NMSI_	68	0	1	96	192	5
NMSTR	69	0	7
NMSI_	69	0	7	96	192	3
NMTAP	70	0	2
NMTAP	70	96	2
NMTAP	70	192	2
NMTAP	70	192	3
NMTAP	71	0	1
NMTAP	71	96	1
NMTAP	71	192	0
NMTAP	71	288	0
NMTAP	72	0	7
NMTAP	72	96	7
NMTAP	72	192	0
NMTAP	72	192	6
NMTAP	73	0	5
NMTAP	73	96	5
NMTAP	73	192	4
NMTAP	73	288	4
NMTAP	74	0	3
NMTAP	74	96	3
NMTAP	74	192	2
NMTAP	74	192	4
NMTAP	75	0	5
NMTAP	75	96	5
NMTAP	75	192	6
NMTAP	75	288	6
NMTAP	76	0	7
NMTAP	76	96	7
NMTAP	76	192	0
NMTAP	76	192	7
NMHLD	77	0	0	192
NMHLD	77	0	7	192
NMTAP	78	0	0
NMTAP	78	0	7
NMTAP	78	96	0
NMTAP	78	96	7
NMTAP	78	192	1
NMTAP	78	192	6
NMTAP	78	288	1
NMTAP	78	288	6
BRTAP	79	0	2
BRTAP	79	0	5
NMHLD	81	0	2	384
NMHLD	81	0	3	384
NMHLD	83	0	4	384
NMHLD	83	0	5	384
NMHLD	85	0	3	384
NMHLD	85	0	4	384
NMTTP	87	0	5	B	0	L1
NMTTP	87	96	4	B	0	L1
NMTTP	87	192	4	E	0	L1
NMTTP	88	0	2	E	0	L1
NMTTP	88	96	2	B	0	L1
NMTTP	88	192	3	B	0	L1
NMTTP	89	0	6	B	0	L1
NMTTP	89	96	5	B	0	L1
NMTTP	89	192	4	B	0	L1
NMTTP	89	288	3	B	0	L1
NMTTP	90	0	2	B	0	L1
NMTTP	90	96	1	B	0	L1
NMTTP	90	192	0	C	0	L1
NMTTP	91	0	1	E	0	L1
NMTTP	91	96	2	E	0	L1
NMTTP	91	192	2	B	0	L1
NMTTP	91	192	3	B	0	L1
NMTTP	92	0	5	E	0	L1
NMTTP	92	96	6	E	0	L1
NMTTP	92	192	7	B	0	L1
NMTTP	92	192	7	E	0	L1
NMTHO	93	0	0	384	C	1	L1
BRTAP	95	0	0
BRTAP	95	0	7
NMTAP	95	96	0
NMTAP	95	96	7
NMTAP	95	192	1
NMTAP	95	288	2
NMTAP	96	0	2
NMTAP	96	0	3
NMTAP	96	96	2
NMTAP	96	96	3
NMTAP	96	192	1
NMTAP	96	192	4
NMTAP	97	0	4
NMTAP	97	96	4
NMTAP	97	192	5
NMTAP	97	288	6
NMTAP	98	0	6
NMTAP	98	0	7
NMTAP	98	96	6
NMTAP	98	96	7
NMTAP	98	192	0
NMTAP	98	192	5
NMTAP	99	0	1
NMTAP	99	96	0
NMTAP	99	96	1
NMTAP	99	192	2
NMTAP	99	192	7
NMTAP	100	0	6
NMTAP	100	96	6
NMTAP	100	96	7
NMTAP	100	192	0
NMTAP	100	192	5
NMTAP	101	0	0
NMTAP	101	96	0
NMTAP	101	192	7
NMTAP	101	288	7
NMTAP	102	0	0
NMTAP	102	0	7
NMTAP	102	96	1
NMTAP	102	96	6
EXTAP	102	192	2
EXTAP	102	192	5
BRTAP	103	0	3
NMTAP	103	96	3
NMTAP	103	192	2
NMTAP	103	288	2
NMTAP	104	0	1
NMTAP	104	96	0
NMTAP	104	192	7
NMTAP	104	288	6
NMTAP	105	0	5
NMTAP	105	96	5
NMTAP	105	192	6
NMTAP	105	288	7
NMTAP	106	0	0
NMTAP	106	0	1
NMTAP	106	96	0
NMTAP	106	96	1
NMTAP	106	192	2
NMTAP	106	192	7
BRTAP	107	0	7
NMTAP	107	96	7
NMTAP	107	192	6
NMTAP	107	288	6
NMTAP	108	0	5
NMTAP	108	96	4
NMTAP	108	192	3
NMTAP	108	288	2
NMTAP	109	0	0
NMTAP	109	0	1
NMTAP	109	96	0
NMTAP	109	96	1
NMTAP	109	192	2
NMTAP	109	288	3
NMTAP	110	0	3
NMTAP	110	0	4
NMTAP	110	96	2
NMTAP	110	96	5
BRTAP	110	192	1
BRTAP	110	192	6
NMHLD	111	0	1	192
NMHLD	111	192	2	192
NMHLD	112	0	3	192
NMHLD	112	192	4	192
NMHLD	113	0	5	192
NMHLD	113	192	6	192
NMTAP	114	0	7
NMTAP	114	96	7
NMTAP	114	192	6
NMTAP	114	192	7
NMHLD	115	0	6	192
NMHLD	115	192	5	192
NMHLD	116	0	4	192
NMHLD	116	192	3	192
NMHLD	117	0	2	192
NMHLD	117	192	1	192
NMTAP	118	0	0
NMTAP	118	96	0
BRTAP	118	192	0
BRTAP	118	192	7
NMTAP	119	0	1
NMTAP	119	96	1
NMTAP	119	192	0
NMTAP	119	192	1
NMTAP	119	288	0
NMTAP	119	288	1
NMTAP	120	0	6
NMTAP	120	96	6
NMTAP	120	192	6
NMTAP	120	192	7
NMTAP	120	288	6
NMTAP	120	288	7
NMTAP	121	0	0
NMTAP	121	0	7
NMTAP	121	96	0
NMTAP	121	96	7
NMTAP	121	192	1
NMTAP	121	192	6
NMTAP	121	288	1
NMTAP	121	288	6
NMTAP	122	0	2
NMTAP	122	0	5
NMSTR	122	96	3
NMSCL	122	96	3	96	192	0
NMSTR	122	96	4
NMSCR	122	96	4	96	192	7
NMTHO	123	192	0	3072	C	0	L1

T_REC_TAP	270
T_REC_BRK	11
T_REC_XTP	23
T_REC_BXX	2
T_REC_HLD	37
T_REC_XHO	3
T_REC_BHO	0
T_REC_BXH	0
T_REC_STR	10
T_REC_BST	0
T_REC_XST	0
T_REC_XBS	0
T_REC_TTP	21
T_REC_THO	2
T_REC_SLD	10
T_REC_BSL	0
T_REC_ALL	389
T_NUM_TAP	324
T_NUM_BRK	13
T_NUM_HLD	42
T_NUM_SLD	10
T_NUM_ALL	389
T_JUDGE_TAP	337
T_JUDGE_HLD	292
T_JUDGE_SLD	10
T_JUDGE_ALL	639
TTM_EACHPAIRS	93
TTM_SCR_TAP	162000
TTM_SCR_BRK	33800
TTM_SCR_HLD	42000
TTM_SCR_SLD	15000
TTM_SCR_ALL	252800
TTM_SCR_S	244000
TTM_SCR_SS	251500
TTM_RAT_ACV	10051

