VERSION	0.00.00	1.04.00
FES_MODE	0
BPM_DEF	191.000	191.000	191.000	191.000
MET_DEF	4	4
RESOLUTION	384
CLK_DEF	384
COMPATIBLE_CODE	MA2

BPM	0	0	191.000
MET	0	0	4	4

EXTAP	1	0	0
EXSTR	1	0	7
NMSCL	1	0	7	96	1056	0
NMSUR	1	0	7	96	1056	0
NMTTP	1	1	0	B	0	M1
NMTTP	1	1	7	B	0	M1
NMTTP	1	3	2	B	0	M1
NMTTP	1	3	5	B	0	M1
NMTTP	1	4	0	C	0	M1
NMTTP	1	6	3	B	0	M1
NMTTP	1	6	4	B	0	M1
NMTTP	1	8	4	E	0	M1
NMSTR	4	192	0
NMSSL	4	192	0	96	48	4
NMSTR	4	192	7
NMSSR	4	192	7	96	48	3
NMHLD	5	0	1	144
NMHLD	5	144	3	144
NMSTR	5	288	4
NMSUL	5	288	4	96	288	3
NMTAP	6	144	6
NMTAP	6	240	7
NMTAP	6	288	7
NMHLD	7	0	6	144
NMHLD	7	144	4	144
NMSTR	7	288	3
NMSUR	7	288	3	96	288	4
NMTAP	8	144	1
NMTAP	8	240	0
NMTAP	8	288	0
NMHLD	9	0	1	96
NMTAP	9	96	3
NMHLD	9	144	3	96
NMTAP	9	240	4
NMSTR	9	288	4
NMSXR	9	288	4	96	288	0
NMTAP	10	144	6
NMTAP	10	240	7
NMTAP	10	288	7
NMHLD	11	0	6	96
NMTAP	11	96	4
NMHLD	11	144	4	96
NMTAP	11	240	3
NMHLD	11	288	3	96
NMSTR	12	0	2
NMSI_	12	0	2	96	72	6
CNSI_	12	168	6	0	48	4
CNSI_	12	216	4	0	72	0
NMTAP	13	0	4
NMTAP	13	48	5
NMSTR	13	96	6
NMSI_	13	96	6	96	48	4
NMTAP	13	192	2
NMSTR	13	240	2
NMSI_	13	240	2	96	48	7
NMTAP	13	336	3
NMTAP	14	48	4
NMHLD	14	96	4	96
NMTAP	14	144	7
NMTAP	14	168	0
NMSTR	14	192	1
NMSI_	14	192	1	96	48	7
NMTAP	14	288	3
NMTAP	14	336	3
CNSI_	14	336	7	0	48	2
NMTAP	15	48	4
NMSTR	15	96	4
NMSLR	15	96	4	96	96	0
NMTAP	15	192	2
NMSTR	15	240	2
NMSI_	15	240	2	96	48	6
NMTAP	15	336	6
NMSTR	16	48	5
NMSI_	16	48	5	96	48	0
NMTAP	16	96	5
NMTAP	16	144	1
NMSTR	16	192	1
NMSI_	16	192	1	96	48	5
NMTAP	16	288	7
CNSI_	16	336	5	0	48	3
NMTAP	16	336	7
NMTAP	17	48	6
NMSTR	17	96	6
NMSI_	17	96	6	96	48	4
NMTAP	17	192	2
NMSTR	17	240	2
NMSI_	17	240	2	96	48	7
NMTAP	17	336	3
NMTAP	18	48	4
NMHLD	18	96	4	96
NMTAP	18	144	7
NMTAP	18	168	0
NMSTR	18	192	1
NMSI_	18	192	1	96	48	6
NMTAP	18	288	3
NMTAP	18	336	3
CNSI_	18	336	6	0	48	0
NMTAP	19	48	4
NMSTR	19	96	4
NMSCR	19	96	4	96	48	7
NMTAP	19	192	2
NMSTR	19	240	2
NMSI_	19	240	2	96	48	0
NMTAP	19	336	7
NMTAP	20	48	1
NMTAP	20	48	6
NMTAP	20	96	2
NMTAP	20	96	5
NMTAP	20	144	3
NMTAP	20	144	4
NMTAP	20	192	3
NMTAP	20	192	4
NMTAP	20	216	2
NMTAP	20	240	1
NMTAP	20	264	0
NMTAP	20	288	7
NMTAP	20	312	6
NMTAP	20	336	5
NMTAP	20	360	4
BRHLD	21	0	3	96
NMTAP	21	192	6
NMTAP	21	240	4
NMTAP	21	288	5
NMTAP	21	336	3
NMTAP	22	0	4
NMTAP	22	48	4
NMTAP	22	96	2
NMTAP	22	144	2
NMHLD	22	192	3	96
NMTAP	22	288	1
NMTAP	22	336	1
NMHLD	23	0	0	96
NMHLD	23	0	3	96
NMTAP	23	192	1
NMTAP	23	240	3
NMTAP	23	288	2
NMTAP	23	336	4
NMTAP	24	0	3
NMTAP	24	48	3
NMTAP	24	96	5
NMTAP	24	144	5
NMHLD	24	192	4	96
NMTAP	24	288	6
NMTAP	24	336	6
NMHLD	25	0	4	48
NMHLD	25	0	7	48
BXTAP	25	96	4
BXTAP	25	96	7
NMTAP	25	192	6
NMTAP	25	240	4
NMTAP	25	288	5
NMTAP	25	336	3
NMTAP	26	0	4
NMTAP	26	48	5
NMTAP	26	96	3
NMTAP	26	144	2
NMSTR	26	192	4
NMSCR	26	192	4	96	96	7
NMTAP	26	288	0
NMTAP	26	336	0
NMTAP	27	0	0
NMTAP	27	48	6
NMTAP	27	96	5
NMTAP	27	144	4
NMTAP	27	192	3
NMTAP	27	240	2
NMTAP	27	288	4
NMTAP	27	336	5
NMTAP	28	0	3
NMTAP	28	0	6
NMTAP	28	48	5
NMTAP	28	72	4
NMTAP	28	120	2
NMTAP	28	144	3
NMSTR	28	192	2
NMSI_	28	192	2	96	48	6
NMSTR	28	192	3
NMSI_	28	192	3	96	48	7
NMTAP	28	288	2
NMTAP	28	288	3
NMTAP	29	0	7
NMTAP	29	24	0
NMTAP	29	48	1
NMTAP	29	72	2
NMTAP	29	96	6
NMTAP	29	120	5
NMTAP	29	144	4
NMTAP	29	168	3
NMTAP	29	192	0
NMTAP	29	216	1
NMTAP	29	240	2
NMTAP	29	264	3
NMTAP	29	288	7
NMTAP	29	312	6
NMTAP	29	336	5
NMTAP	29	360	4
NMTAP	30	0	1
NMTAP	30	24	2
NMTAP	30	48	3
NMTAP	30	72	4
NMTAP	30	96	0
NMTAP	30	120	7
NMTAP	30	144	6
NMTAP	30	168	5
NMTAP	30	192	2
NMTAP	30	216	3
NMTAP	30	240	4
NMTAP	30	264	5
NMTAP	30	288	6
NMTAP	30	312	7
NMTAP	30	336	0
NMTAP	30	360	1
NMTAP	31	0	3
NMTAP	31	24	4
NMTAP	31	48	5
NMTAP	31	72	6
NMTAP	31	96	0
NMTAP	31	96	7
NMTAP	31	120	1
NMTAP	31	144	2
NMTAP	31	168	3
NMTAP	31	192	0
NMTAP	31	216	1
NMTAP	31	240	2
NMTAP	31	264	3
NMTAP	31	288	1
NMTAP	31	312	2
NMTAP	31	336	3
NMTAP	31	360	4
NMTAP	32	0	7
NMTAP	32	24	6
NMTAP	32	48	5
NMTAP	32	72	4
NMTAP	32	96	6
NMTAP	32	120	5
NMTAP	32	144	4
NMTAP	32	168	3
NMTAP	32	192	0
NMTAP	32	216	1
NMTAP	32	240	2
NMTAP	32	264	3
NMHLD	32	288	1	96
NMTAP	33	0	0
NMTAP	33	24	7
NMTAP	33	48	6
NMTAP	33	72	5
NMTAP	33	96	1
NMTAP	33	120	2
NMTAP	33	144	3
NMTAP	33	168	4
NMTAP	33	192	7
NMTAP	33	216	6
NMTAP	33	240	5
NMTAP	33	264	4
NMTAP	33	288	0
NMTAP	33	312	1
NMTAP	33	336	2
NMTAP	33	360	3
NMTAP	34	0	6
NMTAP	34	24	5
NMTAP	34	48	4
NMTAP	34	72	3
NMTAP	34	96	7
NMTAP	34	120	0
NMTAP	34	144	1
NMTAP	34	168	2
NMTAP	34	192	5
NMTAP	34	216	4
NMTAP	34	240	3
NMTAP	34	264	2
NMTAP	34	288	1
NMTAP	34	312	0
NMTAP	34	336	7
NMTAP	34	360	6
NMTAP	35	0	4
NMTAP	35	24	3
NMTAP	35	48	2
NMTAP	35	72	1
NMTAP	35	96	0
NMTAP	35	96	7
NMTAP	35	120	6
NMTAP	35	144	5
NMTAP	35	168	4
NMTAP	35	192	7
NMTAP	35	216	6
NMTAP	35	240	5
NMTAP	35	264	4
NMTAP	35	288	0
NMTAP	35	312	1
NMTAP	35	336	2
NMTAP	35	360	3
NMTAP	36	0	0
NMTAP	36	32	0
NMTAP	36	64	1
NMTAP	36	96	1
NMTAP	36	128	2
NMTAP	36	160	2
NMTAP	36	192	3
NMTAP	36	224	3
NMTAP	36	256	4
NMTAP	36	288	4
NMTAP	36	320	5
NMTAP	36	352	5
NMHLD	37	0	6	192
NMHLD	37	192	5	96
NMTAP	37	288	4
NMHLD	37	336	4	240
NMTAP	38	48	7
NMSTR	38	96	7
NMSLL	38	96	7	96	192	3
NMHLD	39	0	2	96
NMHLD	39	192	1	96
NMHLD	39	192	3	96
NMTAP	40	0	0
NMSTR	40	0	2
NMSUR	40	0	2	96	192	4
EXTAP	40	144	1
EXTAP	40	240	1
NMHLD	41	0	5	192
NMHLD	41	192	4	384
NMTAP	41	288	6
NMTAP	41	336	6
NMTAP	42	48	7
NMSTR	42	96	7
NMSLL	42	96	7	96	192	3
EXHLD	43	0	1	96
NMTAP	43	96	7
NMTAP	43	144	7
NMTAP	43	240	4
NMTAP	43	240	6
NMTAP	43	288	4
NMTAP	43	288	6
NMSTR	43	336	4
NMSUR	43	336	4	96	192	2
NMSTR	43	336	6
NMSV_	43	336	6	96	192	3
NMTAP	45	0	1
NMTAP	45	96	2
NMTAP	45	192	1
NMHLD	45	192	3	384
NMTAP	45	288	1
NMTAP	45	336	1
NMTAP	46	48	0
NMSTR	46	96	0
NMSLR	46	96	0	96	192	4
NMHLD	47	0	5	96
NMHLD	47	192	4	96
NMHLD	47	192	6	96
NMSTR	48	0	5
NMSUL	48	0	5	96	192	3
NMTAP	48	0	7
EXTAP	48	144	6
EXTAP	48	240	6
NMTAP	49	0	2
NMTAP	49	0	4
NMTAP	49	96	3
NMHLD	49	192	1	384
NMTAP	49	192	3
NMTAP	49	288	3
NMTAP	49	336	3
NMTAP	50	48	2
NMSTR	50	96	2
NMSCR	50	96	2	96	96	3
CNSI_	50	288	3	0	96	6
EXHLD	51	0	3	336
NMTAP	51	96	6
NMTAP	51	144	6
NMTAP	51	240	7
NMTAP	51	288	7
NMTAP	51	336	7
NMTAP	52	48	0
NMSTR	52	96	0
NMSI_	52	96	0	96	48	3
NMTAP	52	192	2
NMHLD	53	0	3	96
NMHLD	53	0	5	672
NMHLD	53	144	3	96
NMHLD	53	288	4	96
NMHLD	54	48	6	96
NMTAP	54	192	0
NMSTR	54	288	0
NMSXR	54	288	0	96	288	2
NMTAP	55	0	4
NMTAP	55	96	4
NMTAP	55	192	4
NMSTR	55	288	4
NMSCR	55	288	4	96	192	7
NMTAP	56	0	1
NMTAP	56	96	1
NMHLD	56	192	1	960
NMTTP	56	288	7	E	0	M1
NMTTP	56	312	6	B	0	M1
NMTTP	56	336	5	B	0	M1
NMTTP	56	360	4	B	0	M1
EXHLD	57	0	3	96
NMHLD	57	144	3	96
NMHLD	57	288	2	96
NMHLD	58	48	0	96
NMTAP	58	192	7
NMTAP	58	288	5
NMTAP	59	0	4
NMTAP	59	48	5
NMTAP	59	96	6
NMTAP	59	144	7
NMTAP	59	192	7
NMTAP	59	216	6
NMTAP	59	240	5
NMTAP	59	264	4
NMTAP	59	288	3
NMTAP	59	312	2
NMTAP	59	336	1
NMTAP	59	360	0
NMTHO	60	0	0	192	C	0	M1
NMSTR	60	288	1
NMSI_	60	288	1	96	48	6
NMSTR	60	288	6
NMSI_	60	288	6	96	48	0
NMSTR	61	0	1
NMSLR	61	0	1	96	96	5
NMTAP	61	0	6
NMTAP	61	96	1
NMTAP	61	96	7
EXSTR	61	192	6
NMSI_	61	192	6	96	48	2
NMSTR	61	240	0
NMSI_	61	240	0	96	48	4
NMSTR	61	288	6
NMSCR	61	288	6	96	96	4
NMTAP	61	336	0
NMTAP	62	0	6
NMSTR	62	144	2
NMSV_	62	144	2	96	48	7
NMSTR	62	192	6
NMSI_	62	192	6	96	48	3
NMTAP	62	240	2
NMTAP	62	288	6
NMSTR	62	336	1
NMSI_	62	336	1	96	48	5
NMTAP	63	48	0
NMTAP	63	48	1
NMSTR	63	96	7
NMSCL	63	96	7	96	48	4
NMSCR	63	96	7	96	48	2
NMTAP	63	192	7
NMTAP	63	288	1
NMTAP	63	288	5
NMHLD	63	336	1	240
NMSTR	63	336	5
NMSLL	63	336	5	96	48	0
NMTAP	64	48	5
NMTAP	64	192	7
NMTAP	64	288	0
NMTAP	64	336	0
NMTAP	65	0	1
NMTAP	65	0	7
NMTAP	65	48	1
NMTAP	65	48	7
NMTAP	65	64	2
NMTAP	65	80	3
NMTAP	65	96	4
NMTAP	65	144	6
NMHLD	65	192	6	48
NMTAP	65	240	4
NMTAP	65	288	2
NMTAP	65	336	1
NMTAP	66	0	0
NMTAP	66	0	6
NMTAP	66	48	0
NMTAP	66	48	6
NMTAP	66	64	5
NMTAP	66	80	4
NMTAP	66	96	3
NMTAP	66	144	1
NMHLD	66	192	1	48
NMTAP	66	240	3
NMTAP	66	288	5
NMTAP	66	336	6
NMTAP	67	0	1
NMTAP	67	0	7
NMTAP	67	48	1
NMTAP	67	48	7
NMSTR	67	144	2
NMSI_	67	144	2	96	48	5
NMSTR	67	144	6
NMSI_	67	144	6	96	48	1
NMTAP	67	192	1
NMTAP	67	192	5
NMTAP	67	240	2
NMTAP	67	240	6
NMTAP	68	0	0
NMTAP	68	0	6
NMSTR	68	48	0
NMSI_	68	48	0	96	48	4
NMTAP	68	48	6
BRTAP	68	144	0
BRSTR	68	144	5
NMSI_	68	144	5	96	48	1
BRSTR	68	240	2
NMSI_	68	240	2	96	48	7
BRTAP	68	240	5
BRTAP	68	336	2
BRHLD	68	336	4	768
NMTTP	69	96	2	E	1	M1
NMTTP	69	108	2	B	0	M1
NMTTP	69	120	3	B	0	M1
NMTTP	69	132	4	E	0	M1
NMTTP	69	240	6	E	0	M1
NMTTP	69	252	6	B	0	M1
NMTTP	69	264	7	B	0	M1
NMTTP	69	276	0	E	0	M1
NMTAP	70	0	0
NMTAP	70	12	1
NMTAP	70	24	2
NMTAP	70	36	3
NMTAP	70	144	0
NMTAP	70	156	7
NMTAP	70	168	6
NMTAP	70	180	5
NMTAP	70	240	0
NMTAP	70	252	1
NMTAP	70	264	2
NMTAP	70	276	3
BRTAP	70	336	7
NMSTR	71	0	0
NMSV_	71	0	0	96	48	3
NMSTR	71	0	4
NMSI_	71	0	4	96	48	7
NMTAP	71	96	0
NMTAP	71	96	4
EXTAP	71	192	7
NMTAP	71	216	3
EXTAP	71	240	7
NMTAP	71	264	3
NMTAP	71	288	6
NMTAP	71	312	2
NMTAP	71	336	6
NMTAP	71	360	2
NMSTR	72	0	1
NMSI_	72	0	1	96	48	4
NMSTR	72	0	5
NMSV_	72	0	5	96	48	0
NMTAP	72	96	1
NMTAP	72	96	5
EXTAP	72	192	0
NMTAP	72	216	4
EXTAP	72	240	0
NMTAP	72	264	4
NMTAP	72	288	7
NMTAP	72	312	3
NMTAP	72	336	7
NMTAP	72	360	3
NMTAP	73	0	2
NMSTR	73	0	6
NMSI_	73	0	6	96	48	1
NMTAP	73	96	2
NMTAP	73	96	6
NMSTR	73	144	3
NMSI_	73	144	3	96	48	7
NMTAP	73	240	3
NMTAP	73	240	5
NMSTR	73	288	6
NMSI_	73	288	6	96	48	3
EXTAP	73	336	7
NMTAP	74	0	6
NMSTR	74	48	1
NMSI_	74	48	1	96	48	4
NMTAP	74	96	0
NMTAP	74	144	1
NMSTR	74	192	7
NMSUL	74	192	7	96	48	3
NMTAP	74	240	0
NMTAP	74	288	7
EXSTR	75	0	0
NMSCR	75	0	0	96	48	3
EXSTR	75	0	4
NMSCR	75	0	4	96	48	7
NMTAP	75	96	0
NMTAP	75	96	4
EXTAP	75	192	2
EXTAP	75	192	6
NMSTR	75	240	2
NMSI_	75	240	2	96	48	7
NMSTR	75	240	6
NMSI_	75	240	6	96	48	3
NMTAP	75	336	2
NMTAP	75	336	6
BRTAP	76	96	3
BRTAP	76	96	7
BRHLD	76	144	1	96
BRHLD	76	144	5	96
NMSTR	76	288	1
NMSI_	76	288	1	96	48	4
NMSTR	76	288	5
NMSI_	76	288	5	96	48	0
NMSTR	77	0	1
NMSCL	77	0	1	96	240	2
NMSTR	77	0	5
NMSCL	77	0	5	96	240	6
NMTTP	77	1	1	B	0	M1
NMTTP	77	1	2	E	0	M1
NMTTP	77	1	5	B	0	M1
NMTTP	77	1	6	E	1	M1
CNSLR	77	336	2	0	336	6
CNSLR	77	336	6	0	336	2
NMTAP	79	0	1
NMHLD	79	0	5	288
NMTAP	79	144	4
NMTAP	79	192	4
NMTAP	79	240	4
NMTAP	79	288	4
NMTAP	80	0	6
NMTAP	80	48	6
NMTAP	80	96	3
NMTAP	80	144	3
NMTAP	80	192	7
NMSTR	80	240	7
NMSLL	80	240	7	96	96	3
NMHLD	80	288	2	96
NMTAP	81	96	0
NMTAP	81	144	1
NMTAP	81	192	2
NMSTR	81	240	3
NMSLL	81	240	3	96	96	7
NMTAP	81	336	5
NMTAP	82	0	5
NMTAP	82	96	6
NMTAP	82	144	5
NMTAP	82	192	4
NMHLD	82	240	3	384
NMTAP	82	336	2
NMTAP	83	0	2
NMTAP	83	48	2
NMSTR	83	144	1
NMSI_	83	144	1	96	48	6
NMTAP	83	192	1
NMTAP	83	240	1
NMTAP	84	0	0
NMTAP	84	0	6
NMSTR	84	48	0
NMSI_	84	48	0	96	48	4
NMTAP	84	48	6
NMTAP	84	96	1
BRTAP	84	144	0
BRSTR	84	144	5
NMSI_	84	144	5	96	48	1
NMTAP	84	192	6
BRSTR	84	240	2
NMSI_	84	240	2	96	48	7
BRTAP	84	240	5
NMTAP	84	288	3
BRTAP	84	336	2
BRHLD	84	336	4	768
NMTTP	85	96	0	D	1	M1
NMTTP	85	108	7	B	0	M1
NMTTP	85	120	5	B	0	M1
NMTTP	85	132	5	D	0	M1
NMTTP	85	240	5	A	0	M1
NMTTP	85	252	4	B	0	M1
NMTTP	85	264	3	B	0	M1
NMTTP	85	276	2	A	0	M1
NMTAP	86	0	0
NMTAP	86	12	1
NMTAP	86	24	2
NMTAP	86	36	3
NMTAP	86	144	0
NMTAP	86	156	7
NMTAP	86	168	6
NMTAP	86	180	5
NMTAP	86	240	0
NMTAP	86	252	1
NMTAP	86	264	2
NMTAP	86	276	3
BRTAP	86	336	7
NMSTR	87	0	1
NMSI_	87	0	1	96	48	4
NMSTR	87	0	5
NMSI_	87	0	5	96	48	0
NMTAP	87	96	1
NMTAP	87	96	5
EXTAP	87	192	0
NMTAP	87	216	4
NMTAP	87	240	7
NMTAP	87	264	3
NMTAP	87	288	6
NMTAP	87	312	2
NMTAP	87	336	5
NMTAP	87	360	1
NMSTR	88	0	0
NMSCR	88	0	0	96	48	3
NMSTR	88	0	4
NMSCR	88	0	4	96	48	7
NMTAP	88	96	0
NMTAP	88	96	4
EXTAP	88	192	7
NMTAP	88	216	3
NMTAP	88	240	6
NMTAP	88	264	2
NMTAP	88	288	5
NMTAP	88	312	1
NMTAP	88	336	4
NMTAP	88	360	0
NMTAP	89	0	3
EXSTR	89	0	7
NMSI_	89	0	7	96	24	3
NMTAP	89	96	5
NMTAP	89	96	7
CNSI_	89	120	3	0	24	1
NMSTR	89	144	6
NMSLL	89	144	6	96	48	0
NMTAP	89	240	4
NMTAP	89	240	6
NMTAP	89	288	2
NMSTR	90	0	3
BRSCL	90	0	3	96	48	0
NMSTR	90	0	7
BRSCL	90	0	7	96	48	4
NMTAP	90	96	3
NMTAP	90	96	7
NMSTR	90	192	2
NMSV_	90	192	2	96	48	7
NMSTR	90	192	6
BRSV_	90	192	6	96	48	3
NMTAP	90	240	1
NMTAP	90	240	5
NMTAP	90	288	2
NMTAP	90	288	6
EXTAP	91	0	3
EXTAP	91	0	7
NMTAP	91	48	0
NMTAP	91	48	4
NMTAP	91	96	1
NMTAP	91	96	5
NMTAP	91	192	3
NMTAP	91	192	7
NMSTR	91	240	2
BRSV_	91	240	2	96	48	7
NMSTR	91	240	6
BRSCL	91	240	6	96	48	3
BRTAP	92	96	0
BRTAP	92	96	4
BRTAP	92	144	2
BRHLD	92	144	6	144
NMSTR	92	288	2
NMSCL	92	288	2	96	72	7
BXTAP	93	0	2
BXTAP	93	0	6
NMTAP	93	24	5
NMTAP	93	48	4
NMTAP	93	72	3
NMTAP	93	96	6
NMTAP	93	120	5
NMTAP	93	144	4
NMTAP	93	168	3
NMTAP	93	192	0
NMTAP	93	216	1
NMTAP	93	240	2
NMTAP	93	264	3
NMTAP	93	288	1
NMTAP	93	312	2
NMTAP	93	336	3
NMTAP	93	360	4
NMTAP	94	0	7
NMTAP	94	24	6
NMTAP	94	48	5
NMTAP	94	72	4
NMTAP	94	96	0
NMTAP	94	120	1
NMTAP	94	144	2
NMTAP	94	168	3
NMTAP	94	192	7
NMTAP	94	216	6
NMTAP	94	240	5
NMTAP	94	264	4
NMTAP	94	288	2
NMTAP	94	288	3
NMTAP	94	312	1
NMTAP	94	336	0
NMTAP	94	360	7
NMTAP	95	0	4
NMTAP	95	24	5
NMTAP	95	48	6
NMTAP	95	72	7
NMTAP	95	96	1
NMTAP	95	120	2
NMTAP	95	144	3
NMTAP	95	168	4
NMTAP	95	192	0
NMTAP	95	216	7
NMTAP	95	240	6
NMTAP	95	264	5
NMTAP	95	288	7
NMTAP	95	312	6
NMTAP	95	336	5
NMTAP	95	360	4
NMTAP	96	0	6
NMTAP	96	24	5
NMTAP	96	48	4
NMTAP	96	72	3
NMTAP	96	96	5
NMTAP	96	120	4
NMTAP	96	144	3
NMTAP	96	168	2
NMTAP	96	192	4
NMTAP	96	216	3
NMTAP	96	240	2
NMTAP	96	264	1
BRHLD	96	288	3	96
NMTAP	97	0	5
NMTAP	97	24	4
NMTAP	97	48	5
NMTAP	97	72	4
NMTAP	97	96	6
NMTAP	97	120	7
NMTAP	97	144	6
NMTAP	97	168	7
NMTAP	97	192	3
NMTAP	97	216	2
NMTAP	97	240	3
NMTAP	97	264	2
NMTAP	97	288	0
NMTAP	97	312	1
NMTAP	97	336	0
NMTAP	97	360	1
NMTAP	98	0	4
NMTAP	98	24	3
NMTAP	98	48	4
NMTAP	98	72	2
NMTAP	98	96	4
NMTAP	98	120	1
NMTAP	98	144	4
NMTAP	98	168	0
NMTAP	98	192	4
NMTAP	98	216	1
NMTAP	98	240	5
NMTAP	98	264	2
NMTAP	98	288	6
NMTAP	98	312	3
NMTAP	98	336	7
NMTAP	98	360	4
NMTAP	99	0	0
NMTAP	99	24	1
NMTAP	99	48	2
NMTAP	99	72	3
NMTAP	99	96	0
NMTAP	99	96	4
NMTAP	99	120	1
NMTAP	99	120	5
NMTAP	99	144	2
NMTAP	99	144	6
NMTAP	99	168	3
NMTAP	99	168	7
NMTAP	99	192	4
NMTAP	99	216	5
NMTAP	99	240	6
NMTAP	99	264	7
NMTAP	99	288	0
NMTAP	99	288	4
NMTAP	99	312	1
NMTAP	99	312	5
NMTAP	99	336	2
NMTAP	99	336	6
NMTAP	99	360	3
NMTAP	99	360	7
NMTAP	100	0	4
NMTAP	100	32	4
NMTAP	100	64	6
NMTAP	100	96	6
NMTAP	100	128	4
NMTAP	100	160	4
NMTAP	100	192	6
NMTAP	100	224	6
NMTAP	100	256	0
NMTAP	100	288	0
NMTAP	100	320	2
NMTAP	100	352	2
EXSTR	101	0	5
NMSI_	101	0	5	96	1440	1
NMSLL	101	0	5	96	1440	1

T_REC_TAP	572
T_REC_BRK	13
T_REC_XTP	16
T_REC_BXX	4
T_REC_HLD	46
T_REC_XHO	3
T_REC_BHO	7
T_REC_BXH	0
T_REC_STR	76
T_REC_BST	4
T_REC_XST	6
T_REC_XBS	0
T_REC_TTP	32
T_REC_THO	1
T_REC_SLD	84
T_REC_BSL	5
T_REC_ALL	869
T_NUM_TAP	702
T_NUM_BRK	33
T_NUM_HLD	50
T_NUM_SLD	84
T_NUM_ALL	869
T_JUDGE_TAP	723
T_JUDGE_HLD	218
T_JUDGE_SLD	89
T_JUDGE_ALL	1030
TTM_EACHPAIRS	96
TTM_SCR_TAP	351000
TTM_SCR_BRK	85800
TTM_SCR_HLD	50000
TTM_SCR_SLD	126000
TTM_SCR_ALL	612800
TTM_SCR_S	591250
TTM_SCR_SS	609500
TTM_RAT_ACV	10054

