VERSION	0.00.00	1.04.00
FES_MODE	0
BPM_DEF	191.000	191.000	191.000	191.000
MET_DEF	4	4
RESOLUTION	384
CLK_DEF	384
COMPATIBLE_CODE	MA2

BPM	0	0	191.000
MET	0	0	4	4

NMSTR	1	0	3
NMSCL	1	0	3	96	1248	4
EXTAP	5	0	3
EXTAP	5	144	3
EXHLD	5	288	2	384
EXHLD	5	288	4	96
NMTAP	6	144	4
NMTAP	6	240	3
NMTAP	6	288	3
EXTAP	7	0	4
EXTAP	7	144	4
EXHLD	7	288	3	96
EXHLD	7	288	5	384
NMTAP	8	144	3
NMTAP	8	240	4
NMTAP	8	288	4
EXTAP	9	0	2
EXTAP	9	144	2
EXHLD	9	288	1	384
EXHLD	9	288	3	96
NMTAP	10	144	3
NMTAP	10	240	2
NMTAP	10	288	2
NMTAP	11	0	2
NMTAP	11	0	3
NMTAP	11	96	3
NMTAP	11	144	3
NMTAP	11	240	4
NMSTR	11	288	4
NMSUL	11	288	4	96	288	3
NMTAP	13	0	2
NMTAP	13	0	3
NMTAP	13	96	1
NMTAP	13	96	4
NMTAP	13	192	5
NMTAP	13	240	4
NMTAP	13	288	3
NMTAP	13	288	6
NMTAP	14	0	0
NMHLD	14	0	1	144
NMTAP	14	96	3
NMTAP	14	144	3
NMTAP	14	240	0
NMTAP	14	240	6
NMTAP	14	288	0
NMTAP	14	288	6
NMTAP	15	0	4
NMTAP	15	0	5
NMTAP	15	96	3
NMTAP	15	96	6
NMTAP	15	192	2
NMTAP	15	240	3
NMTAP	15	288	1
NMTAP	15	288	4
NMHLD	16	0	6	144
NMTAP	16	0	7
NMTAP	16	96	4
NMTAP	16	144	4
NMTAP	16	240	1
NMTAP	16	240	7
NMTAP	16	288	1
NMTAP	16	288	7
NMTAP	17	0	0
NMTAP	17	0	1
NMTAP	17	96	2
NMTAP	17	96	7
NMTAP	17	192	6
NMTAP	17	240	7
NMTAP	17	288	0
NMTAP	17	288	5
NMHLD	18	0	2	96
NMTAP	18	0	3
NMTAP	18	96	0
NMTAP	18	144	0
NMTAP	18	240	3
NMTAP	18	240	5
NMTAP	18	288	3
NMTAP	18	288	5
NMTAP	19	0	6
NMTAP	19	0	7
NMTAP	19	96	2
NMTAP	19	96	4
NMTAP	19	192	1
NMTAP	19	240	0
NMTAP	19	288	2
NMTAP	19	288	7
NMHLD	20	0	1	96
NMHLD	20	96	3	96
NMHLD	20	192	4	96
NMTAP	20	288	6
BRSTR	21	0	1
NMSUR	21	0	1	96	480	4
BRSTR	21	0	6
NMSUL	21	0	6	96	480	3
NMHLD	23	0	5	96
NMTAP	23	96	4
NMHLD	23	144	4	96
NMTAP	23	240	3
NMHLD	23	288	3	96
NMTAP	24	0	2
NMHLD	24	48	2	144
NMTAP	24	144	3
NMTAP	24	192	3
NMTAP	24	288	4
NMTAP	24	288	5
NMSTR	25	0	3
NMSCL	25	0	3	96	480	4
NMTAP	25	0	4
NMTTP	25	96	0	C	1	M1
NMHLD	27	0	3	96
NMHLD	27	0	5	96
NMHLD	27	192	2	96
NMHLD	27	192	4	96
NMTAP	28	0	2
NMTAP	28	0	4
NMTAP	28	96	3
NMTAP	28	96	4
NMTAP	28	144	3
NMTAP	28	144	4
NMTAP	28	192	3
NMTAP	28	192	4
NMTAP	28	288	2
NMTAP	28	288	5
NMTAP	29	0	1
NMTAP	29	48	1
NMTAP	29	96	4
NMTAP	29	144	4
NMTAP	29	192	3
NMTAP	29	240	3
NMTAP	29	288	6
NMTAP	29	336	6
NMSTR	30	0	0
NMSI_	30	0	0	96	48	4
NMTAP	30	96	7
NMSTR	30	192	6
NMSI_	30	192	6	96	48	2
NMTAP	30	288	7
NMTAP	31	0	1
NMTAP	31	48	1
NMTAP	31	96	3
NMTAP	31	144	3
NMTAP	31	192	4
NMTAP	31	240	4
NMTAP	31	288	6
NMTAP	32	0	5
NMTAP	32	0	7
NMTAP	32	96	3
NMTAP	32	96	4
NMTAP	32	192	0
NMTAP	32	192	2
NMTAP	32	288	3
NMTAP	32	288	7
NMTAP	33	0	6
NMTAP	33	48	6
NMTAP	33	96	4
NMTAP	33	144	4
NMTAP	33	192	3
NMTAP	33	240	3
NMTAP	33	288	1
NMTAP	33	336	1
NMSTR	34	0	7
NMSI_	34	0	7	96	48	3
NMTAP	34	96	0
NMSTR	34	192	1
NMSI_	34	192	1	96	48	5
NMTAP	34	288	0
NMTAP	35	0	7
NMTAP	35	48	7
NMTAP	35	96	5
NMTAP	35	144	5
NMTAP	35	192	3
NMTAP	35	240	3
NMTAP	35	288	1
NMTTP	36	0	7	E	0	M1
NMTTP	36	64	6	E	0	M1
NMTTP	36	128	5	E	0	M1
NMTTP	36	192	3	E	0	M1
NMTTP	36	256	2	E	0	M1
NMTTP	36	320	1	E	0	M1
NMTTP	37	0	0	C	1	M1
NMHLD	39	0	2	576
NMTAP	39	144	3
NMTAP	39	192	3
NMTAP	40	0	4
NMTAP	40	96	4
NMTAP	40	192	3
NMTAP	40	288	4
NMHLD	41	0	5	576
NMTAP	41	144	3
NMTAP	41	192	3
NMTAP	42	0	4
NMTAP	42	96	4
NMTAP	42	192	3
NMTAP	42	288	2
NMHLD	43	0	1	480
NMTAP	43	144	3
NMTAP	43	192	3
NMTAP	44	0	2
NMTAP	44	96	2
NMTAP	44	192	3
NMTAP	44	192	4
NMTAP	45	0	4
NMTAP	45	96	5
NMTAP	45	192	4
NMTAP	45	192	6
NMTAP	45	336	5
NMTAP	46	0	5
NMTAP	46	96	4
NMTAP	46	192	3
NMTAP	46	192	5
NMTAP	47	0	3
NMTAP	47	96	2
NMTAP	47	192	1
NMTAP	47	192	3
NMTAP	47	336	2
NMHLD	48	0	2	144
NMTAP	48	96	3
NMTAP	48	144	3
NMTAP	48	240	2
NMTAP	48	240	3
NMTAP	48	336	4
NMTAP	49	0	4
NMTAP	49	96	5
NMTAP	49	192	4
NMTAP	49	192	6
NMTAP	49	336	6
NMTAP	50	0	6
NMTAP	50	96	5
NMTAP	50	192	4
NMTAP	50	288	3
NMTAP	51	0	2
NMTAP	51	0	4
NMTAP	51	96	2
NMTAP	51	192	1
NMTAP	51	192	3
NMTAP	51	336	2
NMTAP	52	0	2
NMTAP	52	96	3
NMTAP	52	96	4
NMTAP	52	192	2
NMTAP	52	192	5
NMTAP	53	0	0
NMTAP	53	0	6
NMTAP	53	96	1
NMTAP	53	144	1
NMTAP	53	240	0
NMTAP	53	288	0
NMTAP	54	0	7
NMTAP	54	48	7
NMTAP	54	144	6
NMTAP	54	192	6
NMTAP	54	288	0
NMTAP	54	288	6
EXSTR	55	0	7
NMSV_	55	0	7	96	192	0
NMSTR	56	0	1
NMSUR	56	0	1	96	192	6
NMTAP	57	0	5
NMTAP	57	0	7
NMTAP	57	96	6
NMTAP	57	144	6
NMTAP	57	240	7
NMTAP	57	288	7
NMTAP	58	0	0
NMTAP	58	48	0
NMTAP	58	144	1
NMTAP	58	192	1
NMTAP	58	288	1
NMTAP	58	288	7
EXSTR	59	0	0
NMSF_	59	0	0	96	192	4
NMTAP	60	0	2
NMTAP	60	0	6
NMTAP	60	288	1
NMTAP	60	288	7
NMSTR	61	0	0
NMSI_	61	0	0	96	48	4
NMSTR	61	96	6
NMSI_	61	96	6	96	48	3
NMSTR	61	192	1
NMSI_	61	192	1	96	48	5
NMTAP	61	288	7
NMTAP	62	0	4
NMTAP	62	0	6
NMTAP	62	96	4
NMTAP	62	96	6
NMTAP	62	192	0
NMTAP	62	240	0
NMTAP	62	288	1
NMTAP	62	288	7
NMSTR	63	0	6
NMSI_	63	0	6	96	48	3
NMTAP	63	96	2
NMTAP	63	144	2
NMTAP	63	240	0
NMTAP	63	240	4
NMTAP	63	288	0
NMTAP	63	288	4
NMSTR	64	0	1
NMSI_	64	0	1	96	48	4
NMTAP	64	96	5
NMTAP	64	144	5
NMTAP	64	240	3
NMTAP	64	240	7
NMTAP	64	288	3
NMTAP	64	288	7
NMTAP	65	0	5
NMTAP	65	48	5
NMTAP	65	96	4
NMTAP	65	96	6
NMTAP	65	192	2
NMTAP	65	240	3
NMTAP	65	288	2
NMTAP	65	288	4
NMTAP	66	0	1
NMTAP	66	48	1
NMTAP	66	96	0
NMTAP	66	96	2
NMTAP	66	192	6
NMTAP	66	240	7
NMTAP	66	288	0
NMTAP	66	288	6
NMTAP	67	0	1
NMTAP	67	48	1
NMTAP	67	96	3
NMTAP	67	144	3
NMTAP	67	192	5
NMTAP	67	240	5
NMTAP	67	288	7
NMTAP	68	0	0
NMTAP	68	0	7
NMTAP	68	48	0
NMTAP	68	48	7
NMTAP	68	144	4
NMTAP	68	144	6
NMTAP	68	240	3
NMTAP	68	240	4
BXSTR	68	336	1
NMSCR	68	336	1	96	48	4
NMTAP	68	336	3
BXSTR	69	96	5
NMSCR	69	96	5	96	48	0
BXSTR	69	240	2
NMSI_	69	240	2	96	48	5
BXSTR	70	0	6
NMSI_	70	0	6	96	48	1
EXTAP	70	144	0
EXTAP	70	240	0
NMHLD	70	336	0	96
NMHLD	70	336	7	96
NMTAP	71	96	1
NMTAP	71	96	3
NMTAP	71	192	5
NMTAP	71	240	4
NMTAP	71	288	3
NMTAP	71	288	6
NMTAP	72	0	4
NMTAP	72	0	5
NMTAP	72	96	6
NMTAP	72	96	7
NMTAP	72	192	0
NMTAP	72	192	1
NMTAP	72	288	2
NMTAP	72	288	3
NMSTR	73	0	2
NMSI_	73	0	2	96	48	7
NMTAP	73	96	4
NMTAP	73	192	6
NMTAP	73	240	6
NMTAP	73	288	0
NMTAP	73	288	5
NMSTR	74	0	1
NMSI_	74	0	1	96	48	4
NMTAP	74	96	7
NMTAP	74	192	5
NMTAP	74	240	5
NMTAP	74	288	3
NMTAP	74	288	6
NMTAP	75	0	1
NMTAP	75	48	1
NMTAP	75	96	3
NMTAP	75	144	3
NMTAP	75	192	4
NMTAP	75	240	4
NMSTR	75	288	6
NMSLL	75	288	6	96	192	0
EXSTR	76	288	1
NMSCR	76	288	1	96	576	7
NMTTP	77	0	0	C	1	M1
NMTTP	79	0	0	C	0	M1
NMTTP	79	144	1	B	0	M1
NMTTP	79	144	2	B	0	M1
NMTTP	79	240	5	B	0	M1
NMTTP	79	240	6	B	0	M1
NMTTP	80	0	4	E	0	M1
NMTTP	80	144	2	B	0	M1
NMTTP	80	144	5	B	0	M1
NMTTP	81	0	2	E	0	M1
NMTTP	81	48	2	B	0	M1
NMTTP	81	96	3	B	0	M1
NMTTP	81	144	4	E	0	M1
NMTTP	82	0	6	E	0	M1
NMTTP	82	48	5	B	0	M1
NMTTP	82	96	4	B	0	M1
NMTTP	82	144	4	E	0	M1
NMTTP	83	0	1	B	0	M1
NMTTP	83	48	2	B	0	M1
NMTTP	83	96	6	B	0	M1
NMTTP	83	144	5	B	0	M1
NMTTP	83	192	0	C	0	M1
NMTAP	84	0	0
NMTAP	84	0	7
NMTAP	84	48	0
NMTAP	84	48	7
NMTAP	84	144	1
NMTAP	84	144	3
NMTAP	84	240	0
NMTAP	84	240	7
NMTAP	84	336	4
BXSTR	84	336	6
NMSCR	84	336	6	96	48	1
BXSTR	85	96	2
NMSCR	85	96	2	96	48	5
BXSTR	85	240	6
NMSI_	85	240	6	96	48	3
BXSTR	86	0	2
NMSI_	86	0	2	96	48	7
NMTAP	86	144	5
NMTAP	86	240	6
NMTAP	86	240	7
NMTAP	86	336	0
NMTAP	86	336	7
NMTAP	87	48	1
NMTAP	87	96	0
NMTAP	87	96	1
NMTAP	87	192	6
NMTAP	87	240	7
NMTAP	87	288	0
NMTAP	87	288	5
NMTAP	88	0	6
NMTAP	88	0	7
NMTAP	88	96	4
NMTAP	88	96	5
NMTAP	88	192	2
NMTAP	88	192	3
NMTAP	88	288	0
NMTAP	88	288	1
NMTAP	89	0	0
NMSTR	89	0	1
NMSI_	89	0	1	96	48	4
NMTAP	89	96	7
NMTAP	89	192	5
NMTAP	89	240	5
NMTAP	89	288	3
NMTAP	89	288	6
NMSTR	90	0	2
NMSI_	90	0	2	96	48	7
NMTAP	90	0	3
NMTAP	90	96	4
NMTAP	90	192	6
NMTAP	90	240	6
NMTAP	90	288	0
NMTAP	90	288	5
NMTAP	91	0	2
NMTAP	91	48	2
NMTAP	91	96	0
NMTAP	91	144	0
NMTAP	91	192	7
NMTAP	91	240	7
NMHLD	91	288	5	288
NMHLD	92	0	2	192
NMSTR	93	0	1
NMSI_	93	0	1	96	48	5
NMSTR	93	96	0
NMSI_	93	96	0	96	48	4
NMSTR	93	192	7
NMSI_	93	192	7	96	48	3
NMSTR	93	288	6
NMSI_	93	288	6	96	48	2
NMSTR	94	0	1
NMSI_	94	0	1	96	48	5
NMSTR	94	96	0
NMSI_	94	96	0	96	48	4
NMSTR	94	192	7
NMSI_	94	192	7	96	48	3
NMSTR	94	288	6
NMSI_	94	288	6	96	48	2
NMSTR	95	0	1
NMSI_	95	0	1	96	48	5
NMSTR	95	96	0
NMSI_	95	96	0	96	48	4
NMSTR	95	192	7
NMSI_	95	192	7	96	48	3
NMSTR	95	288	6
NMSI_	95	288	6	96	48	2
NMTAP	96	0	1
NMTAP	96	96	1
NMTAP	96	192	2
NMTAP	96	192	3
NMTAP	96	288	4
NMTAP	96	288	5
NMSTR	97	0	6
NMSI_	97	0	6	96	48	2
NMSTR	97	96	7
NMSI_	97	96	7	96	48	3
NMSTR	97	192	0
NMSI_	97	192	0	96	48	4
NMSTR	97	288	1
NMSI_	97	288	1	96	48	5
NMSTR	98	0	6
NMSI_	98	0	6	96	48	2
NMSTR	98	96	7
NMSI_	98	96	7	96	48	3
NMSTR	98	192	0
NMSI_	98	192	0	96	48	4
NMSTR	98	288	1
NMSI_	98	288	1	96	48	5
NMSTR	99	0	6
NMSI_	99	0	6	96	48	2
NMSTR	99	96	7
NMSI_	99	96	7	96	48	3
NMSTR	99	192	0
NMSI_	99	192	0	96	48	4
NMTAP	99	288	1
EXHLD	100	0	1	64
EXHLD	100	64	2	64
EXHLD	100	128	3	64
EXHLD	100	192	4	64
EXHLD	100	256	5	64
EXHLD	100	320	6	64
BRSTR	101	0	7
NMSI_	101	0	7	96	672	1
CNSLR	103	0	1	0	768	7

T_REC_TAP	350
T_REC_BRK	0
T_REC_XTP	8
T_REC_BXX	0
T_REC_HLD	22
T_REC_XHO	12
T_REC_BHO	0
T_REC_BXH	0
T_REC_STR	41
T_REC_BST	3
T_REC_XST	3
T_REC_XBS	8
T_REC_TTP	30
T_REC_THO	0
T_REC_SLD	55
T_REC_BSL	0
T_REC_ALL	532
T_NUM_TAP	432
T_NUM_BRK	11
T_NUM_HLD	34
T_NUM_SLD	55
T_NUM_ALL	532
T_JUDGE_TAP	443
T_JUDGE_HLD	124
T_JUDGE_SLD	55
T_JUDGE_ALL	622
TTM_EACHPAIRS	99
TTM_SCR_TAP	216000
TTM_SCR_BRK	28600
TTM_SCR_HLD	34000
TTM_SCR_SLD	82500
TTM_SCR_ALL	361100
TTM_SCR_S	349200
TTM_SCR_SS	360000
TTM_RAT_ACV	10030

