VERSION	0.00.00	1.04.00
FES_MODE	0
BPM_DEF	130.000	130.000	130.000	130.000
MET_DEF	4	4
RESOLUTION	384
CLK_DEF	384
COMPATIBLE_CODE	MA2

BPM	0	0	130.000
MET	0	0	4	4

NMSTR	1	192	3
NMSI_	1	192	3	96	48	0
NMSTR	1	192	4
NMSI_	1	192	4	96	48	7
BXTAP	1	288	3
BXTAP	1	288	4
NMSTR	2	0	1
NMSCR	2	0	1	96	576	5
NMTAP	2	96	5
NMTAP	2	288	5
NMTAP	3	96	6
NMHLD	3	288	6	96
NMSTR	4	0	4
NMSCL	4	0	4	96	192	1
NMTAP	4	96	7
NMTAP	4	288	7
BXHLD	4	336	0	72
BXTAP	4	336	7
NMTAP	5	24	6
NMTAP	5	48	7
NMTAP	5	72	5
NMTAP	5	96	0
NMTAP	5	120	4
NMTAP	5	144	1
NMTAP	5	168	3
NMTAP	5	216	1
NMTAP	5	240	0
NMTAP	5	264	2
NMTAP	5	288	7
NMTAP	5	336	3
NMTAP	5	336	5
NMHLD	6	0	5	48
NMTAP	6	48	4
NMHLD	6	96	5	48
NMTAP	6	144	6
NMTAP	6	192	5
NMTAP	6	216	4
NMTAP	6	264	3
NMTAP	6	264	6
NMTAP	6	312	4
NMTAP	6	336	5
NMHLD	7	0	1	48
NMTAP	7	48	3
NMTAP	7	96	5
NMTAP	7	120	4
NMTAP	7	168	1
NMTAP	7	192	3
NMTAP	7	216	2
NMTAP	7	264	3
NMTAP	7	264	5
NMTAP	7	288	3
NMTAP	7	288	5
NMTAP	7	336	6
NMHLD	8	0	2	48
NMTAP	8	48	3
NMHLD	8	96	2	48
NMTAP	8	144	1
NMSTR	8	192	2
NMSLR	8	192	2	96	48	0
NMTAP	8	216	3
NMTAP	8	264	3
NMTAP	8	288	2
BRTAP	8	336	6
NMTAP	9	24	6
NMTAP	9	48	7
NMTAP	9	72	5
NMTAP	9	96	0
NMTAP	9	120	4
NMTAP	9	144	1
NMTAP	9	168	3
NMTAP	9	216	1
NMTAP	9	240	0
NMTAP	9	264	2
NMTAP	9	288	7
NMTAP	9	336	3
NMTAP	9	336	5
BRTAP	10	0	6
EXTAP	10	48	1
EXTAP	10	64	2
EXTAP	10	80	3
BRTAP	10	96	6
EXTAP	10	144	2
EXTAP	10	160	3
EXTAP	10	176	4
BRTAP	10	192	7
EXTAP	10	240	2
EXTAP	10	256	3
EXTAP	10	272	4
BRTAP	10	288	7
EXTAP	10	336	3
NMTAP	10	352	4
NMTAP	10	368	5
BRTAP	11	0	0
EXTAP	11	48	2
NMTAP	11	64	3
NMTAP	11	80	4
BRTAP	11	96	7
EXTAP	11	144	3
NMTAP	11	160	4
NMTAP	11	176	5
BRTAP	11	192	0
EXTAP	11	240	2
NMTAP	11	256	3
NMTAP	11	272	4
BRTAP	11	288	7
NMTAP	11	336	2
NMTAP	11	336	6
NMTAP	12	0	1
NMTAP	12	24	1
NMTAP	12	48	7
NMTAP	12	72	7
NMTAP	12	96	0
NMTAP	12	120	0
NMTAP	12	144	6
NMTAP	12	168	6
NMTAP	12	192	7
NMTAP	12	216	7
NMTAP	12	240	5
NMTAP	12	264	5
EXTAP	12	288	0
EXTAP	12	288	6
EXTAP	12	320	0
EXTAP	12	320	6
EXTAP	12	352	0
EXTAP	12	352	6
EXTAP	13	0	0
EXTAP	13	0	6
NMTAP	13	48	7
NMTAP	13	96	1
NMTAP	13	96	5
NMSTR	13	144	7
NMSI_	13	144	7	96	48	3
NMTAP	13	168	2
NMTAP	13	216	2
NMTAP	13	240	7
NMTTP	13	288	0	A	0	M1
NMTTP	13	288	1	A	0	M1
NMTTP	13	288	1	D	1	M1
NMHLD	14	0	5	96
NMTTP	14	48	0	B	0	M1
NMTTP	14	48	0	E	0	M1
NMTTP	14	48	7	B	0	M1
NMHLD	14	96	3	96
NMTTP	14	144	0	B	0	M1
NMTTP	14	144	0	E	0	M1
NMTTP	14	144	7	B	0	M1
NMHLD	14	192	5	96
NMTTP	14	240	0	B	0	M1
NMTTP	14	240	0	E	0	M1
NMTTP	14	240	7	B	0	M1
NMHLD	14	288	3	96
NMTTP	14	336	0	B	0	M1
NMTTP	14	336	0	E	0	M1
NMTTP	14	336	7	B	0	M1
NMHLD	15	0	5	96
NMTTP	15	48	0	B	0	M1
NMTTP	15	48	1	B	0	M1
NMTTP	15	48	1	E	0	M1
NMHLD	15	96	3	96
NMTTP	15	144	0	B	0	M1
NMTTP	15	144	1	B	0	M1
NMTTP	15	144	1	E	0	M1
NMHLD	15	192	5	96
NMTTP	15	240	0	B	0	M1
NMTTP	15	240	1	B	0	M1
NMTTP	15	240	1	E	0	M1
NMHLD	15	288	3	48
NMTTP	15	336	0	B	0	M1
NMTTP	15	336	0	E	0	M1
NMTTP	15	336	7	B	0	M1
NMTAP	16	0	2
NMTAP	16	0	4
NMTAP	16	48	3
NMTAP	16	72	3
NMHLD	16	96	5	48
NMTAP	16	144	3
NMTAP	16	168	4
NMTAP	16	192	2
NMTAP	16	216	3
NMTAP	16	264	0
NMSTR	16	288	0
NMSUL	16	288	0	96	144	5
NMSUR	16	288	0	96	144	3
NMTAP	16	336	1
NMTAP	16	336	7
NMTAP	17	240	3
NMTAP	17	240	5
NMTAP	17	288	1
NMTAP	17	288	7
NMHLD	18	0	2	96
NMTTP	18	48	0	B	0	M1
NMTTP	18	48	0	E	0	M1
NMTTP	18	48	7	B	0	M1
NMHLD	18	96	4	96
NMTTP	18	144	0	B	0	M1
NMTTP	18	144	0	E	0	M1
NMTTP	18	144	7	B	0	M1
NMHLD	18	192	2	96
NMTTP	18	240	0	B	0	M1
NMTTP	18	240	0	E	0	M1
NMTTP	18	240	7	B	0	M1
NMHLD	18	288	4	96
NMTTP	18	336	0	B	0	M1
NMTTP	18	336	0	E	0	M1
NMTTP	18	336	7	B	0	M1
NMHLD	19	0	2	96
NMTTP	19	48	6	B	0	M1
NMTTP	19	48	7	B	0	M1
NMTTP	19	48	7	E	0	M1
NMHLD	19	96	4	96
NMTTP	19	144	6	B	0	M1
NMTTP	19	144	7	B	0	M1
NMTTP	19	144	7	E	0	M1
NMHLD	19	192	2	96
NMTTP	19	240	6	B	0	M1
NMTTP	19	240	7	B	0	M1
NMTTP	19	240	7	E	0	M1
NMHLD	19	288	4	48
NMTTP	19	336	0	B	0	M1
NMTTP	19	336	0	E	0	M1
NMTTP	19	336	7	B	0	M1
NMTAP	20	0	3
NMTAP	20	0	5
NMTAP	20	48	4
NMTAP	20	72	4
NMHLD	20	96	2	48
NMTAP	20	144	4
NMTAP	20	168	3
NMTAP	20	192	5
NMTAP	20	216	4
NMTAP	20	264	7
NMTAP	20	288	7
NMTAP	20	336	0
NMTAP	20	336	6
NMTAP	21	0	5
NMTAP	21	0	7
NMTAP	21	48	4
NMTAP	21	48	6
NMTAP	21	96	3
NMTAP	21	96	5
NMTAP	21	144	2
NMTAP	21	144	4
NMTAP	21	192	3
NMTAP	21	192	5
NMTAP	21	224	3
NMTAP	21	224	5
NMTAP	21	256	3
NMTAP	21	256	5
NMTAP	21	288	2
NMTAP	21	288	6
NMTAP	22	0	3
NMSTR	22	0	5
NMSI_	22	0	5	96	48	7
NMTAP	22	48	4
NMSTR	22	96	3
NMSI_	22	96	3	96	48	1
NMTAP	22	144	4
NMSTR	22	192	5
NMSI_	22	192	5	96	48	7
NMTAP	22	240	4
NMSTR	22	288	3
NMSCL	22	288	3	96	48	1
NMTAP	22	336	4
NMSTR	23	0	5
NMSCR	23	0	5	96	48	7
NMTAP	23	48	4
NMSTR	23	96	3
NMSCL	23	96	3	96	48	1
NMTAP	23	144	4
NMSTR	23	192	5
NMSCR	23	192	5	96	48	7
NMTAP	23	240	4
NMTAP	23	288	3
NMTAP	23	336	4
NMTAP	24	0	4
NMTAP	24	0	5
NMTAP	24	48	3
NMTAP	24	72	3
NMSTR	24	96	7
NMSLL	24	96	7	96	48	3
NMTAP	24	144	2
NMTAP	24	168	2
NMTAP	24	192	7
NMTAP	24	216	1
NMTAP	24	264	0
NMSTR	24	288	0
NMSUL	24	288	0	96	144	5
NMSUR	24	288	0	96	144	3
NMTAP	24	336	1
NMTAP	24	336	7
NMTAP	25	240	2
NMTAP	25	240	4
NMTAP	25	288	0
NMTAP	25	288	6
NMSTR	26	0	2
NMSI_	26	0	2	96	48	0
NMTAP	26	0	4
NMTAP	26	48	3
NMSTR	26	96	4
NMSI_	26	96	4	96	48	6
NMTAP	26	144	3
NMSTR	26	192	2
NMSI_	26	192	2	96	48	0
NMTAP	26	240	3
NMSTR	26	288	4
NMSCR	26	288	4	96	48	6
NMTAP	26	336	3
NMSTR	27	0	2
NMSCL	27	0	2	96	48	0
NMTAP	27	48	3
NMSTR	27	96	4
NMSCR	27	96	4	96	48	6
NMTAP	27	144	3
NMSTR	27	192	2
NMSCL	27	192	2	96	48	0
NMTAP	27	240	3
NMTAP	27	288	4
NMTAP	27	336	3
NMTAP	28	0	2
NMTAP	28	0	3
NMTAP	28	48	4
NMTAP	28	72	4
NMSTR	28	96	0
NMSLR	28	96	0	96	48	4
NMTAP	28	144	5
NMTAP	28	168	5
NMTAP	28	192	0
NMTAP	28	216	6
NMTAP	28	264	7
NMHLD	28	288	7	48
NMTAP	28	336	0
NMHLD	29	0	1	48
NMHLD	29	48	7	48
NMHLD	29	96	5	48
NMTAP	29	144	3
NMTTP	29	192	1	B	0	M1
NMTTP	29	224	7	B	0	M1
NMTTP	29	256	3	B	0	M1
NMTTP	29	288	5	E	0	M1
NMTTP	29	320	2	E	0	M1
NMTTP	29	352	6	E	0	M1
EXSTR	30	0	1
NMSXR	30	0	1	96	384	6
NMTTP	30	96	3	A	0	M1
NMTTP	30	96	4	E	0	M1
NMTTP	30	96	4	A	0	M1
NMTTP	30	96	4	D	0	M1
NMTAP	30	192	2
NMTTP	30	288	3	A	0	M1
NMTTP	30	288	4	E	0	M1
NMTTP	30	288	4	A	0	M1
NMTTP	30	288	4	D	0	M1
NMTAP	30	360	5
NMTAP	31	0	5
NMTTP	31	96	3	A	0	M1
NMTTP	31	96	4	E	0	M1
NMTTP	31	96	4	A	0	M1
NMTTP	31	96	4	D	0	M1
BRTAP	31	192	5
BRTAP	31	192	7
BRTAP	31	264	0
BRTAP	31	264	7
BRTAP	31	336	0
BRTAP	31	336	2
NMTAP	32	0	2
NMSTR	32	0	6
NMSCR	32	0	6	96	192	1
NMTTP	32	96	3	A	0	M1
NMTTP	32	96	4	E	0	M1
NMTTP	32	96	4	A	0	M1
NMTTP	32	96	4	D	0	M1
NMTAP	32	192	5
NMTTP	32	288	3	A	0	M1
NMTTP	32	288	4	E	0	M1
NMTTP	32	288	4	A	0	M1
NMTTP	32	288	4	D	0	M1
EXTAP	32	336	2
NMTAP	33	24	0
NMTAP	33	24	2
NMTAP	33	72	5
NMTAP	33	72	7
NMTAP	33	120	0
NMTAP	33	120	2
NMTAP	33	168	4
NMTAP	33	168	6
NMTAP	33	216	1
NMTAP	33	216	3
NMTAP	33	264	4
NMTAP	33	288	4
NMTAP	33	336	3
NMTAP	33	336	5
NMTAP	34	0	2
NMSTR	34	0	6
NMSXL	34	0	6	96	384	1
NMTTP	34	96	3	A	0	M1
NMTTP	34	96	4	E	0	M1
NMTTP	34	96	4	A	0	M1
NMTTP	34	96	4	D	0	M1
NMTAP	34	192	5
NMTTP	34	288	3	A	0	M1
NMTTP	34	288	4	E	0	M1
NMTTP	34	288	4	A	0	M1
NMTTP	34	288	4	D	0	M1
NMTAP	34	360	2
NMTAP	35	0	2
NMTTP	35	96	3	A	0	M1
NMTTP	35	96	4	E	0	M1
NMTTP	35	96	4	A	0	M1
NMTTP	35	96	4	D	0	M1
BRTAP	35	192	0
BRTAP	35	192	2
BRTAP	35	264	0
BRTAP	35	264	7
BRTAP	35	336	5
BRTAP	35	336	7
NMSTR	36	0	1
NMSCL	36	0	1	96	192	6
NMTAP	36	0	5
NMTTP	36	96	3	A	0	M1
NMTTP	36	96	4	E	0	M1
NMTTP	36	96	4	A	0	M1
NMTTP	36	96	4	D	0	M1
NMTAP	36	192	2
NMTTP	36	288	3	A	0	M1
NMTTP	36	288	4	E	0	M1
NMTTP	36	288	4	A	0	M1
NMTTP	36	288	4	D	0	M1
EXTAP	36	336	5
NMTAP	37	48	4
NMTAP	37	48	6
NMHLD	37	96	4	64
NMHLD	37	96	6	64
EXTAP	37	192	3
EXTAP	37	192	7
EXTAP	37	224	2
EXTAP	37	224	6
EXTAP	37	256	1
EXTAP	37	256	5
NMTAP	37	288	0
NMTAP	37	288	4
NMTAP	37	320	0
NMTAP	37	320	4
NMTAP	37	352	0
NMTAP	37	352	4
NMSTR	38	0	5
NMSUR	38	0	5	96	48	1
NMSTR	38	48	1
NMSV_	38	48	1	96	48	4
NMTAP	38	96	5
NMTAP	38	192	2
NMTAP	38	216	2
NMTAP	38	240	3
NMTAP	38	264	3
NMTTP	38	288	0	A	0	M1
NMTTP	38	288	1	A	0	M1
NMTTP	38	288	1	D	0	M1
NMTTP	38	336	4	A	0	M1
NMTTP	38	336	5	A	0	M1
NMTTP	38	336	5	D	0	M1
NMSTR	39	0	2
NMSUL	39	0	2	96	48	6
NMSTR	39	48	6
NMSV_	39	48	6	96	48	3
NMTAP	39	96	2
NMTAP	39	192	5
NMTAP	39	216	5
NMTAP	39	240	4
NMTAP	39	264	4
NMTTP	39	288	6	A	0	M1
NMTTP	39	288	7	A	0	M1
NMTTP	39	288	7	D	0	M1
NMTTP	39	336	2	A	0	M1
NMTTP	39	336	3	A	0	M1
NMTTP	39	336	3	D	0	M1
NMSTR	40	0	5
NMSLR	40	0	5	96	48	1
NMSTR	40	48	1
NMSV_	40	48	1	96	48	4
NMTAP	40	96	5
NMTAP	40	192	2
NMTAP	40	216	2
NMTAP	40	264	6
NMTAP	40	288	0
NMTAP	40	312	7
NMTAP	40	336	1
NMTAP	41	0	1
NMTAP	41	24	0
NMTAP	41	48	2
NMTAP	41	72	7
NMTAP	41	96	1
NMTAP	41	120	0
NMTAP	41	144	2
NMTAP	41	168	7
NMHLD	41	192	1	96
NMTTP	41	240	1	E	0	M1
NMTTP	41	256	0	E	0	M1
NMTTP	41	272	7	E	0	M1
NMTTP	41	288	6	E	0	M1
NMTTP	41	304	5	E	0	M1
NMTTP	41	320	4	E	0	M1
NMTTP	41	336	3	E	0	M1
NMTTP	41	352	2	E	0	M1
NMTTP	41	368	1	E	0	M1
NMTTP	42	0	0	E	1	M1
NMTAP	42	48	2
NMTAP	42	72	2
NMHLD	42	96	4	48
NMTAP	42	144	3
NMTAP	42	168	3
NMTAP	42	192	6
NMTAP	42	224	4
NMTAP	42	256	5
NMTAP	42	288	1
NMTAP	42	320	3
NMTAP	42	352	2
EXTAP	43	0	7
NMTAP	43	24	3
NMTAP	43	48	5
NMTAP	43	72	1
EXTAP	43	96	7
NMTAP	43	120	3
NMTAP	43	144	5
NMTAP	43	168	1
EXTAP	43	192	6
NMTAP	43	216	2
NMTAP	43	240	4
NMTAP	43	264	0
EXTAP	43	288	6
NMTAP	43	312	2
NMTAP	43	336	4
NMTAP	43	360	0
NMTAP	44	24	1
NMTAP	44	48	7
NMTAP	44	72	1
NMTAP	44	96	7
NMTAP	44	120	1
EXTAP	44	144	7
EXTAP	44	160	6
EXTAP	44	176	5
NMTAP	44	192	2
NMTAP	44	216	2
EXTAP	44	240	0
EXTAP	44	256	7
EXTAP	44	272	6
NMTAP	44	288	3
NMTAP	44	312	3
NMTAP	44	336	7
NMTAP	45	24	1
NMTAP	45	24	3
NMTAP	45	72	4
NMTAP	45	72	6
NMTAP	45	120	1
NMTAP	45	120	3
NMTAP	45	168	4
NMTAP	45	168	6
NMHLD	45	216	3	72
NMTAP	45	264	7
NMTAP	45	288	7
NMTAP	45	336	1
NMTAP	45	336	5
NMTAP	46	24	4
NMTAP	46	24	5
NMTAP	46	72	0
NMTAP	46	72	1
NMTAP	46	120	2
NMTAP	46	120	3
NMTAP	46	168	6
NMTAP	46	168	7
NMTAP	46	216	4
NMTAP	46	240	4
NMTAP	46	264	0
NMTAP	46	288	0
NMTAP	46	336	2
NMTAP	46	336	6
NMHLD	47	0	1	168
NMHLD	47	0	7	168
EXTAP	47	176	2
EXTAP	47	176	6
EXTAP	47	184	3
EXTAP	47	184	5
EXSTR	47	192	4
NMSF_	47	192	4	96	48	0
BRTAP	47	288	4
NMTAP	48	0	2
NMTAP	48	24	3
NMTAP	48	48	1
NMTAP	48	96	4
NMTAP	48	96	6
NMTAP	48	120	4
NMTAP	48	120	6
NMTAP	48	168	0
NMSTR	48	192	7
NMSV_	48	192	7	96	48	2
NMSLL	48	192	7	96	48	3
NMTAP	48	216	1
NMTAP	48	288	7
NMTAP	49	0	3
NMTAP	49	0	5
NMTAP	49	48	4
NMTAP	49	96	1
NMTAP	49	96	3
NMTAP	49	120	1
NMTAP	49	120	3
NMTAP	49	168	7
NMSTR	49	192	0
NMSV_	49	192	0	96	48	5
NMSLR	49	192	0	96	48	4
NMTAP	49	216	6
NMTAP	49	288	0
NMSTR	50	0	3
NMSUL	50	0	3	96	48	7
NMSTR	50	0	7
NMSUL	50	0	7	96	48	3
NMTAP	50	24	3
NMTAP	50	24	7
BRSTR	50	96	3
NMSCR	50	96	3	96	48	6
BRSTR	50	96	7
NMSCR	50	96	7	96	48	2
NMTAP	50	288	1
NMTAP	50	288	5
NMTAP	50	336	1
NMTAP	50	336	5
NMTAP	51	0	1
NMTAP	51	0	5
NMTAP	51	48	4
NMTAP	51	96	1
NMTAP	51	96	3
NMTAP	51	120	1
NMTAP	51	120	3
NMTAP	51	168	7
NMSTR	51	192	0
NMSCR	51	192	0	96	48	4
NMSV_	51	192	0	96	48	5
NMTAP	51	216	6
NMTAP	51	288	0
NMTAP	52	0	2
NMTAP	52	24	3
NMTAP	52	48	1
NMTAP	52	96	4
NMTAP	52	96	6
NMTAP	52	120	4
NMTAP	52	120	6
NMTAP	52	168	0
NMSTR	52	192	7
NMSCL	52	192	7	96	48	3
NMSV_	52	192	7	96	48	2
NMTAP	52	216	1
NMTAP	52	288	7
NMTAP	53	0	3
NMTAP	53	0	5
NMTAP	53	48	6
NMTAP	53	96	1
NMTAP	53	96	3
NMTAP	53	120	1
NMTAP	53	120	3
NMTAP	53	168	7
NMSTR	53	192	0
NMSSR	53	192	0	96	48	4
NMTAP	53	216	6
NMTAP	53	288	0
BRTAP	53	336	7
NMTAP	54	24	6
NMTAP	54	48	7
NMTAP	54	72	5
NMTAP	54	96	0
NMTAP	54	120	4
NMTAP	54	144	1
NMTAP	54	168	3
NMTAP	54	216	1
NMTAP	54	240	0
NMTAP	54	264	2
NMTAP	54	288	7
NMTAP	54	336	3
NMTAP	54	336	5
NMSTR	55	0	5
NMSCL	55	0	5	96	96	2
NMSTR	55	96	2
NMSCL	55	96	2	96	192	4
NMTTP	55	192	6	B	0	M1
NMSTR	55	288	4
NMSXL	55	288	4	96	240	0
NMTAP	56	0	2
NMSTR	56	96	1
NMSI_	56	96	1	96	48	5
NMTAP	56	144	1
NMTAP	56	192	1
NMTAP	56	288	4
NMTAP	56	288	6
NMSTR	57	0	2
NMSCR	57	0	2	96	96	5
NMSTR	57	96	5
NMSCR	57	96	5	96	192	3
NMTTP	57	192	1	B	0	M1
NMSTR	57	288	3
NMSXR	57	288	3	96	240	7
NMTAP	58	0	5
NMSTR	58	96	6
NMSI_	58	96	6	96	48	2
NMTAP	58	144	6
NMTAP	58	192	6
NMTAP	58	288	1
NMTAP	58	288	3
NMSTR	59	0	7
NMSCR	59	0	7	96	96	2
NMSTR	59	96	2
NMSCL	59	96	2	96	192	4
NMTTP	59	192	5	B	0	M1
NMSTR	59	288	4
NMSXL	59	288	4	96	240	0
NMTAP	60	0	2
NMSTR	60	96	1
NMSI_	60	96	1	96	48	5
NMTAP	60	144	1
NMTAP	60	192	1
NMTAP	60	288	4
NMTAP	60	288	6
NMSTR	61	0	0
NMSCL	61	0	0	96	96	5
NMSTR	61	96	5
NMSCR	61	96	5	96	192	3
NMTTP	61	192	2	B	0	M1
NMSTR	61	288	3
NMSUL	61	288	3	96	192	0
NMSXL	61	288	3	96	192	7
NMTAP	62	288	3
NMTAP	62	288	6
NMHLD	63	0	5	672
NMTTP	63	96	4	B	0	M1
NMTTP	63	96	5	B	0	M1
NMTTP	63	288	6	B	0	M1
NMTTP	63	288	7	B	0	M1
NMTTP	64	96	4	B	0	M1
NMTTP	64	96	5	B	0	M1
NMTTP	64	288	6	B	0	M1
NMTTP	64	288	7	B	0	M1
NMSTR	65	0	2
NMSV_	65	0	2	96	192	7
NMTTP	65	96	6	E	0	M1
NMTTP	65	96	6	D	0	M1
NMTTP	65	288	4	E	0	M1
NMTTP	65	288	4	D	0	M1
CNSCR	65	288	7	0	192	1
NMTTP	66	96	6	E	0	M1
NMTTP	66	96	6	D	0	M1
NMTAP	66	192	7
NMTAP	66	216	7
NMTAP	66	264	0
NMTAP	66	264	6
NMTAP	66	312	1
NMTAP	66	312	5
NMTAP	66	360	3
NMHLD	67	0	3	336
NMTAP	67	72	2
NMTAP	67	96	2
NMTAP	67	168	1
NMTAP	67	192	1
NMTAP	67	264	0
NMTAP	67	288	0
NMTAP	67	336	7
NMHLD	68	0	6	336
NMTAP	68	72	5
NMTAP	68	96	5
NMTAP	68	168	4
NMTAP	68	192	4
NMTAP	68	264	3
NMTAP	68	288	3
NMTAP	68	336	2
NMTAP	69	0	1
NMTAP	69	32	3
NMTAP	69	64	2
NMTAP	69	96	6
NMTAP	69	128	4
NMTAP	69	160	5
NMTAP	69	192	2
NMTAP	69	216	4
NMTAP	69	240	3
NMTAP	69	264	5
NMTAP	69	288	0
NMTAP	69	304	1
NMTAP	69	320	2
NMTAP	69	336	4
NMTAP	69	352	5
NMTAP	69	368	6
NMTAP	70	0	1
NMTAP	70	24	1
NMTAP	70	48	3
NMTAP	70	72	3
NMTAP	70	96	2
NMTAP	70	120	2
NMTAP	70	144	4
NMTAP	70	168	4
NMSTR	70	192	3
NMSF_	70	192	3	96	48	7
NMTAP	70	204	4
NMTAP	70	216	5
NMTAP	70	228	6
NMTAP	70	240	7
NMTAP	70	252	0
NMTAP	70	264	1
NMTAP	70	276	2
BXTAP	70	288	3
NMSTR	71	0	0
NMSCR	71	0	0	96	48	3
NMTAP	71	48	5
NMTAP	71	96	0
NMTAP	71	96	6
NMTAP	71	144	7
NMHLD	71	168	7	72
NMTAP	71	192	5
NMHLD	71	240	1	48
NMSTR	71	288	3
BRSV_	71	288	3	96	48	0
NMTAP	71	336	2
NMSTR	72	0	3
NMSV_	72	0	3	96	48	6
NMTAP	72	0	5
NMTAP	72	48	4
NMTAP	72	96	1
NMTAP	72	96	3
NMTAP	72	144	2
NMTAP	72	192	4
NMHLD	72	192	7	72
NMTAP	72	240	3
NMTAP	72	264	3
NMTAP	72	312	2
NMTAP	72	336	0
NMTAP	72	360	1
NMSTR	73	0	7
NMSCL	73	0	7	96	48	4
NMTAP	73	48	2
NMTAP	73	96	1
NMTAP	73	96	7
NMTAP	73	144	0
NMHLD	73	168	0	72
NMTAP	73	192	2
NMHLD	73	240	6	48
NMTAP	73	288	2
BRTAP	73	336	0
BRTAP	73	336	7
NMTAP	74	24	6
NMTAP	74	48	7
NMTAP	74	72	5
NMTAP	74	96	0
NMTAP	74	120	4
NMTAP	74	144	1
NMTAP	74	168	3
NMTAP	74	216	1
NMTAP	74	240	0
NMTAP	74	264	2
NMTAP	74	288	7
NMTAP	74	312	3
NMTAP	74	336	6
NMTAP	74	360	4
NMSTR	75	0	7
NMSCL	75	0	7	96	48	4
NMTAP	75	48	2
NMTAP	75	96	1
NMTAP	75	96	7
NMTAP	75	144	0
NMHLD	75	168	0	72
NMTAP	75	192	2
NMHLD	75	240	6	48
NMSTR	75	288	4
BRSV_	75	288	4	96	48	7
NMTAP	75	336	5
NMTAP	76	0	2
NMSTR	76	0	4
NMSV_	76	0	4	96	48	1
NMTAP	76	48	3
NMTAP	76	96	4
NMTAP	76	96	6
NMTAP	76	144	5
NMHLD	76	192	0	72
NMTAP	76	192	3
NMTAP	76	240	4
NMTAP	76	264	4
NMTAP	76	312	5
NMTAP	76	336	7
NMTAP	76	360	6
NMSTR	77	0	0
NMSCR	77	0	0	96	48	3
NMTAP	77	48	5
NMTAP	77	96	0
NMTAP	77	96	6
NMTAP	77	144	7
NMHLD	77	168	7	72
NMTAP	77	192	5
NMHLD	77	240	1	48
NMTAP	77	288	5
BRTAP	77	336	0
BRTAP	77	336	7
NMTAP	78	24	6
NMTAP	78	48	4
NMTAP	78	72	5
NMTAP	78	96	3
NMTAP	78	120	4
NMTAP	78	144	2
NMHLD	78	168	3	48
NMTAP	78	216	1
NMTAP	78	240	3
NMTAP	78	264	2
NMTAP	78	288	4
NMTAP	78	312	3
NMTAP	78	336	5
NMTAP	78	360	4
NMTAP	79	0	6
NMTAP	79	24	7
NMTAP	79	48	6
NMTAP	79	72	0
NMTAP	79	96	6
NMTAP	79	120	1
NMTAP	79	144	6
NMHLD	79	168	2	48
NMTAP	79	216	7
NMTAP	79	240	3
NMTAP	79	264	5
NMTAP	79	288	1
NMTAP	79	336	3
NMTAP	79	336	4
BRTAP	80	0	6
NMTAP	80	48	3
NMTAP	80	64	4
NMTAP	80	80	3
BRTAP	80	96	6
NMTAP	80	144	2
NMTAP	80	160	4
NMTAP	80	176	2
BRTAP	80	192	7
NMTAP	80	240	3
NMTAP	80	256	4
NMTAP	80	272	3
BRTAP	80	288	7
NMTAP	80	336	2
NMTAP	80	352	4
NMTAP	80	368	2
BRTAP	81	0	6
NMTAP	81	48	2
NMTAP	81	64	3
NMTAP	81	80	2
BRTAP	81	96	7
NMTAP	81	144	3
NMTAP	81	160	4
NMTAP	81	176	3
BRTAP	81	192	6
NMTAP	81	240	2
NMTAP	81	256	3
NMTAP	81	272	2
BRTAP	81	288	7
NMTAP	81	336	2
NMTAP	81	336	5
NMTAP	82	0	6
NMTAP	82	24	6
NMTAP	82	48	7
NMTAP	82	72	7
NMTAP	82	96	0
NMTAP	82	120	0
NMTAP	82	144	1
NMTAP	82	168	1
NMTAP	82	192	0
NMTAP	82	216	0
NMTAP	82	240	1
NMTAP	82	256	2
NMTAP	82	272	3
EXTAP	82	288	0
EXTAP	82	288	4
EXTAP	82	320	0
EXTAP	82	320	4
EXTAP	82	352	3
EXTAP	82	352	7
EXTAP	83	0	2
EXTAP	83	0	6
NMTAP	83	48	1
NMTAP	83	96	2
NMTAP	83	96	6
NMSTR	83	144	5
NMSI_	83	144	5	96	48	2
NMTAP	83	168	3
NMTAP	83	216	3
NMTAP	83	240	5
NMTTP	83	288	0	A	0	M1
NMTTP	83	288	1	A	0	M1
NMTTP	83	288	1	D	1	M1

T_REC_TAP	554
T_REC_BRK	35
T_REC_XTP	51
T_REC_BXX	4
T_REC_HLD	50
T_REC_XHO	0
T_REC_BHO	0
T_REC_BXH	1
T_REC_STR	66
T_REC_BST	2
T_REC_XST	2
T_REC_XBS	0
T_REC_TTP	140
T_REC_THO	0
T_REC_SLD	75
T_REC_BSL	2
T_REC_ALL	982
T_NUM_TAP	813
T_NUM_BRK	44
T_NUM_HLD	50
T_NUM_SLD	75
T_NUM_ALL	982
T_JUDGE_TAP	854
T_JUDGE_HLD	108
T_JUDGE_SLD	77
T_JUDGE_ALL	1039
TTM_EACHPAIRS	115
TTM_SCR_TAP	406500
TTM_SCR_BRK	114400
TTM_SCR_HLD	50000
TTM_SCR_SLD	112500
TTM_SCR_ALL	683400
TTM_SCR_S	658650
TTM_SCR_SS	679000
TTM_RAT_ACV	10064

