VERSION	0.00.00	1.04.00
FES_MODE	0
BPM_DEF	130.000	130.000	130.000	130.000
MET_DEF	4	4
RESOLUTION	384
CLK_DEF	384
COMPATIBLE_CODE	MA2

BPM	0	0	130.000
MET	0	0	4	4

NMTAP	1	0	3
NMTAP	1	48	3
NMTAP	1	96	4
NMSTR	1	192	2
BRSI_	1	192	2	96	48	5
NMTAP	1	192	5
EXHLD	2	0	6	576
NMTAP	2	96	4
NMTAP	2	192	4
NMTAP	2	288	4
NMTAP	3	0	5
NMTAP	3	96	5
NMTAP	3	192	7
NMTAP	3	288	0
NMTAP	3	288	6
NMHLD	4	0	1	288
NMTAP	4	96	3
NMTAP	4	192	3
NMTAP	4	288	2
EXSTR	4	336	2
NMSCL	4	336	2	96	144	5
EXTAP	5	288	0
EXTAP	5	288	7
NMTAP	6	0	5
NMTAP	6	48	5
NMTAP	6	96	4
NMTAP	6	96	6
NMTAP	6	192	1
NMTAP	6	240	1
NMTAP	6	288	3
NMTAP	6	336	3
NMTAP	7	0	2
NMTAP	7	96	3
NMTAP	7	96	5
NMTAP	7	192	7
NMTAP	7	240	7
NMTAP	7	288	0
NMTAP	7	288	6
NMTAP	8	0	2
NMTAP	8	48	2
NMTAP	8	96	1
NMTAP	8	96	3
NMTAP	8	192	5
NMTAP	8	240	5
NMTAP	8	288	4
NMTAP	8	288	6
EXTAP	8	336	4
EXSTR	8	336	6
NMSCL	8	336	6	96	144	1
NMTAP	9	288	0
NMTAP	9	288	7
NMHLD	10	0	6	96
NMHLD	10	96	5	96
NMHLD	10	192	4	96
NMTAP	10	288	3
NMHLD	11	0	1	96
NMHLD	11	96	2	96
NMHLD	11	192	3	96
NMTAP	11	288	4
NMTAP	12	0	3
NMTAP	12	0	5
NMTAP	12	48	3
NMTAP	12	48	5
NMTAP	12	96	2
NMTAP	12	96	6
NMTAP	12	144	2
NMTAP	12	144	6
NMTAP	12	192	1
NMTAP	12	192	7
NMTAP	12	240	1
NMTAP	12	240	7
NMTAP	12	288	0
NMTAP	12	320	0
NMTAP	12	352	0
EXSTR	13	0	0
NMSSL	13	0	0	96	96	4
BRTAP	13	288	2
BRTAP	13	288	6
NMTAP	14	0	1
NMTAP	14	48	1
NMTAP	14	96	0
NMTAP	14	192	2
NMTAP	14	240	2
NMTAP	14	288	3
NMTAP	15	0	5
NMTAP	15	48	5
NMTAP	15	96	4
NMHLD	15	192	6	96
NMTAP	15	288	7
NMSTR	16	0	5
NMSI_	16	0	5	96	48	3
NMSTR	16	96	1
NMSI_	16	96	1	96	48	7
NMSTR	16	192	6
NMSI_	16	192	6	96	48	2
NMHLD	17	0	1	96
NMTAP	17	96	3
NMTAP	17	192	4
NMTAP	17	240	4
NMTAP	17	288	3
NMTAP	17	288	5
NMTAP	18	0	6
NMTAP	18	48	6
NMTAP	18	96	7
NMTAP	18	192	5
NMTAP	18	240	5
NMTAP	18	288	4
NMTAP	19	0	2
NMTAP	19	48	2
NMTAP	19	96	3
NMTAP	19	144	3
NMTAP	19	192	0
NMTAP	19	240	0
NMTAP	19	288	1
NMTAP	19	288	7
NMSTR	20	0	2
NMSI_	20	0	2	96	48	4
NMSTR	20	96	6
NMSI_	20	96	6	96	48	0
NMSTR	20	192	1
NMSI_	20	192	1	96	48	5
NMTAP	21	0	7
EXTAP	21	96	1
EXTAP	21	96	5
NMTAP	21	192	0
NMTAP	21	224	0
NMTAP	21	256	0
EXTAP	21	288	1
EXTAP	21	288	7
NMTAP	22	0	2
NMTAP	22	0	5
NMTAP	22	96	3
NMTAP	22	96	6
NMTAP	22	144	3
NMTAP	22	144	6
NMTAP	22	240	5
NMTAP	22	288	4
NMTAP	22	336	3
NMTAP	23	0	2
NMTAP	23	96	1
NMTAP	23	96	4
NMTAP	23	144	1
NMTAP	23	144	4
NMTAP	23	240	3
NMTAP	23	288	2
NMTAP	23	336	2
NMTAP	23	336	3
NMTAP	24	48	2
NMTAP	24	96	2
NMTAP	24	144	0
NMTAP	24	192	0
NMTAP	24	240	7
NMTAP	24	288	7
NMTAP	24	336	5
NMTAP	25	0	5
NMTAP	25	96	3
NMTAP	25	96	6
NMTAP	25	144	3
NMTAP	25	144	6
NMTAP	25	240	2
NMTAP	25	288	2
NMTAP	25	336	3
NMTAP	26	0	0
NMTAP	26	96	1
NMTAP	26	96	4
NMTAP	26	144	1
NMTAP	26	144	4
NMTAP	26	240	2
NMTAP	26	288	3
NMTAP	26	336	4
NMHLD	27	0	5	72
NMHLD	27	72	7	72
NMHLD	27	144	0	72
NMHLD	27	216	2	72
NMTAP	27	288	3
NMTAP	27	336	3
NMTAP	28	48	1
NMTAP	28	96	0
NMTAP	28	144	7
NMHLD	28	192	6	96
NMTAP	28	288	4
NMTAP	29	0	2
NMTAP	29	0	3
BRTAP	29	96	0
BRTAP	29	96	1
NMTAP	29	192	7
NMTAP	29	224	7
NMTAP	29	256	7
EXTAP	29	288	0
EXTAP	29	288	6
EXHLD	30	0	1	480
NMTTP	30	96	3	B	0	M1
NMTTP	30	96	4	E	0	M1
NMTTP	30	192	7	B	0	M1
NMTTP	30	288	3	B	0	M1
NMTTP	30	288	4	E	0	M1
NMTTP	31	0	7	B	0	M1
NMTTP	31	96	3	B	0	M1
NMTTP	31	96	4	E	0	M1
EXTAP	31	192	2
EXTAP	31	192	7
EXTAP	31	264	0
EXTAP	31	264	1
EXTAP	31	336	7
NMHLD	32	0	7	288
NMTTP	32	96	4	B	0	M1
NMTTP	32	96	4	E	0	M1
NMTTP	32	192	0	B	0	M1
NMTTP	32	288	4	B	0	M1
NMTTP	32	288	4	E	0	M1
EXTAP	33	24	1
EXTAP	33	24	5
EXTAP	33	72	1
EXTAP	33	72	5
EXTAP	33	120	0
EXTAP	33	120	6
EXSTR	33	168	0
NMSCR	33	168	0	96	48	3
EXSTR	33	168	6
NMSCL	33	168	6	96	48	3
EXHLD	34	0	6	480
NMTTP	34	96	4	B	0	M1
NMTTP	34	96	4	E	0	M1
NMTTP	34	192	0	B	0	M1
NMTTP	34	288	4	B	0	M1
NMTTP	34	288	4	E	0	M1
NMTTP	35	0	0	B	0	M1
NMTTP	35	96	4	B	0	M1
NMTTP	35	96	4	E	0	M1
EXTAP	35	192	0
EXTAP	35	192	5
EXTAP	35	264	6
EXTAP	35	264	7
EXTAP	35	336	0
NMHLD	36	0	0	192
NMTTP	36	96	3	B	0	M1
NMTTP	36	96	4	E	0	M1
NMTTP	36	192	7	B	0	M1
NMTAP	36	288	1
NMTAP	36	288	4
NMTAP	37	48	2
NMTAP	37	48	3
BRTAP	37	96	1
BRTAP	37	96	4
NMTAP	37	192	6
NMTAP	37	192	7
NMTAP	37	224	6
NMTAP	37	224	7
NMTAP	37	256	6
NMTAP	37	256	7
BXTAP	37	288	0
BXTAP	37	288	5
NMTAP	38	0	1
NMTAP	38	48	1
NMTAP	38	96	3
NMTAP	38	144	3
NMSTR	38	192	2
NMSCR	38	192	2	96	48	5
NMTAP	39	0	6
NMTAP	39	48	6
NMTAP	39	96	4
NMTAP	39	144	4
NMSTR	39	192	5
NMSCL	39	192	5	96	48	2
NMTAP	40	0	1
NMTAP	40	48	1
NMTAP	40	96	7
NMTAP	40	144	0
NMTAP	40	192	6
NMTAP	40	240	7
NMTAP	40	288	5
NMTAP	40	336	5
NMTAP	41	0	4
NMTAP	41	96	2
NMTAP	41	96	3
NMHLD	41	192	0	96
NMHLD	41	192	5	96
NMTAP	42	0	2
NMTAP	42	24	3
NMTAP	42	48	2
NMTAP	42	96	3
NMTAP	42	96	4
NMTAP	42	192	4
NMTAP	42	192	5
NMTAP	42	288	6
NMTAP	42	288	7
NMTAP	43	0	5
NMTAP	43	24	4
NMTAP	43	48	5
NMTAP	43	96	3
NMTAP	43	96	4
NMTAP	43	192	2
NMTAP	43	192	3
NMTAP	43	288	0
NMTAP	43	288	1
NMTAP	44	0	6
NMTAP	44	24	7
NMTAP	44	48	6
NMTAP	44	96	0
NMTAP	44	96	7
NMTAP	44	192	1
NMTAP	44	216	0
NMTAP	44	240	1
NMTAP	44	288	0
NMTAP	44	288	7
NMTAP	44	336	0
NMTAP	44	336	7
EXTAP	45	24	4
EXTAP	45	24	5
NMTAP	45	72	4
NMTAP	45	72	5
EXTAP	45	120	6
EXTAP	45	120	7
NMSTR	45	168	6
NMSI_	45	168	6	96	48	3
NMSTR	45	168	7
NMSI_	45	168	7	96	48	2
EXTAP	46	24	2
EXTAP	46	24	3
NMTAP	46	72	2
NMTAP	46	72	3
EXTAP	46	120	0
EXTAP	46	120	1
NMSTR	46	168	0
NMSI_	46	168	0	96	48	5
NMSTR	46	168	1
NMSI_	46	168	1	96	48	4
BRSTR	47	0	0
BRSCR	47	0	0	96	144	6
BRTAP	47	0	6
NMTAP	48	0	5
NMTAP	48	0	7
NMTAP	48	48	0
NMTAP	48	96	1
NMTAP	48	144	2
NMTAP	48	192	3
NMTAP	48	192	4
NMTAP	48	240	5
NMTAP	48	288	6
NMTAP	48	288	7
NMTAP	49	0	0
NMTAP	49	0	2
NMTAP	49	48	7
NMTAP	49	96	6
NMTAP	49	144	5
NMTAP	49	192	3
NMTAP	49	192	4
NMTAP	49	240	2
NMTAP	49	288	0
NMTAP	49	288	1
EXTAP	49	336	0
EXTAP	49	336	1
EXTAP	50	24	4
EXTAP	50	24	5
NMTAP	50	120	0
NMTAP	50	144	7
NMTAP	50	168	0
NMTAP	50	216	1
NMTAP	50	216	6
NMTAP	50	264	1
NMTAP	50	264	6
EXTAP	50	312	0
EXTAP	50	336	0
NMTAP	51	0	7
NMTAP	51	48	6
NMTAP	51	96	5
NMTAP	51	144	4
NMTAP	51	192	2
NMTAP	51	192	3
NMTAP	51	240	0
NMTAP	51	240	1
NMTAP	51	288	2
NMTAP	51	288	7
NMTAP	52	0	0
NMTAP	52	0	6
NMTAP	52	48	1
NMTAP	52	96	2
NMTAP	52	144	3
NMTAP	52	192	4
NMTAP	52	192	5
NMTAP	52	240	6
NMTAP	52	240	7
NMTAP	52	288	0
NMTAP	52	288	5
NMTAP	53	0	0
NMTAP	53	0	1
NMTAP	53	48	7
NMTAP	53	96	6
NMTAP	53	144	5
NMTAP	53	192	3
NMTAP	53	192	4
NMTAP	53	288	1
NMTAP	53	288	6
BXTAP	53	336	1
BXTAP	53	336	6
EXTAP	54	24	2
EXTAP	54	24	5
NMTAP	54	72	3
NMTAP	54	96	4
NMTAP	54	120	3
NMTAP	54	168	1
NMTAP	54	168	6
NMTAP	54	216	1
NMTAP	54	216	6
NMSTR	54	264	0
BRSF_	54	264	0	96	72	4
NMTAP	54	264	7
NMHLD	55	192	2	192
NMTAP	55	288	0
NMHLD	56	0	3	192
NMTAP	56	96	0
NMHLD	56	192	2	192
NMTAP	56	288	0
NMHLD	57	0	5	192
NMTAP	57	96	7
NMHLD	57	192	4	192
NMTAP	57	288	7
NMHLD	58	0	5	192
NMTAP	58	96	7
NMHLD	58	192	4	192
NMTAP	58	288	7
NMSTR	59	0	5
NMSI_	59	0	5	96	48	7
NMTAP	59	96	4
NMSTR	59	192	4
NMSI_	59	192	4	96	48	0
NMTAP	59	288	7
NMSTR	60	0	7
NMSI_	60	0	7	96	48	5
NMTAP	60	96	0
NMSTR	60	192	0
NMSI_	60	192	0	96	48	2
NMTAP	60	288	3
NMSTR	61	0	3
NMSI_	61	0	3	96	48	7
NMTAP	61	96	2
NMSTR	61	192	2
NMSI_	61	192	2	96	48	0
NMTAP	61	288	5
NMTAP	62	0	6
NMSTR	62	96	0
NMSI_	62	96	0	96	48	4
NMSTR	62	96	7
NMSI_	62	96	7	96	48	3
BXTAP	62	288	1
BXTAP	62	288	6
NMHLD	63	0	5	768
NMTAP	63	96	4
NMTAP	63	288	4
NMTAP	64	96	3
NMTAP	64	288	3
NMHLD	65	0	2	576
NMTAP	65	96	3
NMTAP	65	288	3
NMHLD	66	96	3	96
EXTAP	66	216	2
EXTAP	66	216	3
EXTAP	66	264	2
EXTAP	66	264	3
BXTAP	66	312	1
BXTAP	66	312	4
EXTAP	66	360	2
EXTAP	67	0	3
NMTAP	67	72	2
NMTAP	67	96	3
NMTAP	67	168	2
NMTAP	67	192	3
NMTAP	67	264	2
NMTAP	67	288	3
NMTAP	68	0	0
NMTAP	68	0	7
NMTAP	68	72	5
NMTAP	68	96	4
NMTAP	68	168	5
NMTAP	68	192	4
NMTAP	68	264	5
NMTAP	68	288	4
EXTAP	69	0	6
NMTAP	69	32	6
NMTAP	69	64	6
EXTAP	69	96	0
NMTAP	69	128	0
NMTAP	69	160	0
EXTAP	69	192	4
NMTAP	69	224	4
NMTAP	69	256	4
EXSTR	69	288	3
NMSCR	69	288	3	96	192	2
NMTTP	70	192	0	C	0	M1
EXTAP	70	288	0
EXSTR	70	288	7
BRSI_	70	288	7	96	48	3
NMTAP	71	96	2
NMTAP	71	96	4
NMTAP	71	144	1
NMTAP	71	168	0
NMTAP	71	192	1
NMTAP	71	240	2
NMTAP	71	240	7
NMTAP	71	288	2
NMTAP	71	288	7
NMHLD	72	0	6	48
NMHLD	72	0	7	48
EXTAP	72	72	6
EXTAP	72	72	7
EXTAP	72	120	0
EXTAP	72	120	7
EXSTR	72	168	0
NMSI_	72	168	0	96	48	3
EXSTR	72	168	1
NMSI_	72	168	1	96	48	4
NMTAP	73	0	7
NMTAP	73	48	0
NMTAP	73	96	1
NMTAP	73	144	2
NMTAP	73	192	3
NMTAP	73	240	4
NMTAP	73	288	5
BRTAP	73	336	1
BRTAP	73	336	6
EXTAP	74	24	2
EXTAP	74	24	5
NMTAP	74	72	3
NMTAP	74	96	4
NMTAP	74	120	3
NMTAP	74	168	1
NMTAP	74	168	6
NMTAP	74	216	1
NMTAP	74	216	6
NMSTR	74	264	0
NMSI_	74	264	0	96	48	4
NMTAP	74	264	7
NMTAP	75	96	3
NMTAP	75	96	5
NMTAP	75	144	6
NMTAP	75	168	7
NMTAP	75	192	6
NMTAP	75	240	0
NMTAP	75	240	5
NMTAP	75	288	0
NMTAP	75	288	5
NMHLD	76	0	0	48
NMHLD	76	0	1	48
EXTAP	76	72	0
EXTAP	76	72	1
EXTAP	76	120	0
EXTAP	76	120	7
EXSTR	76	168	6
NMSI_	76	168	6	96	48	3
EXSTR	76	168	7
NMSI_	76	168	7	96	48	4
NMTAP	77	0	0
NMTAP	77	48	7
NMTAP	77	96	6
NMTAP	77	144	5
NMTAP	77	192	4
NMTAP	77	240	3
NMTAP	77	288	2
BRTAP	77	336	1
BRTAP	77	336	6
EXTAP	78	24	2
EXTAP	78	24	4
NMTAP	78	72	1
NMTAP	78	96	0
NMTAP	78	120	1
NMTAP	78	168	0
NMTAP	78	168	1
NMTAP	78	216	2
NMTAP	78	216	3
NMTAP	78	264	4
NMTAP	78	264	5
EXTAP	78	312	6
EXTAP	78	312	7
EXTAP	78	336	6
EXTAP	78	336	7
EXTAP	79	24	3
EXTAP	79	24	5
NMTAP	79	72	6
NMTAP	79	96	7
NMTAP	79	120	6
NMTAP	79	168	6
NMTAP	79	168	7
NMTAP	79	216	4
NMTAP	79	216	5
NMTAP	79	264	2
NMTAP	79	264	3
EXTAP	79	312	0
EXTAP	79	312	1
EXTAP	79	336	0
EXTAP	79	336	1
EXHLD	80	0	2	48
NMHLD	80	96	1	48
NMHLD	80	96	3	48
EXHLD	80	192	5	48
NMHLD	80	288	4	48
NMHLD	80	288	6	48
BRHLD	81	0	1	48
BRHLD	81	96	0	48
BRHLD	81	96	2	48
BRHLD	81	192	6	48
BRHLD	81	288	5	48
BRHLD	81	288	7	48
NMTAP	82	0	0
NMTAP	82	48	1
NMTAP	82	96	2
NMTAP	82	144	3
NMTAP	82	192	3
NMTAP	82	192	4
EXTAP	82	288	1
EXTAP	82	288	6
EXTAP	82	320	1
EXTAP	82	320	6
EXTAP	82	352	1
EXTAP	82	352	6
BXSTR	83	0	0
NMSSL	83	0	0	96	96	4
BXTAP	83	0	7
NMTTP	83	288	0	B	0	M1
NMTTP	83	288	0	E	0	M1
NMTTP	83	288	7	B	0	M1

T_REC_TAP	374
T_REC_BRK	11
T_REC_XTP	79
T_REC_BXX	9
T_REC_HLD	36
T_REC_XHO	5
T_REC_BHO	6
T_REC_BXH	0
T_REC_STR	23
T_REC_BST	1
T_REC_XST	11
T_REC_XBS	1
T_REC_TTP	28
T_REC_THO	0
T_REC_SLD	32
T_REC_BSL	4
T_REC_ALL	620
T_NUM_TAP	515
T_NUM_BRK	32
T_NUM_HLD	41
T_NUM_SLD	32
T_NUM_ALL	620
T_JUDGE_TAP	537
T_JUDGE_HLD	152
T_JUDGE_SLD	36
T_JUDGE_ALL	725
TTM_EACHPAIRS	142
TTM_SCR_TAP	257500
TTM_SCR_BRK	83200
TTM_SCR_HLD	41000
TTM_SCR_SLD	48000
TTM_SCR_ALL	429700
TTM_SCR_S	413750
TTM_SCR_SS	426500
TTM_RAT_ACV	10075

