VERSION	0.00.00	1.04.00
FES_MODE	0
BPM_DEF	276.000	276.000	370.000	276.000
MET_DEF	4	4
RESOLUTION	384
CLK_DEF	384
COMPATIBLE_CODE	MA2

BPM	0	0	276.000
BPM	106	0	300.000
BPM	114	0	320.000
BPM	118	0	340.000
BPM	122	0	350.000
BPM	124	0	360.000
BPM	126	0	370.000
BPM	132	0	276.000
MET	0	0	4	4
MET	34	0	4	3
MET	40	0	4	4

NMTAP	2	0	1
NMTAP	2	48	3
NMTAP	2	144	3
NMTAP	2	192	1
NMTAP	2	288	6
NMTAP	2	336	4
NMTAP	3	48	4
NMTAP	3	96	6
NMTTP	3	192	5	E	0	M1
NMTTP	3	288	3	E	0	M1
NMTAP	4	0	2
NMTAP	4	48	3
NMTAP	4	144	3
NMTAP	4	192	1
NMTAP	4	288	5
NMTAP	4	336	4
NMTAP	5	48	4
NMTAP	5	96	6
NMTTP	5	192	5	E	0	M1
NMTTP	5	192	7	E	0	M1
NMTTP	5	288	1	E	0	M1
NMTTP	5	288	3	E	0	M1
NMTAP	6	0	1
NMTAP	6	48	3
NMTAP	6	144	3
NMTAP	6	192	2
NMTAP	6	288	6
NMTAP	6	336	4
NMTAP	7	48	4
NMTAP	7	96	5
EXTAP	7	192	0
EXTAP	7	192	7
EXTAP	7	288	0
EXTAP	7	288	7
NMTAP	8	0	1
NMTAP	8	0	6
NMTAP	8	48	1
NMTAP	8	48	6
NMHLD	8	144	5	96
NMTAP	8	240	3
NMTAP	8	288	3
NMTAP	9	0	4
NMTAP	9	0	6
NMTAP	9	96	1
NMTAP	9	96	3
BRTAP	9	192	0
BRTAP	9	192	6
NMSTR	10	0	4
NMSCR	10	0	4	96	48	6
EXTAP	10	96	2
EXSTR	10	192	0
NMSI_	10	192	0	96	48	4
EXSTR	10	192	1
NMSI_	10	192	1	96	48	3
NMSTR	11	0	7
NMSUL	11	0	7	96	48	2
NMTAP	11	96	2
BRTAP	11	192	0
BRTAP	11	288	1
BRTAP	11	288	7
NMHLD	12	0	4	96
NMSTR	12	0	5
NMSI_	12	0	5	96	48	7
NMSTR	12	192	0
NMSF_	12	192	0	96	48	4
EXTAP	13	0	2
EXTAP	13	0	6
NMSTR	13	96	1
BRSCR	13	96	1	96	96	4
NMSTR	13	96	7
BRSCL	13	96	7	96	96	4
NMTAP	14	0	5
NMTAP	14	48	4
NMTAP	14	96	6
NMTAP	14	144	1
NMTAP	14	192	3
NMTAP	14	240	2
NMTAP	14	288	6
NMTAP	14	336	7
NMTAP	15	0	6
NMTAP	15	48	1
NMTAP	15	96	0
NMTAP	15	144	1
EXTAP	15	192	7
EXTAP	15	240	7
EXTAP	15	288	0
EXTAP	15	336	0
EXSTR	16	0	6
NMSUR	16	0	6	96	144	4
EXSTR	16	0	7
NMSLR	16	0	7	96	144	4
NMTAP	17	0	3
NMTAP	17	0	5
NMTAP	17	96	2
NMTAP	17	96	4
BRTAP	17	192	1
BRTAP	17	192	5
NMSTR	18	0	6
NMSCL	18	0	6	96	288	2
NMTAP	18	192	1
NMSTR	19	0	1
NMSCR	19	0	1	96	288	5
NMTAP	19	192	6
NMSTR	20	0	6
NMSCL	20	0	6	96	96	5
NMTAP	20	192	1
CNSV_	20	192	5	0	192	4
NMTAP	21	0	1
CNSCL	21	0	4	0	192	2
NMTAP	21	192	1
NMHLD	22	0	5	384
NMTAP	22	192	7
NMHLD	23	0	2	384
NMTAP	23	192	0
NMTAP	24	0	4
NMSTR	24	96	5
NMSCR	24	96	5	96	96	7
NMTAP	24	192	3
EXTAP	25	0	4
EXTAP	25	48	3
EXTAP	25	96	2
EXTAP	25	144	1
EXHLD	25	192	0	96
EXHLD	25	192	4	96
NMTAP	26	0	1
NMTAP	26	96	2
NMTAP	26	96	3
NMTAP	26	192	6
NMTAP	26	288	4
NMTAP	26	288	5
NMSTR	27	0	2
NMSCL	27	0	2	96	96	0
NMTAP	27	96	3
NMSTR	27	192	5
NMSCR	27	192	5	96	96	7
NMTAP	27	288	4
NMSTR	28	0	3
NMSXR	28	0	3	96	288	6
NMTAP	28	96	7
NMTAP	28	192	7
NMTAP	28	288	7
NMTAP	29	0	7
NMSTR	29	96	7
BRSF_	29	96	7	96	96	3
NMSTR	30	0	5
NMSCL	30	0	5	96	96	2
NMTAP	30	96	2
NMSTR	30	192	1
NMSCL	30	192	1	96	96	6
NMTAP	30	288	6
NMSTR	31	0	5
NMSI_	31	0	5	96	96	0
NMTAP	31	96	0
NMTAP	31	192	1
NMTAP	31	288	2
NMTAP	32	0	3
NMTAP	32	0	4
NMTAP	32	96	4
NMTAP	32	96	5
NMSTR	32	192	5
NMSUL	32	192	5	96	288	2
NMSTR	32	192	6
NMSXL	32	192	6	96	288	1
EXTAP	33	288	0
EXHLD	34	0	0	288
NMTAP	34	96	3
NMTAP	34	192	4
NMTAP	34	288	5
NMHLD	35	0	6	480
NMTTP	35	192	4	E	0	M1
NMTTP	35	288	3	E	0	M1
NMTTP	36	0	2	E	0	M1
NMTTP	36	96	1	E	0	M1
NMTAP	37	0	0
NMTAP	37	0	6
NMSTR	37	96	0
NMSI_	37	96	0	96	48	4
NMTAP	37	96	6
NMTAP	37	288	5
NMTAP	38	0	3
NMSTR	38	0	5
NMSXL	38	0	5	96	384	2
NMTAP	38	192	4
NMTAP	38	288	4
NMTAP	39	96	3
NMTAP	39	288	0
NMTAP	39	288	6
NMSTR	40	0	1
NMSI_	40	0	1	96	48	3
NMSTR	40	0	5
NMSI_	40	0	5	96	48	3
NMTAP	40	192	0
NMTAP	40	192	6
NMTAP	40	288	1
NMTAP	40	288	7
NMSTR	41	0	2
NMSCR	41	0	2	96	48	4
NMSTR	41	0	6
NMSCL	41	0	6	96	48	4
NMTAP	41	192	1
NMTAP	41	192	7
NMSTR	41	288	0
NMSLR	41	288	0	96	96	4
NMTAP	41	288	6
NMSTR	42	0	4
NMSLR	42	0	4	96	96	0
NMSTR	42	288	6
NMSCL	42	288	6	96	192	7
NMTTP	43	0	0	C	1	M1
NMTAP	44	0	4
NMTAP	44	0	6
NMTAP	44	96	5
NMTAP	44	96	6
NMHLD	44	192	4	96
NMHLD	44	192	7	96
NMTAP	45	0	2
NMTAP	45	0	4
NMTAP	45	96	1
NMTAP	45	96	2
NMHLD	45	192	0	96
NMHLD	45	192	3	96
NMTAP	46	0	6
NMHLD	46	48	6	96
NMTAP	46	144	4
NMTAP	46	240	0
NMTAP	46	240	7
NMTAP	46	288	0
NMTAP	46	288	7
NMTAP	47	0	1
NMHLD	47	48	1	96
NMTAP	47	144	3
NMTAP	47	240	0
NMTAP	47	240	7
NMSTR	47	288	0
NMSXL	47	288	0	96	192	3
NMSTR	47	288	7
NMSXR	47	288	7	96	192	4
EXTAP	48	288	1
EXTAP	48	288	6
EXSTR	49	0	1
NMSCR	49	0	1	96	96	4
EXTAP	49	0	6
BRTAP	49	192	0
BXHLD	50	0	7	96
NMTAP	50	96	3
NMTAP	50	144	3
BXHLD	50	192	5	96
NMTTP	50	288	3	E	1	M1
EXTAP	51	0	2
BXHLD	51	0	7	96
NMTAP	51	96	4
NMTAP	51	144	4
BXHLD	51	192	5	96
NMTTP	51	288	4	E	1	M1
EXTAP	52	0	3
BXHLD	52	0	7	96
NMTAP	52	96	4
NMTAP	52	144	4
BXHLD	52	192	5	96
NMTTP	52	288	4	E	1	M1
NMTAP	53	0	2
NMTAP	53	0	6
NMTAP	53	96	1
NMTAP	53	96	5
NMTAP	53	144	1
NMTAP	53	144	5
NMTAP	53	240	2
NMTAP	53	240	3
NMSTR	53	288	2
NMSCL	53	288	2	96	240	4
NMSTR	53	288	3
NMSUR	53	288	3	96	240	4
NMTAP	55	0	2
NMTAP	55	0	6
BRTAP	55	96	1
BRTAP	55	96	7
BRTAP	55	192	1
BRTAP	55	192	7
NMTAP	56	0	6
NMTAP	56	0	7
NMTAP	56	96	4
NMTAP	56	96	6
NMTAP	56	192	1
NMTAP	56	192	3
NMTAP	56	288	0
NMTAP	56	288	1
NMTAP	57	0	0
NMTAP	57	0	1
NMTAP	57	96	2
NMTAP	57	96	7
NMTAP	57	144	2
NMTAP	57	144	7
NMTAP	57	240	1
NMTAP	57	240	5
NMTAP	57	288	1
NMTAP	57	288	5
BXHLD	58	0	0	96
NMTAP	58	96	4
NMTAP	58	144	4
BXHLD	58	192	2	96
NMTTP	58	288	5	E	1	M1
BXHLD	59	0	0	96
EXTAP	59	0	4
NMTAP	59	96	3
NMTAP	59	144	3
BXHLD	59	192	2	96
NMTTP	59	288	4	E	1	M1
BXHLD	60	0	0	96
EXTAP	60	0	4
NMTAP	60	96	3
NMTAP	60	144	3
BXHLD	60	192	2	96
NMTTP	60	288	4	B	1	M1
NMTAP	61	0	1
NMTAP	61	0	5
NMTAP	61	96	3
NMTAP	61	96	6
NMTAP	61	144	3
NMTAP	61	144	6
NMTAP	61	240	4
NMTAP	61	240	5
NMSTR	61	288	4
NMSUL	61	288	4	96	240	3
NMSTR	61	288	5
NMSCR	61	288	5	96	240	3
NMTAP	63	0	1
NMTAP	63	0	5
BRTAP	63	96	0
BRTAP	63	96	6
BRTAP	63	192	0
BRTAP	63	192	6
NMSTR	64	0	0
NMSI_	64	0	0	96	48	4
NMSTR	64	0	1
NMSI_	64	0	1	96	48	4
NMSTR	64	192	6
NMSI_	64	192	6	96	48	3
NMSTR	64	192	7
NMSI_	64	192	7	96	48	3
NMTAP	65	0	0
NMTAP	65	96	1
NMTAP	65	96	7
NMTAP	65	144	1
NMTAP	65	144	7
EXTAP	65	240	0
EXTAP	65	288	0
EXTAP	65	336	0
EXSTR	66	0	0
NMSI_	66	0	0	96	48	2
NMSI_	66	0	0	96	48	6
CNSCR	66	144	2	0	24	3
CNSCL	66	144	6	0	24	5
EXTAP	66	240	4
EXTAP	66	288	4
EXTAP	66	336	4
EXSTR	67	0	4
NMSCL	67	0	4	96	24	3
NMSCR	67	0	4	96	24	5
CNSI_	67	120	3	0	48	1
CNSI_	67	120	5	0	48	7
EXTAP	67	240	0
EXTAP	67	288	0
NMHLD	68	0	1	96
NMTAP	68	0	3
NMTAP	68	96	4
NMTAP	68	192	4
NMHLD	68	192	6	96
NMTAP	68	288	3
NMSTR	69	0	1
NMSUR	69	0	1	96	96	5
NMSTR	69	0	5
NMSUR	69	0	5	96	96	1
EXTAP	70	0	6
EXTAP	70	0	7
EXTAP	70	96	6
EXTAP	70	96	7
EXTAP	70	192	0
EXTAP	70	192	1
EXTAP	70	288	0
EXTAP	70	288	1
NMSTR	71	0	2
NMSI_	71	0	2	96	48	7
NMSTR	71	144	5
NMSI_	71	144	5	96	48	0
NMSTR	71	288	3
BRSCL	71	288	3	96	384	4
EXSTR	74	0	0
NMSI_	74	0	0	96	96	4
EXSTR	74	0	5
NMSLR	74	0	5	96	96	4
EXSTR	74	336	1
NMSLR	74	336	1	96	96	0
EXSTR	74	336	4
NMSI_	74	336	4	96	96	0
NMHLD	76	0	1	96
NMHLD	76	0	7	96
NMTAP	76	192	0
NMTAP	76	192	6
NMSTR	76	240	0
NMSCR	76	240	0	96	96	3
NMSTR	76	240	6
NMSCL	76	240	6	96	96	3
NMTAP	77	192	1
NMTAP	77	192	5
NMTAP	78	0	2
NMTAP	78	48	4
NMTAP	78	96	2
NMTAP	78	144	4
NMTAP	78	192	2
NMTAP	78	240	4
NMTAP	78	288	2
NMTAP	78	336	4
NMTAP	79	0	0
NMTAP	79	48	6
NMTAP	79	96	0
NMTAP	79	144	6
NMTAP	79	192	1
NMTAP	79	240	5
NMTAP	79	288	1
NMTAP	79	336	5
EXTAP	80	0	2
EXTAP	80	0	4
NMTAP	80	96	5
NMTAP	80	144	4
NMTAP	80	144	5
NMTAP	80	240	2
NMTAP	80	288	2
NMSTR	80	288	3
NMSUR	80	288	3	96	192	4
BXTAP	82	0	4
BXTAP	82	0	5
BXTAP	82	96	4
BXTAP	82	96	5
BXTAP	82	192	6
BXTAP	82	192	7
BXTAP	82	288	6
BXTAP	82	288	7
BXSTR	83	0	6
NMSI_	83	0	6	96	96	3
BXSTR	83	0	7
NMSI_	83	0	7	96	96	3
NMSTR	83	336	1
NMSI_	83	336	1	96	96	5
NMTAP	84	48	7
NMTAP	84	96	7
NMHLD	84	192	6	96
NMSTR	84	288	3
NMSI_	84	288	3	96	96	0
NMSTR	85	96	4
NMSI_	85	96	4	96	96	7
NMTAP	85	288	3
NMTAP	86	0	6
NMTAP	86	48	4
NMTAP	86	144	1
NMTAP	86	192	3
NMTAP	86	288	5
NMTAP	86	336	4
NMTAP	87	48	2
NMTAP	87	96	3
NMTAP	87	192	0
NMTAP	87	192	1
NMTAP	87	288	0
NMTAP	87	288	1
NMTAP	88	0	2
NMTAP	88	48	3
NMTAP	88	144	5
NMTAP	88	192	4
NMTAP	88	288	1
NMTAP	88	336	3
NMTAP	89	48	6
NMTAP	89	96	4
NMHLD	89	192	6	96
NMHLD	89	192	7	96
NMSTR	90	0	6
NMSCL	90	0	6	96	48	3
NMSTR	90	0	7
NMSUL	90	0	7	96	48	2
NMSTR	90	192	0
NMSI_	90	192	0	96	48	4
NMSTR	90	192	1
NMSI_	90	192	1	96	48	7
EXTAP	91	0	6
EXSTR	91	96	5
NMSCL	91	96	5	96	96	2
NMTAP	91	192	0
EXSTR	91	288	1
NMSI_	91	288	1	96	96	6
EXHLD	92	0	6	384
CNSI_	92	96	6	0	96	2
CNSI_	92	192	2	0	96	5
NMTAP	93	0	4
NMTAP	93	96	4
NMTAP	93	96	5
NMTAP	93	192	2
NMTAP	93	192	3
NMTAP	93	288	0
NMTAP	93	288	1
BRTAP	94	0	2
BRTAP	94	0	7
NMSTR	94	96	1
NMSI_	94	96	1	96	48	7
NMSTR	94	240	5
NMSI_	94	240	5	96	48	0
NMSTR	95	0	2
NMSI_	95	0	2	96	48	7
NMSTR	95	144	4
NMSI_	95	144	4	96	48	0
NMHLD	95	288	1	96
BRTAP	96	0	2
BRTAP	96	192	1
BRHLD	97	0	0	192
NMTTP	97	192	7	A	1	M1
NMTTP	97	204	7	B	0	M1
NMTTP	97	216	0	C	0	M1
NMTTP	97	228	3	B	0	M1
NMTTP	97	240	3	A	0	M1
NMSTR	98	0	1
NMSI_	98	0	1	96	48	5
NMTAP	98	96	6
NMHLD	98	144	6	96
NMTAP	98	240	4
NMHLD	98	288	4	96
NMTAP	99	0	2
NMHLD	99	48	2	96
NMTAP	99	144	0
NMTAP	99	192	0
NMSTR	99	288	2
NMSCL	99	288	2	96	192	5
NMTAP	99	288	3
NMTAP	100	0	4
NMTAP	100	96	4
NMTAP	100	192	4
NMTAP	100	288	4
NMTAP	101	0	3
NMTAP	101	0	5
NMTAP	101	96	2
NMTAP	101	96	4
NMHLD	101	192	1	96
NMHLD	101	192	3	96
NMTTP	102	0	2	D	0	M1
NMTTP	102	96	3	E	0	M1
NMTTP	102	192	4	E	0	M1
NMTTP	102	288	5	D	0	M1
NMTTP	103	0	6	E	0	M1
NMTTP	103	96	7	E	0	M1
NMTTP	103	192	0	D	0	M1
NMTTP	103	288	1	E	0	M1
NMTTP	104	0	2	E	0	M1
NMTTP	104	96	3	D	0	M1
NMTTP	104	144	3	A	0	M1
NMTTP	104	192	4	E	0	M1
NMTTP	104	240	4	B	0	M1
NMTTP	104	288	5	E	0	M1
NMHLD	105	0	6	96
NMTAP	105	96	3
NMTAP	105	192	2
NMTAP	105	192	7
NMSTR	106	0	2
NMSI_	106	0	2	96	96	7
NMSTR	106	192	5
NMSI_	106	192	5	96	96	0
NMSTR	107	0	3
NMSI_	107	0	3	96	96	7
NMSTR	107	192	4
NMSI_	107	192	4	96	96	0
NMTAP	108	0	2
NMTAP	108	24	3
NMTAP	108	48	4
NMTAP	108	72	5
NMTAP	108	96	6
NMTAP	108	120	7
NMTAP	108	144	0
NMTAP	108	168	1
NMTAP	108	192	2
NMTAP	108	216	3
NMTAP	108	240	4
NMTAP	108	264	5
NMTAP	108	288	6
NMTAP	108	312	7
NMTAP	108	336	0
NMTAP	108	360	1
NMTAP	109	0	2
NMTAP	109	24	3
NMTAP	109	48	4
NMTAP	109	72	5
NMTAP	109	96	6
NMTAP	109	120	7
NMTAP	109	144	0
NMTAP	109	168	1
NMTAP	109	192	2
NMTTP	110	0	0	C	0	M1
NMTTP	110	0	4	E	0	M1
NMTTP	110	96	5	D	0	M1
NMTTP	110	192	6	E	0	M1
NMTTP	110	288	7	D	0	M1
NMTTP	111	0	0	C	0	M1
NMTTP	111	0	0	E	0	M1
NMTTP	111	96	1	D	0	M1
NMTTP	111	192	2	E	0	M1
NMTTP	111	288	3	D	0	M1
NMTTP	112	0	0	C	0	M1
NMTTP	112	0	4	E	0	M1
NMTTP	112	96	5	D	0	M1
NMTTP	112	192	6	E	0	M1
NMTTP	112	288	7	D	0	M1
NMTTP	113	0	0	C	0	M1
NMTTP	113	0	0	E	0	M1
NMTTP	113	96	1	D	0	M1
NMTTP	113	192	2	E	1	M1
NMSTR	114	0	5
BRSI_	114	0	5	96	96	0
NMSTR	114	144	1
BRSI_	114	144	1	96	96	4
NMSTR	114	288	7
BRSLL	114	288	7	96	192	3
NMTAP	115	96	0
NMTAP	115	192	0
NMTTP	116	0	1	B	0	M1
NMTTP	116	0	1	E	0	M1
NMTTP	116	0	2	B	0	M1
NMTTP	116	0	3	E	1	M1
NMTTP	116	192	5	B	0	M1
NMTTP	116	192	5	E	1	M1
NMTTP	116	192	6	B	0	M1
NMTTP	116	192	7	E	0	M1
NMTTP	117	0	0	C	0	M1
NMTTP	117	192	3	E	0	M1
NMTTP	117	192	3	A	0	M1
NMTTP	117	192	4	A	0	M1
NMTTP	117	192	4	D	0	M1
NMTTP	117	192	5	E	0	M1
EXSTR	118	0	0
NMSI_	118	0	0	96	96	5
EXSTR	118	96	5
NMSI_	118	96	5	96	96	2
EXSTR	119	0	6
NMSI_	119	0	6	96	96	1
EXSTR	119	96	1
NMSI_	119	96	1	96	96	4
NMTTP	120	0	0	B	0	M1
NMTTP	120	0	1	E	0	M1
NMTTP	120	96	6	B	0	M1
NMTTP	120	96	7	E	0	M1
NMTTP	120	192	2	B	0	M1
NMTTP	120	192	3	E	0	M1
NMTTP	120	288	4	B	0	M1
NMTTP	120	288	5	E	0	M1
EXSTR	121	0	3
NMSCL	121	0	3	96	96	7
NMTAP	121	192	5
NMTAP	122	0	6
NMTAP	122	0	7
NMSTR	122	96	6
NMSI_	122	96	6	96	96	4
NMSTR	122	96	7
NMSI_	122	96	7	96	96	3
NMTTP	123	0	0	B	0	M1
NMTTP	123	0	1	E	0	M1
NMTTP	123	0	1	A	1	M1
NMTTP	123	192	2	A	1	M1
NMTTP	123	192	3	B	0	M1
NMTTP	123	192	3	E	0	M1
NMTAP	124	0	5
NMSTR	124	96	6
NMSI_	124	96	6	96	96	3
NMSTR	124	96	7
NMSI_	124	96	7	96	96	4
NMTTP	125	0	0	A	0	M1
NMTTP	125	0	1	B	1	M1
NMTTP	125	0	1	E	0	M1
NMTTP	125	192	3	B	0	M1
NMTTP	125	192	3	E	1	M1
NMTTP	125	192	4	B	0	M1
NMTAP	126	0	5
NMSTR	126	96	6
NMSI_	126	96	6	96	48	3
NMTAP	126	192	2
NMSTR	126	288	1
NMSI_	126	288	1	96	48	4
NMTAP	127	0	6
NMSTR	127	96	7
NMSI_	127	96	7	96	48	3
NMTAP	127	192	1
NMTAP	127	288	1
NMTAP	128	0	1
NMTAP	128	0	3
NMTAP	128	96	0
NMTAP	128	96	7
NMTAP	128	192	4
NMTAP	128	192	6
NMTAP	128	288	3
NMTAP	128	288	4
NMTAP	129	0	1
NMTAP	129	0	3
NMTAP	129	96	0
NMTAP	129	96	7
NMTAP	129	192	4
NMTAP	129	192	6
EXSTR	129	288	3
NMSXR	129	288	3	96	384	3
NMTAP	129	288	4
CNSUL	131	0	3	0	288	6
CNSCL	131	288	6	0	288	3
NMHLD	133	0	1	384
NMTAP	133	288	4
NMHLD	134	0	5	384
NMTAP	134	288	2
NMHLD	135	0	1	288
NMSTR	135	288	3
NMSXL	135	288	3	96	240	3
NMSXR	135	288	3	96	240	3
NMSTR	137	0	1
NMSI_	137	0	1	96	96	5
NMSTR	137	192	7
NMSV_	137	192	7	96	192	2
NMSV_	137	192	7	96	192	4
EXTAP	138	192	1
EXTAP	138	192	5
NMHLD	139	0	2	96
NMHLD	139	0	6	96
NMHLD	139	192	1	96
NMHLD	139	192	4	96
NMHLD	140	0	3	96
NMHLD	140	0	7	96
NMHLD	140	192	1	96
NMHLD	140	192	5	96
NMSTR	141	0	2
NMSCR	141	0	2	96	144	5
NMTAP	141	192	6
NMSTR	142	0	6
NMSUL	142	0	6	96	144	2
NMTAP	142	192	1
NMSTR	143	0	1
NMSCL	143	0	1	96	144	6
NMSTR	143	192	5
NMSUL	143	192	5	96	384	3
NMSTR	145	0	1
NMSI_	145	0	1	96	96	3
CNSV_	145	192	3	0	96	4
NMHLD	145	192	7	384
CNSI_	145	288	4	0	96	6
NMTAP	146	192	4
NMTAP	146	288	4
NMTAP	147	0	3
NMTAP	147	0	6
NMTAP	147	96	3
NMTAP	147	96	6
NMTAP	147	192	1
NMTAP	147	192	4
NMTAP	147	288	1
NMTAP	147	288	4
NMTAP	148	0	2
NMTAP	148	0	5
NMSTR	148	96	3
NMSI_	148	96	3	96	48	0
NMSTR	148	96	4
NMSCR	148	96	4	96	48	6
BRTAP	148	192	3
BRTAP	148	192	4
NMSTR	149	0	2
BRSI_	149	0	2	96	96	7
NMTAP	149	96	4
NMTAP	149	144	4
NMSTR	149	192	5
BRSCR	149	192	5	96	96	0
NMTTP	149	288	3	B	1	M1
NMSTR	150	0	2
BRSI_	150	0	2	96	96	7
NMTAP	150	96	4
NMTAP	150	144	4
NMSTR	150	192	5
BRSCR	150	192	5	96	96	0
NMTTP	150	288	3	E	1	M1
NMSTR	151	0	2
BRSI_	151	0	2	96	96	7
NMTAP	151	96	3
NMTAP	151	144	4
NMSTR	151	192	5
BRSCR	151	192	5	96	96	0
NMTTP	151	288	4	E	1	M1
NMSTR	152	0	2
BRSI_	152	0	2	96	96	7
NMTAP	152	96	3
NMTAP	152	144	4
NMSTR	152	192	5
BRSCR	152	192	5	96	96	0
BRSTR	152	288	3
BRSCL	152	288	3	96	240	4
NMTAP	154	0	1
NMTAP	154	0	6
BRTAP	154	96	0
BRTAP	154	96	7
BRTAP	154	192	0
BRTAP	154	192	7
NMHLD	155	0	5	96
NMHLD	155	96	7	96
NMHLD	155	192	0	96
NMHLD	155	288	2	96
NMSTR	156	0	3
BRSSR	156	0	3	96	144	7
EXTAP	157	0	6
EXSTR	157	0	7
BRSLL	157	0	7	96	144	3
EXSTR	157	48	6
NMSV_	157	48	6	96	96	4
EXTAP	157	48	7
EXTAP	158	0	0
EXSTR	158	0	1
NMSXL	158	0	1	96	144	3
EXSTR	158	48	0
BRSSR	158	48	0	96	96	4
EXTAP	158	48	1
BRTAP	159	0	0
BRTAP	159	0	7
BRTAP	159	48	0
BRTAP	159	48	7
BRTAP	159	144	1
BRTAP	159	144	6
BRTAP	159	240	2
BRTAP	159	240	5
BRTAP	159	288	2
BRTAP	159	288	5
BRTAP	160	0	3
BRTAP	160	0	4
EXSTR	160	96	2
BRSUR	160	96	2	96	96	7
EXSTR	160	96	5
NMSUL	160	96	5	96	96	0
NMTAP	161	0	0
NMTAP	161	0	7
NMTAP	161	96	5
NMTAP	161	96	6
NMTAP	161	192	3
NMTAP	161	192	4
NMTAP	161	288	1
NMTAP	161	288	2
NMTAP	162	0	0
NMTAP	162	0	7
BRTAP	162	96	1
BRTAP	162	96	6
BRTAP	162	192	1
BRTAP	162	192	6
NMSTR	163	0	7
NMSCL	163	0	7	96	96	3
NMSTR	163	96	3
NMSCL	163	96	3	96	96	7
NMTAP	163	192	7
NMTAP	163	288	3
NMTAP	164	0	7
NMTAP	164	96	0
NMTAP	164	96	6
NMTAP	164	144	0
NMTAP	164	144	6
BXTAP	164	240	7
BXTAP	164	288	7
BXTAP	164	336	7
BXSTR	165	0	7
NMSCL	165	0	7	96	24	6
NMSCR	165	0	7	96	24	0
CNSI_	165	120	0	0	48	2
CNSI_	165	120	6	0	48	4
BXTAP	165	240	3
BXTAP	165	288	3
BXTAP	165	336	3
BXSTR	166	0	3
NMSI_	166	0	3	96	48	1
NMSI_	166	0	3	96	48	5
CNSCL	166	144	1	0	24	0
CNSCR	166	144	5	0	24	6
BXTAP	166	240	7
BXTAP	166	288	7
NMTAP	167	0	4
NMHLD	167	0	6	96
NMTAP	167	96	3
NMHLD	167	192	1	96
NMTAP	167	192	3
NMTAP	167	288	4
NMSTR	168	0	2
NMSCL	168	0	2	96	96	7
NMSTR	168	0	6
NMSCL	168	0	6	96	96	3
NMSTR	169	0	0
NMSI_	169	0	0	96	48	4
NMSTR	169	96	6
NMSI_	169	96	6	96	48	3
NMTAP	169	192	2
NMTAP	169	288	2
NMSTR	170	0	1
NMSI_	170	0	1	96	96	5
NMSTR	170	0	7
NMSI_	170	0	7	96	96	3
BRTAP	170	288	2
BRTAP	170	288	6
NMTAP	171	0	1
NMTAP	171	48	3
NMTAP	171	96	1
NMTAP	171	144	3
NMHLD	171	192	2	96
NMTAP	171	288	5
NMTAP	171	336	4
NMTAP	172	0	5
NMTAP	172	48	4
NMHLD	172	96	6	96
EXTAP	172	192	0
EXTAP	172	288	1
EXTAP	172	288	5
NMTAP	173	0	2
NMTAP	173	48	3
NMTAP	173	96	1
NMTAP	173	144	3
NMHLD	173	192	0	96
NMTAP	173	288	7
NMTAP	173	336	4
NMTAP	174	0	6
NMTAP	174	48	4
NMHLD	174	96	5	96
EXTAP	174	192	1
EXTAP	174	288	1
EXTAP	174	288	5
NMTAP	175	0	2
NMTAP	175	48	4
NMTAP	175	96	2
NMTAP	175	144	4
EXHLD	175	192	0	96
NMTAP	175	288	5
NMTAP	175	336	3
NMTAP	176	0	5
NMTAP	176	48	3
EXHLD	176	96	7	96
BRTAP	176	192	4
BRTAP	176	288	2
BRTAP	176	288	5
NMTAP	177	0	1
NMHLD	177	48	1	96
NMTAP	177	144	0
NMTAP	177	240	2
NMTAP	177	240	4
NMTAP	177	288	2
NMTAP	177	288	4
NMTAP	178	0	6
NMHLD	178	48	6	96
NMTAP	178	144	7
NMTAP	178	240	3
NMTAP	178	240	5
NMSTR	178	288	3
NMSXR	178	288	3	96	192	0
NMSTR	178	288	5
NMSXL	178	288	5	96	192	0
EXTAP	179	288	2
EXTAP	179	288	6
NMTAP	180	0	1
NMTAP	180	0	5
NMSTR	180	96	0
NMSI_	180	96	0	96	48	3
BRSTR	180	96	6
NMSCL	180	96	6	96	48	3
EXTAP	180	192	0
EXTAP	180	192	6

T_REC_TAP	387
T_REC_BRK	47
T_REC_XTP	58
T_REC_BXX	16
T_REC_HLD	49
T_REC_XHO	6
T_REC_BHO	1
T_REC_BXH	12
T_REC_STR	103
T_REC_BST	2
T_REC_XST	25
T_REC_XBS	4
T_REC_TTP	92
T_REC_THO	0
T_REC_SLD	120
T_REC_BSL	20
T_REC_ALL	942
T_NUM_TAP	665
T_NUM_BRK	102
T_NUM_HLD	55
T_NUM_SLD	120
T_NUM_ALL	942
T_JUDGE_TAP	734
T_JUDGE_HLD	95
T_JUDGE_SLD	140
T_JUDGE_ALL	969
TTM_EACHPAIRS	174
TTM_SCR_TAP	332500
TTM_SCR_BRK	265200
TTM_SCR_HLD	55000
TTM_SCR_SLD	180000
TTM_SCR_ALL	832700
TTM_SCR_S	797850
TTM_SCR_SS	822500
TTM_RAT_ACV	10124

