VERSION	0.00.00	1.04.00
FES_MODE	0
BPM_DEF	276.000	276.000	370.000	276.000
MET_DEF	4	4
RESOLUTION	384
CLK_DEF	384
COMPATIBLE_CODE	MA2

BPM	0	0	276.000
BPM	106	0	300.000
BPM	114	0	320.000
BPM	118	0	340.000
BPM	122	0	350.000
BPM	124	0	360.000
BPM	126	0	370.000
BPM	132	0	276.000
MET	0	0	4	4

NMHLD	2	0	2	144
NMHLD	2	144	4	144
NMHLD	2	288	1	144
NMTAP	3	48	3
NMTAP	3	192	1
NMTAP	3	192	3
NMHLD	4	0	5	144
NMHLD	4	144	3	144
NMHLD	4	288	6	144
NMTAP	5	48	4
NMTAP	5	192	4
NMTAP	5	192	6
NMHLD	6	0	1	144
NMHLD	6	144	4	144
NMHLD	6	288	2	144
NMTAP	7	48	3
NMTAP	7	192	1
NMTAP	7	192	4
NMTAP	8	0	2
NMTAP	8	0	3
NMTAP	8	96	1
NMTAP	8	192	0
NMTAP	8	192	7
NMTAP	8	288	6
NMTAP	9	0	4
NMTAP	9	0	5
BRTAP	9	192	2
BRTAP	9	192	7
NMSTR	10	0	6
NMSI_	10	0	6	96	96	4
NMSTR	10	192	7
NMSI_	10	192	7	96	96	3
NMSTR	11	0	6
NMSI_	11	0	6	96	96	4
NMSTR	11	192	7
NMSI_	11	192	7	96	96	3
NMSTR	12	0	6
NMSI_	12	0	6	96	96	4
NMSTR	12	192	7
NMSI_	12	192	7	96	96	3
NMTAP	13	0	6
NMTAP	13	96	6
NMTAP	13	192	6
NMTAP	13	192	7
EXSTR	14	0	1
NMSI_	14	0	1	96	96	3
EXSTR	14	144	7
NMSI_	14	144	7	96	96	4
EXSTR	14	288	0
NMSI_	14	288	0	96	96	3
EXSTR	15	48	6
NMSI_	15	48	6	96	96	4
NMTAP	15	192	1
NMTAP	15	288	1
NMTAP	16	0	2
NMTAP	16	0	6
NMTAP	16	96	2
NMTAP	16	96	6
NMTAP	16	192	7
NMTAP	16	288	7
NMTAP	17	0	0
NMTAP	17	0	7
NMTAP	17	96	1
NMTAP	17	96	6
BRTAP	17	192	2
BRTAP	17	192	5
NMHLD	18	0	3	192
NMHLD	18	0	5	192
NMHLD	19	0	4	192
NMHLD	19	0	6	192
NMHLD	20	0	7	192
NMHLD	20	192	6	192
NMHLD	21	0	5	192
NMTAP	21	192	4
NMHLD	22	0	3	192
NMHLD	22	0	5	192
NMHLD	23	0	4	192
NMHLD	23	0	6	192
NMTAP	24	0	3
NMSTR	24	0	7
NMSCL	24	0	7	96	288	3
NMTAP	25	0	2
NMTAP	25	96	2
NMTAP	25	192	2
NMTAP	25	192	4
NMTAP	26	0	1
NMTAP	26	96	1
NMTAP	26	192	3
NMTAP	26	288	3
NMTAP	27	0	2
NMTAP	27	96	2
NMTAP	27	192	1
NMTAP	27	192	3
NMTAP	28	0	0
NMTAP	28	96	0
NMTAP	28	192	1
NMTAP	28	288	1
NMTAP	29	0	2
NMTAP	29	96	2
NMTAP	29	192	1
NMTAP	29	192	3
NMTAP	30	0	5
NMTAP	30	96	5
NMTAP	30	192	4
NMTAP	30	192	6
NMTAP	31	0	2
NMTAP	31	96	2
NMTAP	31	192	1
NMTAP	31	192	3
NMTAP	32	0	0
NMTAP	32	0	7
NMTAP	32	96	0
NMTAP	32	96	7
NMSTR	32	192	0
NMSCR	32	192	0	96	192	3
NMSTR	32	192	7
NMSCL	32	192	7	96	192	4
NMHLD	34	0	5	1152
NMTTP	34	192	5	E	0	M1
NMTTP	35	0	6	E	0	M1
NMTTP	35	192	7	E	0	M1
NMTTP	36	0	0	C	0	M1
NMTTP	36	192	4	E	0	M1
NMHLD	37	0	2	960
NMTTP	37	192	3	E	0	M1
NMTTP	38	0	2	E	0	M1
NMTTP	38	192	1	E	0	M1
NMTTP	39	0	0	C	0	M1
NMTTP	39	192	4	E	0	M1
NMTAP	40	0	3
NMHLD	40	0	6	384
NMTAP	40	144	4
NMTAP	40	288	2
NMHLD	41	0	2	384
NMTAP	41	144	3
NMTAP	41	288	4
NMHLD	42	0	4	384
NMTAP	42	144	3
NMTAP	42	288	2
NMTAP	43	0	2
EXHLD	43	144	1	144
EXHLD	43	144	5	144
NMHLD	44	0	2	144
NMTAP	44	144	3
NMTAP	44	288	1
NMTAP	44	288	4
NMHLD	45	0	5	144
NMTAP	45	144	4
NMTAP	45	288	3
NMTAP	45	288	6
NMHLD	46	0	1	144
NMTAP	46	144	0
NMTAP	46	288	2
NMTAP	46	288	7
NMHLD	47	0	6	144
NMTAP	47	144	7
NMTAP	47	288	0
NMTAP	47	288	5
NMTAP	48	0	1
NMTAP	48	0	3
NMTAP	48	144	4
NMTAP	48	144	6
NMTAP	48	288	0
NMTAP	48	288	7
NMTAP	49	0	0
NMTAP	49	0	7
BRTAP	49	192	1
BRTAP	49	192	6
NMTAP	50	0	2
NMTAP	50	96	1
NMTAP	50	96	7
NMTAP	50	288	0
NMTAP	50	288	6
NMTAP	51	0	5
NMTAP	51	96	0
NMTAP	51	96	6
NMTAP	51	288	1
NMTAP	51	288	7
NMTAP	52	0	2
NMTAP	52	96	1
NMTAP	52	96	7
NMTAP	52	288	0
NMTAP	52	288	6
NMTAP	53	0	5
NMTAP	53	96	0
NMTAP	53	96	6
NMTAP	53	288	0
NMTAP	53	288	1
NMTAP	54	0	0
NMSTR	54	0	1
NMSXL	54	0	1	96	384	0
BRTAP	55	96	7
BRTAP	55	192	7
NMTAP	56	0	5
NMTAP	56	96	5
NMTAP	56	192	4
NMTAP	56	192	6
NMTAP	57	0	2
NMTAP	57	96	2
NMTAP	57	192	1
NMTAP	57	192	3
NMTAP	58	0	5
NMTAP	58	96	0
NMTAP	58	96	6
NMTAP	58	288	1
NMTAP	58	288	7
NMTAP	59	0	2
NMTAP	59	96	1
NMTAP	59	96	7
NMTAP	59	288	0
NMTAP	59	288	6
NMTAP	60	0	5
NMTAP	60	96	0
NMTAP	60	96	6
NMTAP	60	288	1
NMTAP	60	288	7
NMTAP	61	0	2
NMTAP	61	96	1
NMTAP	61	96	7
NMTAP	61	288	6
NMTAP	61	288	7
NMSTR	62	0	6
NMSXR	62	0	6	96	288	7
NMTAP	62	0	7
BRTAP	63	96	0
BRTAP	63	192	0
NMTAP	64	0	2
NMTAP	64	0	4
NMTAP	64	96	2
NMTAP	64	96	4
NMTAP	64	192	3
NMTAP	64	192	5
NMTAP	64	288	3
NMTAP	64	288	5
NMTAP	65	0	4
NMTAP	65	0	6
NMTAP	65	96	4
NMTAP	65	96	6
NMTAP	65	288	6
NMTAP	65	288	7
NMSTR	66	0	6
NMSCL	66	0	6	96	96	4
NMSTR	66	0	7
NMSUL	66	0	7	96	96	3
NMTAP	66	288	0
NMTAP	66	288	1
NMSTR	67	0	0
NMSUR	67	0	0	96	96	4
NMSTR	67	0	1
NMSCR	67	0	1	96	96	3
NMTAP	67	288	4
NMTAP	67	288	5
NMSTR	68	0	4
NMSUR	68	0	4	96	96	0
NMSTR	68	0	5
NMSCR	68	0	5	96	96	7
NMTAP	68	288	2
NMTAP	68	288	3
NMSTR	69	0	2
NMSCL	69	0	2	96	96	0
NMSTR	69	0	3
NMSUL	69	0	3	96	96	7
NMTAP	70	0	6
NMTAP	70	96	7
NMTAP	70	192	0
NMTAP	70	288	1
NMTAP	71	0	1
NMTAP	71	0	3
NMTAP	71	144	4
NMTAP	71	144	6
BRSTR	71	288	0
NMSXL	71	288	0	96	576	3
BRSTR	71	288	7
NMSXR	71	288	7	96	576	4
NMHLD	74	0	2	192
NMHLD	74	0	3	192
NMHLD	74	336	1	144
NMHLD	74	336	3	144
NMTAP	75	192	1
NMTAP	75	192	3
NMTAP	76	0	0
NMTAP	76	96	0
NMHLD	76	192	0	144
NMHLD	76	336	1	144
NMTAP	77	96	2
NMTAP	77	192	2
NMTAP	77	192	3
NMHLD	78	0	4	192
NMHLD	78	0	5	192
NMHLD	78	336	4	144
NMHLD	78	336	6	144
NMTAP	79	192	4
NMTAP	79	192	6
NMTAP	80	0	7
NMTAP	80	96	7
NMHLD	80	192	7	144
NMHLD	80	336	6	144
NMTAP	81	96	5
NMTAP	81	192	4
NMTAP	81	192	5
NMTAP	82	0	3
NMHLD	82	0	7	1536
NMTAP	82	192	4
NMTAP	82	288	4
NMTAP	83	0	5
NMTAP	83	96	5
NMTAP	83	192	4
NMTAP	83	288	4
NMTAP	84	0	5
NMTAP	84	96	5
NMTAP	84	192	6
NMTAP	84	288	6
NMTAP	85	0	5
NMTAP	85	96	5
NMTAP	85	192	4
NMTAP	85	288	4
NMSTR	86	0	5
NMSV_	86	0	5	96	216	0
CNSLL	86	312	0	0	264	4
NMSTR	88	0	2
NMSV_	88	0	2	96	216	7
CNSLR	88	312	7	0	264	3
NMHLD	90	0	0	1536
NMTAP	90	0	4
NMTAP	90	192	3
NMTAP	90	288	3
NMTAP	91	0	2
NMTAP	91	96	2
NMTAP	91	192	3
NMTAP	91	288	3
NMTAP	92	0	2
NMTAP	92	96	2
NMTAP	92	192	1
NMTAP	92	288	1
NMTAP	93	0	2
NMTAP	93	96	2
NMTAP	93	192	3
NMTAP	93	288	3
NMSTR	94	0	2
NMSI_	94	0	2	96	160	5
CNSI_	94	256	5	0	160	0
CNSI_	95	32	0	0	160	3
BRTAP	96	0	2
BRTAP	96	192	1
BRHLD	97	0	0	192
NMTTP	97	192	0	C	1	M1
NMTAP	98	0	6
NMTAP	98	0	7
NMTAP	98	96	6
NMTAP	98	96	7
NMTAP	98	192	0
NMTAP	98	192	7
NMTAP	98	288	0
NMTAP	98	288	7
NMTAP	99	0	0
NMTAP	99	0	1
NMTAP	99	96	0
NMTAP	99	96	1
NMTAP	99	192	2
NMTAP	99	192	7
NMTAP	100	0	0
NMTAP	100	0	1
NMTAP	100	96	0
NMTAP	100	96	1
NMTAP	100	192	0
NMTAP	100	192	7
NMTAP	100	288	0
NMTAP	100	288	7
NMTAP	101	0	6
NMTAP	101	0	7
NMTAP	101	96	6
NMTAP	101	96	7
NMTAP	101	192	0
NMTAP	101	192	5
NMSTR	102	0	6
NMSCL	102	0	6	96	192	3
NMSTR	103	0	2
NMSCL	103	0	2	96	192	7
NMSTR	104	0	5
NMSCR	104	0	5	96	192	0
NMTAP	105	0	2
NMTAP	105	192	2
NMTAP	105	192	3
NMTAP	106	0	1
NMHLD	106	96	1	96
NMTAP	106	192	3
NMHLD	106	288	3	96
NMTAP	107	0	4
NMTAP	107	96	4
NMTAP	107	192	4
NMTAP	107	192	5
NMTAP	108	0	6
NMHLD	108	96	6	96
NMTAP	108	192	4
NMHLD	108	288	4	96
NMTAP	109	0	3
NMTAP	109	96	3
NMTAP	109	192	2
NMTAP	109	192	3
NMSTR	110	0	1
NMSCR	110	0	1	96	192	4
NMSTR	111	0	5
NMSCR	111	0	5	96	192	0
NMSTR	112	0	2
NMSCL	112	0	2	96	192	7
NMTAP	113	0	5
NMTAP	113	192	4
NMTAP	113	192	5
NMSTR	114	0	5
NMSI_	114	0	5	96	96	0
NMTAP	114	192	1
NMSTR	115	0	1
NMSI_	115	0	1	96	96	4
NMTAP	115	192	5
NMTAP	116	0	4
NMTAP	116	0	5
NMTAP	116	96	4
NMTAP	116	96	5
NMTAP	116	192	4
NMTAP	116	192	5
NMTAP	117	0	3
NMTAP	117	0	6
NMTAP	117	192	1
NMTAP	117	192	4
NMSTR	118	0	2
NMSI_	118	0	2	96	96	7
NMTAP	118	192	6
NMSTR	119	0	6
NMSI_	119	0	6	96	96	3
NMTAP	119	192	2
NMTAP	120	0	2
NMTAP	120	0	3
NMTAP	120	96	2
NMTAP	120	96	3
NMTAP	120	192	2
NMTAP	120	192	3
NMHLD	121	0	1	192
NMHLD	121	0	4	192
NMSTR	122	0	0
NMSI_	122	0	0	96	96	4
NMSTR	123	0	7
NMSI_	123	0	7	96	96	3
NMSTR	124	0	2
NMSI_	124	0	2	96	96	7
NMSTR	125	0	5
NMSI_	125	0	5	96	96	0
NMSTR	126	0	1
NMSI_	126	0	1	96	96	4
NMSTR	126	192	7
NMSI_	126	192	7	96	96	3
NMSTR	127	0	0
NMSI_	127	0	0	96	96	4
NMTAP	127	192	5
NMTAP	128	0	1
NMTAP	128	96	1
NMTAP	128	192	3
NMTAP	128	288	3
NMTAP	129	0	4
NMTAP	129	96	4
NMTAP	129	192	6
NMTAP	129	288	6
NMSTR	130	0	7
NMSF_	130	0	7	96	672	3
NMHLD	133	0	2	768
NMTAP	134	0	4
NMTAP	134	288	5
NMHLD	135	0	5	768
NMTAP	136	0	3
NMHLD	137	0	1	768
NMTAP	138	0	4
NMTAP	138	288	6
NMHLD	139	0	6	384
NMTAP	140	0	3
NMTAP	140	192	4
NMTAP	140	192	5
NMTAP	141	0	3
NMTAP	141	192	2
NMTAP	141	192	3
NMTAP	142	0	1
NMTAP	142	192	0
NMTAP	142	192	2
NMTAP	143	0	7
NMTAP	143	192	0
NMTAP	143	192	6
NMTAP	144	0	5
NMTAP	144	192	4
NMTAP	144	192	6
NMTAP	145	0	4
NMTAP	145	0	5
NMTAP	145	192	6
NMTAP	145	192	7
NMTAP	146	0	0
NMTAP	146	0	1
NMTAP	146	192	2
NMTAP	146	192	3
NMTAP	147	0	3
NMTAP	147	0	4
NMTAP	147	96	3
NMTAP	147	96	4
NMHLD	147	192	3	144
NMHLD	147	192	4	144
BRTAP	148	192	0
BRTAP	148	192	7
NMTAP	149	0	2
NMTAP	149	96	0
NMTAP	149	96	1
NMTAP	149	288	6
NMTAP	149	288	7
NMTAP	150	0	5
NMTAP	150	96	6
NMTAP	150	96	7
NMTAP	150	288	0
NMTAP	150	288	1
NMTAP	151	0	2
NMTAP	151	96	0
NMTAP	151	96	1
NMTAP	151	288	6
NMTAP	151	288	7
NMTAP	152	0	5
NMTAP	152	96	6
NMTAP	152	96	7
NMTAP	152	288	0
NMTAP	152	288	2
NMTAP	153	0	0
NMSTR	153	0	2
NMSXL	153	0	2	96	288	0
BRTAP	154	96	7
BRTAP	154	192	7
NMTAP	155	0	6
NMTAP	155	96	6
NMTAP	155	192	4
NMTAP	155	192	5
NMTAP	156	0	1
NMTAP	156	96	1
NMTAP	156	192	2
NMTAP	156	192	3
NMTAP	157	0	4
NMTAP	157	0	5
NMTAP	157	96	4
NMSTR	157	96	5
NMSI_	157	96	5	96	96	7
NMTAP	158	0	2
NMTAP	158	0	3
NMSTR	158	96	2
NMSI_	158	96	2	96	96	0
NMTAP	158	96	3
NMTAP	159	0	0
NMTAP	159	0	7
NMTAP	159	96	0
NMTAP	159	96	7
NMTAP	159	192	1
NMTAP	159	192	6
NMSTR	159	288	1
BRSLR	159	288	1	96	192	0
NMSTR	159	288	6
BRSLL	159	288	6	96	192	7
EXHLD	161	0	0	96
EXHLD	161	0	6	96
NMTAP	161	192	1
NMTAP	161	192	7
NMHLD	161	336	2	144
NMTAP	161	336	6
BRTAP	162	96	0
BRTAP	162	192	0
NMTAP	163	0	2
NMTAP	163	96	2
NMTAP	163	192	1
NMTAP	163	192	5
NMTAP	163	288	1
NMTAP	163	288	5
NMTAP	164	0	0
NMTAP	164	0	6
NMTAP	164	96	0
NMTAP	164	96	6
NMTAP	164	288	6
NMTAP	164	288	7
NMSTR	165	0	6
NMSV_	165	0	6	96	96	3
NMSTR	165	0	7
NMSCR	165	0	7	96	96	2
NMTAP	165	288	0
NMTAP	165	288	1
NMSTR	166	0	0
NMSCL	166	0	0	96	96	5
NMSTR	166	0	1
NMSV_	166	0	1	96	96	4
NMTAP	166	288	4
NMTAP	166	288	5
NMSTR	167	0	4
NMSCL	167	0	4	96	96	1
NMSTR	167	0	5
NMSV_	167	0	5	96	96	0
NMTAP	167	288	2
NMTAP	167	288	3
NMSTR	168	0	2
NMSV_	168	0	2	96	96	7
NMSTR	168	0	3
NMSCR	168	0	3	96	96	6
NMTAP	169	0	1
NMTAP	169	96	1
NMTAP	169	192	7
NMTAP	169	288	7
NMSTR	170	0	0
NMSCR	170	0	0	96	96	3
NMSTR	170	0	7
NMSCL	170	0	7	96	96	4
NMTAP	171	0	2
NMHLD	171	48	2	96
NMTAP	171	144	4
NMHLD	171	192	4	96
NMTAP	171	288	1
NMHLD	171	336	1	96
NMTAP	172	48	3
NMTAP	172	96	3
NMTAP	172	192	2
NMTAP	172	192	4
NMTAP	172	288	2
NMTAP	172	288	4
NMTAP	173	0	5
NMHLD	173	48	5	96
NMTAP	173	144	3
NMHLD	173	192	3	96
NMTAP	173	288	6
NMHLD	173	336	6	96
NMTAP	174	48	4
NMTAP	174	96	4
NMTAP	174	192	3
NMTAP	174	192	5
NMTAP	174	288	3
NMTAP	174	288	5
NMTAP	175	0	2
NMHLD	175	48	2	96
NMTAP	175	144	4
NMHLD	175	192	4	96
NMTAP	175	288	1
NMHLD	175	336	1	96
NMTAP	176	48	3
NMTAP	176	96	3
NMTAP	176	192	2
NMTAP	176	192	4
NMTAP	176	288	1
NMTAP	176	288	5
NMHLD	177	0	6	144
NMTAP	177	144	7
NMTAP	177	288	0
NMTAP	177	288	5
NMHLD	178	0	1	144
NMTAP	178	144	0
NMTAP	178	288	2
NMTAP	178	288	7
NMHLD	179	0	1	144
NMTAP	179	144	0
NMTAP	179	288	0
NMTAP	179	288	7
NMTAP	180	0	0
NMTAP	180	0	7
NMTAP	180	96	1
NMTAP	180	96	6
BRTAP	180	192	2
BRTAP	180	192	5

T_REC_TAP	430
T_REC_BRK	20
T_REC_XTP	0
T_REC_BXX	0
T_REC_HLD	68
T_REC_XHO	4
T_REC_BHO	1
T_REC_BXH	0
T_REC_STR	55
T_REC_BST	2
T_REC_XST	4
T_REC_XBS	0
T_REC_TTP	11
T_REC_THO	0
T_REC_SLD	59
T_REC_BSL	2
T_REC_ALL	656
T_NUM_TAP	500
T_NUM_BRK	25
T_NUM_HLD	72
T_NUM_SLD	59
T_NUM_ALL	656
T_JUDGE_TAP	522
T_JUDGE_HLD	203
T_JUDGE_SLD	61
T_JUDGE_ALL	786
TTM_EACHPAIRS	171
TTM_SCR_TAP	250000
TTM_SCR_BRK	65000
TTM_SCR_HLD	72000
TTM_SCR_SLD	88500
TTM_SCR_ALL	475500
TTM_SCR_S	458850
TTM_SCR_SS	473000
TTM_RAT_ACV	10052

