VERSION	0.00.00	1.04.00
FES_MODE	0
BPM_DEF	184.000	184.000	184.000	184.000
MET_DEF	4	4
RESOLUTION	384
CLK_DEF	384
COMPATIBLE_CODE	MA2

BPM	0	0	184.000
BPM	108	0	184.000
MET	0	0	4	4

NMTAP	1	192	3
NMTAP	1	216	4
NMTAP	1	240	3
NMTAP	1	264	4
BXTAP	1	288	2
BXTAP	1	288	5
NMHLD	2	0	1	48
NMHLD	2	0	4	48
NMHLD	2	96	3	48
NMHLD	2	96	6	48
NMTAP	2	192	2
NMTAP	2	192	4
NMTAP	2	240	1
NMTAP	2	288	0
NMTAP	2	336	7
NMHLD	3	0	3	48
NMHLD	3	0	6	48
NMHLD	3	96	1	48
NMHLD	3	96	4	48
NMTAP	3	192	3
NMTAP	3	192	5
NMTAP	3	240	6
NMTAP	3	288	7
NMTAP	3	336	0
NMSTR	4	0	1
NMSI_	4	0	1	96	48	3
NMTAP	4	48	1
NMTAP	4	96	5
NMTAP	4	144	5
NMSTR	4	192	6
NMSI_	4	192	6	96	48	4
NMTAP	4	240	6
NMTAP	4	288	3
NMTAP	4	336	2
NMTAP	5	0	1
NMHLD	5	48	1	48
NMTAP	5	96	3
NMHLD	5	144	3	48
NMTAP	5	192	0
NMTAP	5	240	1
BRTAP	5	288	2
BRTAP	5	288	4
NMTAP	6	0	2
NMTAP	6	0	7
NMTAP	6	48	3
NMTAP	6	96	5
NMTAP	6	144	6
NMTAP	6	192	0
NMTAP	6	192	7
NMTAP	6	240	1
NMTAP	6	288	2
NMTAP	6	288	7
NMTAP	6	336	6
NMTAP	7	0	0
NMTAP	7	0	5
NMTAP	7	48	4
NMTAP	7	96	2
NMTAP	7	144	1
NMTAP	7	192	0
NMTAP	7	192	6
NMTAP	7	240	5
NMTAP	7	288	3
NMTAP	7	336	3
NMSTR	8	0	2
NMSI_	8	0	2	96	48	4
NMTAP	8	48	2
NMTAP	8	96	7
NMTAP	8	144	7
NMSTR	8	192	6
NMSI_	8	192	6	96	48	4
NMTAP	8	240	6
NMTAP	8	288	3
NMTAP	8	336	2
NMTAP	9	0	1
NMTAP	9	0	3
NMTAP	9	48	0
NMTAP	9	96	1
NMTAP	9	96	4
NMTAP	9	144	5
NMTAP	9	192	2
NMTAP	9	192	4
NMTAP	9	240	1
NMTAP	9	240	5
BRTAP	9	288	0
BRTAP	9	288	6
NMHLD	10	0	1	864
NMTAP	10	96	3
NMTAP	10	144	3
NMTAP	10	192	3
NMTAP	10	288	2
NMTAP	11	0	4
NMTAP	11	96	3
NMTAP	11	144	3
NMTAP	11	192	3
NMTAP	11	288	2
NMHLD	12	0	3	96
NMTAP	12	144	1
NMTAP	12	144	3
NMHLD	12	240	2	96
NMSTR	12	240	3
NMSUR	12	240	3	96	144	6
NMTAP	13	192	7
NMTAP	13	288	7
NMTAP	14	0	3
NMHLD	14	0	6	864
NMTAP	14	96	4
NMTAP	14	144	4
NMTAP	14	192	4
NMTAP	14	288	5
NMTAP	15	0	3
NMTAP	15	96	4
NMTAP	15	144	4
NMTAP	15	192	4
NMTAP	15	288	5
NMHLD	16	0	4	96
NMTAP	16	144	4
NMTAP	16	144	6
NMSTR	16	240	3
NMSCR	16	240	3	96	72	6
NMHLD	16	240	5	96
CNSUR	17	24	6	0	120	0
EXTAP	17	192	7
EXTAP	17	288	0
EXTAP	17	288	6
NMHLD	18	0	1	96
NMTAP	18	0	4
NMTAP	18	96	3
NMTAP	18	144	3
NMTAP	18	192	2
NMTAP	18	192	4
NMSTR	18	288	0
NMSCR	18	288	0	96	96	4
NMTAP	18	288	6
NMSTR	19	0	4
NMSCR	19	0	4	96	96	0
NMTAP	19	96	0
NMTAP	19	192	4
NMTAP	19	288	0
NMTAP	19	288	6
NMHLD	20	0	1	96
NMHLD	20	0	5	96
NMSTR	20	144	1
NMSI_	20	144	1	96	48	3
NMSTR	20	144	5
NMSI_	20	144	5	96	48	3
NMSTR	20	240	1
BRSI_	20	240	1	96	48	7
NMSTR	20	240	5
BRSI_	20	240	5	96	48	7
EXTAP	21	96	7
NMTAP	21	192	0
NMTAP	21	192	6
NMTAP	21	288	2
NMTAP	21	288	4
NMTAP	22	0	3
NMHLD	22	0	5	96
NMTAP	22	96	4
NMTAP	22	144	5
NMTAP	22	192	3
NMHLD	22	192	6	96
NMTAP	22	288	3
NMTAP	22	336	2
NMHLD	23	0	1	96
NMTAP	23	0	4
BXTAP	23	96	7
BXTAP	23	144	7
NMTAP	23	240	0
NMTAP	23	240	6
NMTAP	23	288	0
NMTAP	23	288	6
NMHLD	24	0	2	96
NMHLD	24	0	4	96
NMSTR	24	144	3
NMSCL	24	144	3	96	48	1
NMSCR	24	144	3	96	48	6
NMTTP	24	336	0	C	1	M1
NMTTP	24	336	1	B	0	M1
NMTTP	24	336	2	B	0	M1
NMTTP	24	336	2	E	0	M1
NMTTP	24	336	5	B	0	M1
NMTTP	24	336	6	B	0	M1
NMTTP	24	336	6	E	0	M1
NMTAP	25	192	0
NMTAP	25	192	7
NMTAP	25	240	1
NMTAP	25	240	6
EXTAP	25	288	2
EXTAP	25	288	5
BRSTR	26	0	0
NMSI_	26	0	0	96	48	5
BRSTR	26	0	1
NMSI_	26	0	1	96	48	4
BRTAP	26	96	0
BRTAP	26	96	1
EXTAP	26	288	4
EXTAP	26	288	5
NMHLD	27	0	6	96
BXTAP	27	96	7
BXTAP	27	144	7
BXTAP	27	240	0
BXTAP	27	240	7
BXTAP	27	288	0
BXTAP	27	288	7
BRSTR	28	0	6
NMSI_	28	0	6	96	48	3
BRSTR	28	0	7
NMSI_	28	0	7	96	48	2
BRTAP	28	96	6
BRTAP	28	96	7
NMSTR	28	288	1
BRSI_	28	288	1	96	96	5
NMSTR	29	0	5
BRSCL	29	0	5	96	96	1
NMTAP	29	96	6
EXTAP	29	192	7
EXSTR	29	288	7
NMSCL	29	288	7	96	96	5
NMSTR	30	0	5
NMSCL	30	0	5	96	96	3
NMSTR	30	96	3
NMSCL	30	96	3	96	96	1
NMSTR	30	192	1
NMSCL	30	192	1	96	96	7
NMSTR	30	288	7
NMSCL	30	288	7	96	96	4
NMSTR	31	0	4
NMSCL	31	0	4	96	96	1
NMSTR	31	96	1
NMSCL	31	96	1	96	96	6
NMTAP	31	192	6
NMTAP	31	288	3
NMTAP	32	0	4
NMTAP	32	48	4
NMTAP	32	96	4
NMTAP	32	144	4
NMTAP	32	192	2
NMTAP	32	240	2
NMTAP	32	288	2
NMTAP	32	336	2
NMTAP	33	0	3
NMTAP	33	24	4
NMTAP	33	48	3
NMTAP	33	72	4
NMTAP	33	96	3
NMTAP	33	120	4
NMTAP	33	144	3
NMTAP	33	168	4
NMTAP	33	192	2
NMTAP	33	216	5
NMTAP	33	240	2
NMTAP	33	264	5
NMTAP	33	288	1
NMTAP	33	312	6
NMTAP	33	336	1
NMTAP	33	360	6
BRHLD	34	0	0	96
NMHLD	34	192	3	96
NMHLD	34	192	5	96
NMTAP	35	0	2
NMTAP	35	0	4
NMSTR	35	96	0
NMSCR	35	96	0	96	48	3
NMSTR	35	96	7
NMSCL	35	96	7	96	48	4
NMTAP	35	192	0
NMTAP	35	192	7
BRTAP	35	288	2
BRSTR	35	288	5
NMSI_	35	288	5	96	48	0
NMSTR	36	0	1
NMSI_	36	0	1	96	48	5
NMTAP	36	0	5
NMTAP	36	96	1
NMSTR	36	96	4
NMSI_	36	96	4	96	48	0
NMTAP	36	192	2
NMTAP	36	192	4
NMTAP	36	288	1
NMSTR	36	336	1
NMSXL	36	336	1	96	144	4
NMTAP	37	48	4
NMTAP	37	96	5
NMTAP	37	144	6
NMSTR	37	192	7
NMSI_	37	192	7	96	48	3
BRTAP	37	288	2
BRTAP	37	288	7
NMSTR	38	0	0
NMSI_	38	0	0	96	48	4
NMSTR	38	0	1
NMSI_	38	0	1	96	48	4
NMTAP	38	96	0
NMTAP	38	96	1
NMSTR	38	192	6
NMSI_	38	192	6	96	48	3
NMSTR	38	192	7
NMSI_	38	192	7	96	48	3
NMSTR	38	288	6
BRSCR	38	288	6	96	96	4
NMTAP	38	288	7
EXSTR	39	144	0
NMSI_	39	144	0	96	48	3
EXSTR	39	192	6
NMSI_	39	192	6	96	48	3
BXTAP	39	240	0
BXTAP	39	288	6
EXSTR	40	0	2
NMSCL	40	0	2	96	48	7
NMSTR	40	96	6
NMSUL	40	96	6	96	48	2
NMSTR	40	192	0
NMSUR	40	192	0	96	48	4
NMTAP	40	288	7
NMTAP	40	336	7
NMTTP	41	48	5	B	0	M1
NMTTP	41	48	6	E	0	M1
NMTTP	41	96	1	B	0	M1
NMTTP	41	96	2	E	0	M1
NMTTP	41	144	3	B	0	M1
NMTTP	41	144	4	E	0	M1
NMTTP	41	192	0	E	0	M1
NMTTP	41	192	7	B	0	M1
BRTAP	41	288	2
BRTAP	41	288	6
NMSTR	42	0	2
NMSI_	42	0	2	96	48	7
NMSTR	42	0	6
NMSI_	42	0	6	96	48	3
NMTAP	42	96	2
NMTAP	42	96	6
NMSTR	42	192	1
NMSI_	42	192	1	96	48	4
NMSTR	42	192	5
NMSI_	42	192	5	96	48	0
NMTAP	42	288	1
NMTAP	42	288	5
BRSTR	43	0	7
NMSCL	43	0	7	96	48	4
NMSCR	43	0	7	96	48	2
BRTAP	43	96	7
BRTAP	43	192	0
BRTAP	43	192	6
NMSTR	43	288	2
NMSI_	43	288	2	96	48	7
NMTAP	43	288	4
BRTAP	44	0	2
NMSTR	44	0	6
NMSI_	44	0	6	96	48	2
NMSTR	44	96	3
NMSI_	44	96	3	96	48	7
NMTAP	44	96	6
NMTAP	44	192	3
NMTAP	44	192	5
NMTAP	44	288	6
NMSTR	44	336	6
NMSXR	44	336	6	96	144	3
NMTAP	45	48	3
NMTAP	45	96	2
NMTAP	45	144	1
NMSTR	45	192	0
NMSI_	45	192	0	96	48	4
BRTAP	45	288	0
BRTAP	45	288	5
NMSTR	46	0	6
NMSI_	46	0	6	96	48	3
NMSTR	46	0	7
NMSI_	46	0	7	96	48	3
NMTAP	46	96	6
NMTAP	46	96	7
NMSTR	46	192	0
NMSI_	46	192	0	96	48	4
NMSTR	46	192	1
NMSI_	46	192	1	96	48	4
NMTAP	46	288	0
NMSTR	46	288	1
BRSCL	46	288	1	96	96	3
EXSTR	47	144	7
NMSI_	47	144	7	96	48	4
EXSTR	47	192	1
NMSI_	47	192	1	96	48	4
BXTAP	47	240	7
BXTAP	47	288	1
EXSTR	48	0	6
NMSI_	48	0	6	96	48	2
NMTAP	48	96	0
NMTAP	48	96	6
NMTAP	48	192	1
NMTAP	48	192	7
EXSTR	48	288	2
BRSCL	48	288	2	96	120	4
BRSUR	48	288	2	96	120	4
EXTAP	48	336	2
EXSTR	49	192	0
NMSI_	49	192	0	96	48	3
EXSTR	49	192	6
NMSI_	49	192	6	96	48	3
BXTAP	49	288	0
BXTAP	49	288	6
NMSTR	50	0	2
NMSI_	50	0	2	96	48	6
NMTAP	50	48	2
NMSTR	50	96	4
NMSI_	50	96	4	96	48	0
NMTAP	50	144	4
NMSTR	50	192	3
NMSI_	50	192	3	96	48	7
NMTAP	50	240	3
NMTAP	50	288	5
NMTAP	50	336	6
BRSTR	51	0	0
NMSCL	51	0	0	96	48	5
NMSCR	51	0	0	96	48	3
BRTAP	51	96	0
BRTAP	51	192	0
BRTAP	51	192	7
BRSTR	51	288	1
BRSUR	51	288	1	96	288	4
BRSTR	51	288	6
BRSUL	51	288	6	96	288	3
NMHLD	53	0	2	768
NMTAP	53	0	4
NMTAP	53	96	3
NMTAP	53	144	3
NMTTP	53	288	4	E	0	M1
NMTAP	54	0	4
NMTAP	54	96	3
NMTAP	54	144	3
NMTTP	54	288	4	E	0	M1
NMHLD	55	0	5	624
NMTAP	55	96	4
NMTAP	55	144	4
NMTTP	55	288	4	E	0	M1
NMTAP	56	0	3
NMTAP	56	96	4
NMHLD	56	144	4	96
NMTAP	56	288	4
NMTAP	56	288	5
NMTAP	57	0	6
NMTAP	57	48	5
NMTAP	57	96	4
NMSTR	57	144	3
NMSCL	57	144	3	96	48	1
NMSTR	57	240	3
NMSI_	57	240	3	96	48	7
EXTAP	57	336	0
NMTAP	58	48	0
NMTAP	58	96	1
NMHLD	58	144	2	96
NMSTR	58	144	7
NMSI_	58	144	7	96	48	1
BXTAP	58	240	7
NMTAP	59	0	1
NMTAP	59	48	2
NMTAP	59	96	3
NMSTR	59	144	4
NMSCR	59	144	4	96	48	6
NMSTR	59	240	4
NMSI_	59	240	4	96	48	0
EXTAP	59	336	7
NMTAP	60	48	7
NMTAP	60	96	6
NMHLD	60	144	0	96
NMSTR	60	144	5
NMSI_	60	144	5	96	48	3
BXTAP	60	240	5
NMTAP	61	0	0
NMTAP	61	48	1
NMTAP	61	96	2
NMSTR	61	144	3
NMSUL	61	144	3	96	96	7
NMSTR	61	240	7
NMSUL	61	240	7	96	96	3
NMTAP	61	336	3
NMTAP	62	48	7
NMTAP	62	96	6
NMSTR	62	144	5
NMSI_	62	144	5	96	48	0
NMTAP	62	240	3
NMTAP	63	0	0
NMTAP	63	0	1
NMTAP	63	48	2
NMTAP	63	96	3
NMTAP	63	96	4
NMTAP	63	144	3
NMTAP	63	144	4
NMTAP	63	192	5
NMTAP	63	240	4
NMTAP	63	240	6
NMTAP	63	288	4
NMTAP	63	288	6
NMHLD	63	336	7	96
NMTAP	64	48	5
NMTAP	64	96	4
NMTAP	64	144	3
NMTAP	64	192	2
NMTAP	64	192	4
NMTAP	64	240	1
NMTAP	64	288	0
NMTAP	64	288	7
NMTAP	64	336	0
NMTAP	64	336	7
NMTTP	65	0	6	E	0	M1
NMTTP	65	12	5	B	0	M1
NMTTP	65	24	4	B	0	M1
NMTTP	65	72	2	E	0	M1
NMTTP	65	84	2	B	0	M1
NMTTP	65	96	3	B	0	M1
NMTTP	65	144	0	C	1	M1
NMTAP	65	240	0
NMTAP	65	240	7
BRTAP	65	288	1
BRTAP	65	288	6
NMTAP	66	0	3
NMTAP	66	0	5
NMTAP	66	48	6
NMTAP	66	72	4
NMTAP	66	96	5
NMTAP	66	144	1
NMTAP	66	168	3
NMTAP	66	192	2
NMTAP	66	240	5
NMTAP	66	264	4
NMHLD	66	288	6	192
NMTAP	66	336	3
NMTAP	67	0	2
NMTAP	67	48	1
NMTAP	67	96	0
NMHLD	67	144	0	96
NMTTP	67	240	6	E	0	M1
NMTTP	67	264	5	B	0	M1
NMTTP	67	288	4	B	0	M1
NMTAP	67	336	2
NMTAP	68	0	2
NMTAP	68	0	3
NMTAP	68	48	1
NMTAP	68	96	0
NMTAP	68	144	7
NMTAP	68	192	1
NMTAP	68	192	6
NMTAP	68	240	2
NMTAP	68	288	3
NMTAP	68	288	4
NMTAP	68	336	3
NMTAP	68	336	4
NMTAP	69	0	5
NMSTR	69	48	6
NMSUL	69	48	6	96	144	3
NMTAP	69	96	7
NMHLD	69	144	0	144
NMTAP	70	0	1
NMTAP	70	0	4
NMTAP	70	64	2
NMHLD	70	96	2	96
NMTTP	70	192	7	A	0	M1
NMTTP	70	224	6	A	0	M1
NMTTP	70	256	5	A	0	M1
NMTTP	70	288	3	A	0	M1
NMTTP	70	320	2	A	0	M1
NMTTP	70	352	1	A	0	M1
NMTTP	71	0	7	D	0	M1
NMTTP	71	32	6	D	0	M1
NMTTP	71	64	5	D	0	M1
NMTTP	71	96	3	D	0	M1
NMTTP	71	128	2	D	0	M1
NMTTP	71	160	1	D	0	M1
NMHLD	71	192	6	96
NMTAP	71	288	7
NMTAP	72	0	0
NMTAP	72	24	7
NMTAP	72	48	0
NMTAP	72	72	7
NMTAP	72	96	1
NMTAP	72	120	6
NMTAP	72	144	1
NMTAP	72	168	6
NMTAP	72	192	2
NMTAP	72	216	5
NMTAP	72	240	2
NMTAP	72	264	5
NMTAP	72	288	3
NMTAP	72	312	4
NMTAP	72	336	3
NMTAP	72	360	4
NMTAP	73	0	3
NMTAP	73	24	2
NMTAP	73	48	1
NMTAP	73	72	0
NMTAP	73	96	7
NMTAP	73	120	6
NMTAP	73	144	5
NMTAP	73	168	4
NMTAP	73	192	3
NMSTR	73	288	2
NMSCL	73	288	2	96	336	5
NMTAP	73	288	6
BRTAP	74	0	5
NMTAP	74	96	4
NMTAP	74	288	4
CNSCR	74	336	5	0	336	2
NMTAP	75	96	4
NMSTR	75	288	5
NMSCR	75	288	5	96	336	2
NMTAP	76	0	2
NMTAP	76	96	3
NMTAP	76	288	3
CNSCL	76	336	2	0	336	5
NMTAP	77	96	3
NMSTR	77	288	2
NMSCL	77	288	2	96	336	5
NMTAP	78	0	5
NMTAP	78	96	4
NMTAP	78	288	4
CNSCR	78	336	5	0	336	2
NMTAP	79	96	4
NMSTR	79	288	6
NMSCL	79	288	6	96	336	1
NMTAP	80	0	1
NMTAP	80	96	0
NMTAP	80	288	0
CNSCR	80	336	1	0	336	6
EXTAP	81	0	0
EXTAP	81	96	1
EXTAP	81	192	2
EXHLD	81	288	3	96
NMTAP	82	0	7
NMTAP	82	96	4
NMTAP	82	96	6
NMTAP	82	144	4
NMTAP	82	144	6
NMHLD	82	240	3	96
NMTAP	82	240	5
NMTAP	82	336	4
NMTAP	83	48	2
NMTAP	83	48	3
NMTAP	83	96	2
NMSTR	83	96	3
NMSI_	83	96	3	96	48	1
NMSI_	83	96	3	96	48	5
EXTAP	83	288	0
NMTAP	84	0	0
NMTAP	84	96	1
NMTAP	84	96	3
NMTAP	84	144	1
NMTAP	84	144	3
NMTAP	84	240	2
NMHLD	84	240	4	96
NMTAP	84	336	3
NMTAP	85	48	4
NMTAP	85	48	5
NMSTR	85	96	4
NMSI_	85	96	4	96	48	7
NMTAP	85	96	5
EXTAP	85	288	7
NMTAP	86	0	0
NMTAP	86	0	7
NMTAP	86	48	0
NMTAP	86	96	1
NMTAP	86	144	1
NMTAP	86	192	2
NMTAP	86	192	4
NMTAP	86	240	2
NMHLD	86	288	3	96
NMTAP	86	288	5
NMTAP	87	0	6
NMTAP	87	48	6
NMTAP	87	96	5
NMTAP	87	144	5
NMTAP	87	192	2
NMTAP	87	192	4
NMTAP	87	240	2
NMTAP	87	288	1
NMHLD	87	288	3	96
NMTAP	88	0	2
NMTAP	88	24	3
NMTAP	88	48	2
NMTAP	88	72	3
NMTAP	88	96	1
NMTAP	88	120	4
NMTAP	88	144	1
NMTAP	88	168	4
NMTAP	88	192	0
NMTAP	88	216	5
NMTAP	88	240	0
NMTAP	88	264	5
NMTAP	88	288	7
NMTAP	88	312	6
NMTAP	88	336	7
NMTAP	88	360	6
BXHLD	89	0	7	288
NMTAP	90	0	0
NMTAP	90	0	6
NMSTR	90	96	3
NMSI_	90	96	3	96	48	7
NMHLD	90	96	4	96
EXTAP	90	192	3
EXTAP	90	288	1
EXTAP	90	288	5
BRSTR	91	0	0
NMSI_	91	0	0	96	48	2
BRSTR	91	0	6
NMSI_	91	0	6	96	48	2
NMSTR	91	96	0
NMSI_	91	96	0	96	48	4
NMSTR	91	96	6
NMSI_	91	96	6	96	48	4
NMTAP	91	192	0
NMTAP	91	192	6
NMTAP	91	288	6
NMSTR	91	336	6
NMSXL	91	336	6	96	144	1
NMTAP	92	48	1
NMTAP	92	96	2
NMTAP	92	144	3
NMSTR	92	192	4
NMSI_	92	192	4	96	48	0
BRTAP	92	288	4
BRTAP	92	288	7
EXSTR	93	0	6
NMSLL	93	0	6	96	96	2
NMSTR	93	96	2
NMSLL	93	96	2	96	96	6
NMSTR	93	192	6
NMSLL	93	192	6	96	96	2
NMSTR	93	288	2
NMSCL	93	288	2	96	96	4
BRTAP	94	0	7
EXSTR	94	144	3
NMSI_	94	144	3	96	48	6
EXSTR	94	192	2
NMSI_	94	192	2	96	48	7
BXTAP	94	240	3
BXTAP	94	288	2
NMTAP	95	0	0
NMSTR	95	0	6
NMSCL	95	0	6	96	48	3
NMSTR	95	96	1
NMSUR	95	96	1	96	48	5
NMTAP	95	96	6
NMTAP	95	192	1
NMSTR	95	192	7
NMSUL	95	192	7	96	48	3
NMTAP	95	288	2
NMTAP	95	288	7
NMHLD	95	336	1	96
NMTTP	96	48	4	E	0	M1
NMTTP	96	48	4	A	0	M1
NMTTP	96	48	4	D	0	M1
NMTTP	96	96	2	E	0	M1
NMTTP	96	96	2	A	0	M1
NMTTP	96	96	2	D	0	M1
NMTTP	96	144	6	E	0	M1
NMTTP	96	144	6	A	0	M1
NMTTP	96	144	6	D	0	M1
NMSTR	96	192	0
NMSI_	96	192	0	96	48	3
NMSI_	96	192	0	96	48	5
BRTAP	96	288	0
NMSTR	97	0	2
NMSI_	97	0	2	96	48	7
NMSTR	97	0	6
NMSV_	97	0	6	96	48	3
NMTAP	97	96	2
NMTAP	97	96	6
NMSTR	97	192	1
NMSV_	97	192	1	96	48	4
NMSTR	97	192	5
NMSI_	97	192	5	96	48	0
NMTAP	97	288	1
NMTAP	97	288	5
BRSTR	98	0	7
NMSI_	98	0	7	96	48	3
BRSTR	98	96	1
NMSI_	98	96	1	96	48	5
BRTAP	98	96	7
BRTAP	98	192	1
BRTAP	98	192	4
NMTAP	98	288	0
NMTAP	98	288	6
BRSTR	99	0	1
NMSI_	99	0	1	96	48	5
BRSTR	99	0	7
NMSI_	99	0	7	96	48	5
NMSTR	99	96	1
NMSI_	99	96	1	96	48	3
NMSTR	99	96	7
NMSI_	99	96	7	96	48	3
NMTAP	99	192	1
NMTAP	99	192	7
NMTAP	99	288	1
NMSTR	99	336	1
NMSXR	99	336	1	96	144	6
NMTAP	100	48	6
NMTAP	100	96	5
NMTAP	100	144	4
NMSTR	100	192	3
NMSI_	100	192	3	96	48	7
BRTAP	100	288	0
BRTAP	100	288	3
EXSTR	101	0	1
NMSLR	101	0	1	96	96	5
NMSTR	101	96	5
NMSLR	101	96	5	96	96	1
NMSTR	101	192	1
NMSLR	101	192	1	96	96	5
NMSTR	101	288	5
NMSCR	101	288	5	96	96	3
BRTAP	102	0	0
EXSTR	102	144	4
NMSI_	102	144	4	96	48	1
EXSTR	102	192	5
NMSI_	102	192	5	96	48	0
BXTAP	102	240	4
BXTAP	102	288	5
NMSTR	103	0	1
NMSCR	103	0	1	96	48	4
NMTAP	103	0	7
NMTAP	103	96	1
NMSTR	103	96	6
NMSUL	103	96	6	96	48	2
NMSTR	103	192	0
NMSUR	103	192	0	96	48	4
NMTAP	103	192	6
NMTAP	103	288	0
EXSTR	103	288	5
BRSCR	103	288	5	96	128	3
BRSUL	103	288	5	96	128	3
EXTAP	103	336	5
EXSTR	104	192	2
NMSI_	104	192	2	96	48	7
EXSTR	104	192	3
NMSI_	104	192	3	96	48	7
BRTAP	104	288	2
BRTAP	104	288	3
NMSTR	105	0	6
NMSI_	105	0	6	96	48	2
NMTAP	105	48	6
NMSTR	105	96	0
NMSI_	105	96	0	96	48	4
NMTAP	105	144	0
NMSTR	105	192	7
NMSI_	105	192	7	96	48	3
NMTAP	105	240	7
NMTAP	105	288	0
NMTAP	105	336	0
BXTAP	106	0	0
NMTAP	106	12	1
NMTAP	106	24	2
NMTAP	106	36	3
NMTAP	106	48	4
NMTAP	106	60	5
NMTAP	106	72	6
NMTAP	106	84	7
BXTAP	106	96	0
NMTAP	106	108	1
NMTAP	106	120	2
NMTAP	106	132	3
NMTAP	106	144	4
NMTAP	106	156	5
NMTAP	106	168	6
NMTAP	106	180	7
BXTAP	106	192	0
BRSTR	106	288	1
BRSXR	106	288	1	96	192	4
BRSTR	106	288	6
BRSXL	106	288	6	96	192	3
BRTAP	107	288	0
BRTAP	107	288	7
NMSTR	108	0	6
NMSI_	108	0	6	96	48	3
NMTAP	108	48	6
NMTAP	108	96	0
NMTAP	108	144	1
NMTAP	108	192	2
NMTAP	108	192	4
NMTAP	108	240	5
NMTAP	108	288	3
NMTAP	108	288	4
NMTAP	108	336	2
NMSTR	109	0	1
NMSI_	109	0	1	96	48	4
NMTAP	109	48	1
NMTAP	109	96	7
NMTAP	109	144	6
NMTAP	109	192	3
NMTAP	109	192	5
NMTAP	109	240	2
NMTAP	109	288	3
NMTAP	109	288	4
NMTAP	109	336	5
NMSTR	110	0	6
NMSI_	110	0	6	96	48	4
NMTAP	110	48	6
NMTAP	110	96	0
NMTAP	110	144	1
NMSTR	110	192	2
NMSI_	110	192	2	96	48	0
NMTAP	110	240	2
NMSTR	110	288	6
NMSI_	110	288	6	96	48	2
NMTAP	110	336	6
NMSTR	111	0	7
NMSI_	111	0	7	96	48	3
NMTAP	111	48	7
NMSTR	111	96	0
NMSI_	111	96	0	96	48	4
NMTAP	111	144	0
NMTAP	111	192	2
NMTAP	111	240	2
BRTAP	111	288	1
BRTAP	111	288	7
NMSTR	112	0	6
NMSI_	112	0	6	96	48	3
NMTAP	112	48	6
NMTAP	112	96	0
NMTAP	112	144	1
NMTAP	112	192	2
NMTAP	112	192	4
NMTAP	112	240	5
NMTAP	112	288	3
NMTAP	112	288	4
NMTAP	112	336	2
NMSTR	113	0	1
NMSI_	113	0	1	96	48	4
NMTAP	113	48	1
NMTAP	113	96	7
NMTAP	113	144	6
NMTAP	113	192	3
NMTAP	113	192	5
NMTAP	113	240	2
NMTAP	113	288	3
NMTAP	113	288	4
NMTAP	113	336	5
NMSTR	114	0	6
NMSCL	114	0	6	96	48	3
NMTAP	114	48	6
NMSTR	114	96	1
NMSI_	114	96	1	96	48	5
NMTAP	114	144	1
NMSTR	114	192	7
NMSI_	114	192	7	96	48	3
NMTAP	114	240	7
NMTAP	114	288	0
NMTAP	114	336	0
EXTAP	115	0	0
NMTAP	115	0	4
NMTAP	115	48	1
NMTAP	115	96	2
NMTAP	115	96	3
NMTAP	115	144	2
NMTAP	115	144	3
NMTAP	115	192	4
NMTAP	115	216	3
NMTAP	115	240	5
NMTAP	115	264	4
NMTAP	115	288	6
NMTAP	115	312	3
NMTAP	115	336	7
NMTAP	115	360	2
NMSTR	116	0	6
NMSI_	116	0	6	96	192	0
NMSTR	117	0	4
BRSI_	117	0	4	96	192	2
NMSTR	118	0	5
NMSV_	118	0	5	96	360	3
NMSV_	118	0	5	96	360	7
CNSI_	119	72	3	0	264	1
CNSI_	119	72	7	0	264	1

T_REC_TAP	474
T_REC_BRK	41
T_REC_XTP	22
T_REC_BXX	25
T_REC_HLD	44
T_REC_XHO	1
T_REC_BHO	1
T_REC_BXH	1
T_REC_STR	111
T_REC_BST	17
T_REC_XST	19
T_REC_XBS	0
T_REC_TTP	49
T_REC_THO	0
T_REC_SLD	140
T_REC_BSL	15
T_REC_ALL	960
T_NUM_TAP	675
T_NUM_BRK	100
T_NUM_HLD	45
T_NUM_SLD	140
T_NUM_ALL	960
T_JUDGE_TAP	758
T_JUDGE_HLD	148
T_JUDGE_SLD	155
T_JUDGE_ALL	1061
TTM_EACHPAIRS	161
TTM_SCR_TAP	337500
TTM_SCR_BRK	260000
TTM_SCR_HLD	45000
TTM_SCR_SLD	210000
TTM_SCR_ALL	852500
TTM_SCR_S	817250
TTM_SCR_SS	842500
TTM_RAT_ACV	10118

